osu file format v14

[General]
AudioFilename: audio.mp3
AudioLeadIn: 0
PreviewTime: -1
Countdown: 0
SampleSet: None
StackLeniency: 0.7
Mode: 0
LetterboxInBreaks: 0
WidescreenStoryboard: 0

[Editor]
Bookmarks: 118755,174855
DistanceSpacing: 1.2
BeatDivisor: 4
GridSize: 16
TimelineZoom: 2.7

[Metadata]
Title:Chinurareta Shuren ni Fukeru Houmura
TitleUnicode:血塗られた醜聯に耽る葬ら
Artist:Imperial Circus Dead Decadence
ArtistUnicode:Imperial Circus Dead Decadence
Creator:kirbob
Version:Totannokurushimi
Source:
Tags:
BeatmapID:1566854
BeatmapSetID:742894

[Difficulty]
HPDrainRate:5.8
CircleSize:4.2
OverallDifficulty:9.4
ApproachRate:9.8
SliderMultiplier:2.4
SliderTickRate:1

[Events]
//Background and Video events
0,0,"nanomortis-teardrop.png",0,0
//Break Periods
2,45333,47955
2,250655,262876
//Storyboard Layer 0 (Background)
//Storyboard Layer 1 (Fail)
//Storyboard Layer 2 (Pass)
//Storyboard Layer 3 (Foreground)
//Storyboard Sound Samples

[TimingPoints]
564,923.076923076923,4,2,0,100,1,0
49755,300,4,2,0,100,1,0
54555,-200,4,2,0,100,0,0
59355,-100,4,2,0,100,0,1
77355,-100,4,2,0,100,0,0
79755,-76.9230769230769,4,2,0,100,0,0
80955,-111.111111111111,4,2,0,100,0,1
85755,-100,4,2,0,100,0,1
88155,-100,4,2,0,100,0,1
92955,-100,4,2,0,100,0,1
100155,-100,4,2,0,100,0,1
104955,-100,4,2,0,100,0,0
106155,-166.666666666667,4,2,0,100,0,0
114555,300,3,2,0,100,1,0
128955,300,4,2,0,100,1,0
128955,-83.3333333333333,4,2,0,100,0,1
136155,-83.3333333333333,4,2,0,100,0,1
140955,-83.3333333333333,4,2,0,100,0,1
148155,-83.3333333333333,4,2,0,100,0,1
152955,-142.857142857143,4,2,0,100,0,0
162555,300,3,2,0,100,1,0
192855,300,4,2,0,100,1,1
192855,-83.3333333333333,4,2,0,100,0,1
212055,-166.666666666667,4,2,0,100,0,0
231255,-100,4,2,0,100,0,1
250455,-100,4,2,0,100,0,0
252855,375,4,2,0,100,1,0
276855,-83.3333333333333,4,2,0,100,0,1
288105,-100,4,2,0,100,0,0
288709,300,4,2,0,100,1,1
298309,300,4,2,0,100,1,1
316309,-100,4,2,0,100,0,0
318709,-83.3333333333333,4,2,0,100,0,0
319909,-100,4,2,0,100,0,1
343909,-133.333333333333,4,2,0,100,0,0
353509,300,3,2,0,100,1,1
353509,-83.3333333333333,3,2,0,100,0,1
381409,600,4,2,0,100,1,0
381409,-133.333333333333,4,2,0,100,0,0
403009,-100,4,2,0,100,0,0
422209,300,4,2,0,100,1,1
431809,-76.9230769230769,4,2,0,100,0,1
441409,-90.9090909090909,4,2,0,100,0,1
460609,-100,4,2,0,100,0,0
463009,923.076923076923,4,2,0,100,1,0

[Colours]
Combo1 : 23,55,61
Combo2 : 193,28,40
Combo3 : 233,152,162
Combo4 : 61,85,94

[HitObjects]
216,132,14333,6,0,L|209:100,2,20,0|0|0,0:0|0:0|0:0,0:0:0:0:
233,229,14717,1,0,0:0:0:0:
270,218,14871,1,0,0:0:0:0:
307,207,15025,1,0,0:0:0:0:
344,196,15179,1,0,0:0:0:0:
383,184,15333,1,0,0:0:0:0:
161,142,15794,5,0,0:0:0:0:
122,255,16102,1,0,0:0:0:0:
200,255,16256,1,0,0:0:0:0:
272,175,16717,5,0,0:0:0:0:
235,164,16871,1,0,0:0:0:0:
198,153,17025,1,0,0:0:0:0:
161,142,17179,1,0,0:0:0:0:
60,230,17640,5,0,0:0:0:0:
82,347,17948,1,0,0:0:0:0:
150,308,18102,1,0,0:0:0:0:
15,80,18410,5,0,0:0:0:0:
26,117,18564,1,0,0:0:0:0:
37,154,18718,1,0,0:0:0:0:
48,191,18872,1,0,0:0:0:0:
60,230,19026,1,0,0:0:0:0:
148,331,19487,5,0,0:0:0:0:
265,309,19795,1,0,0:0:0:0:
226,241,19949,1,0,0:0:0:0:
175,85,20410,5,0,0:0:0:0:
164,122,20564,1,0,0:0:0:0:
153,159,20718,1,0,0:0:0:0:
142,196,20872,1,0,0:0:0:0:
194,334,21333,5,0,0:0:0:0:
205,297,21487,1,0,0:0:0:0:
216,260,21641,1,0,0:0:0:0:
227,223,21795,1,0,0:0:0:0:
214,94,22102,5,0,0:0:0:0:
150,56,22256,1,0,0:0:0:0:
180,125,22410,1,0,0:0:0:0:
196,52,22564,1,0,0:0:0:0:
140,101,22717,1,0,0:0:0:0:
337,204,23179,5,0,0:0:0:0:
307,47,23487,1,0,0:0:0:0:
215,99,23641,1,0,0:0:0:0:
226,237,24102,5,0,0:0:0:0:
263,226,24256,1,0,0:0:0:0:
300,215,24410,1,0,0:0:0:0:
337,204,24564,1,0,0:0:0:0:
395,106,25025,5,0,0:0:0:0:
255,28,25333,1,0,0:0:0:0:
236,131,25487,1,0,0:0:0:0:
350,256,25794,5,0,0:0:0:0:
361,219,25948,1,0,0:0:0:0:
372,182,26102,1,0,0:0:0:0:
383,145,26256,1,0,0:0:0:0:
395,106,26410,1,0,0:0:0:0:
280,104,26871,5,0,0:0:0:0:
282,265,27179,1,0,0:0:0:0:
379,229,27333,1,0,0:0:0:0:
118,66,27794,5,0,0:0:0:0:
126,103,27948,1,0,0:0:0:0:
135,141,28102,1,0,0:0:0:0:
144,178,28256,1,0,0:0:0:0:
282,265,28717,5,0,0:0:0:0:
273,227,28871,1,0,0:0:0:0:
265,190,29025,1,0,0:0:0:0:
256,152,29179,1,0,0:0:0:0:
148,22,29487,5,0,0:0:0:0:
67,77,29641,1,0,0:0:0:0:
165,79,29795,1,0,0:0:0:0:
88,20,29949,1,0,0:0:0:0:
115,113,30102,1,0,0:0:0:0:
284,271,30564,5,0,0:0:0:0:
411,125,30872,1,0,0:0:0:0:
296,78,31026,1,0,0:0:0:0:
237,293,31487,5,0,0:0:0:0:
84,118,31795,1,0,0:0:0:0:
222,61,31949,1,0,0:0:0:0:
276,303,32410,5,0,0:0:0:0:
444,111,32718,1,0,0:0:0:0:
292,48,32872,1,0,0:0:0:0:
117,267,33333,5,0,0:0:0:0:
171,280,33487,1,0,0:0:0:0:
222,291,33641,1,0,0:0:0:0:
276,303,33795,1,0,0:0:0:0:
328,75,34256,5,0,0:0:0:0:
189,260,34564,1,0,0:0:0:0:
331,306,34718,1,0,0:0:0:0:
169,111,35179,5,0,0:0:0:0:
223,98,35333,1,0,0:0:0:0:
274,87,35487,1,0,0:0:0:0:
328,75,35641,1,0,0:0:0:0:
205,270,36102,5,0,0:0:0:0:
151,282,36256,1,0,0:0:0:0:
100,293,36410,1,0,0:0:0:0:
46,306,36564,1,0,0:0:0:0:
328,75,37025,5,0,0:0:0:0:
386,72,37178,1,0,0:0:0:0:
445,87,37332,1,0,0:0:0:0:
496,118,37486,1,0,0:0:0:0:
350,306,37948,5,0,0:0:0:0:
192,135,38256,1,0,0:0:0:0:
328,75,38410,1,0,0:0:0:0:
119,288,38871,5,0,0:0:0:0:
314,162,39179,1,0,0:0:0:0:
350,306,39333,1,0,0:0:0:0:
177,64,39794,5,0,0:0:0:0:
267,277,40102,1,0,0:0:0:0:
119,288,40256,1,0,0:0:0:0:
336,100,40717,5,0,0:0:0:0:
282,87,40871,1,0,0:0:0:0:
231,76,41025,1,0,0:0:0:0:
177,64,41179,1,0,0:0:0:0:
237,309,41640,5,0,0:0:0:0:
442,203,41948,1,0,0:0:0:0:
336,100,42102,1,0,0:0:0:0:
396,345,42564,5,0,0:0:0:0:
342,333,42718,1,0,0:0:0:0:
291,322,42872,1,0,0:0:0:0:
237,309,43026,1,0,0:0:0:0:
114,114,43487,5,0,0:0:0:0:
168,127,43641,1,0,0:0:0:0:
219,138,43795,1,0,0:0:0:0:
273,150,43949,1,0,0:0:0:0:
463,297,44256,5,0,0:0:0:0:
352,215,44410,1,0,0:0:0:0:
396,345,44564,1,0,0:0:0:0:
437,217,44718,1,0,0:0:0:0:
327,296,44871,1,0,0:0:0:0:
256,192,49755,5,0,0:0:0:0:
246,175,54105,5,0,0:0:0:0:
277,184,54180,1,0,0:0:0:0:
253,206,54255,1,0,0:0:0:0:
175,61,54555,6,0,B|217:55|255:39|255:39|257:55|255:74|255:74|287:57|329:64|329:64|327:123|381:167|470:126|461:62|421:28,1,420,0|0,0:0|0:0,0:0:0:0:
264,148,55755,2,0,B|263:215|244:269|244:269|267:325|324:340|367:305|367:305|385:272|385:272|420:291|420:291|464:275|450:233,1,420,0|0,0:0|0:0,0:0:0:0:
368,159,56955,2,0,B|395:130|431:120|431:120|301:111|251:42|251:42|226:71|195:80|195:80|166:62|130:64|130:64|125:94,1,420,0|0,0:0|0:0,0:0:0:0:
128,75,58155,1,0,0:0:0:0:
116,331,59055,5,0,0:0:0:0:
92,334,59355,5,0,0:0:0:0:
51,289,59430,1,0,0:0:0:0:
38,229,59505,1,0,0:0:0:0:
56,170,59580,1,0,0:0:0:0:
101,128,59655,1,0,0:0:0:0:
161,114,59730,1,0,0:0:0:0:
220,132,59805,1,0,0:0:0:0:
262,177,59880,1,0,0:0:0:0:
275,236,59955,5,0,0:0:0:0:
317,281,60030,1,0,0:0:0:0:
376,299,60105,1,0,0:0:0:0:
436,285,60180,1,0,0:0:0:0:
481,243,60255,1,0,0:0:0:0:
499,184,60330,1,0,0:0:0:0:
486,124,60405,1,0,0:0:0:0:
445,79,60480,1,0,0:0:0:0:
368,41,60555,5,0,0:0:0:0:
354,93,60630,1,0,0:0:0:0:
376,142,60705,1,0,0:0:0:0:
361,193,60780,1,0,0:0:0:0:
316,222,60855,1,0,0:0:0:0:
263,216,60930,1,0,0:0:0:0:
226,176,61005,1,0,0:0:0:0:
222,122,61080,1,0,0:0:0:0:
255,79,61155,5,0,0:0:0:0:
307,65,61230,1,0,0:0:0:0:
355,90,61305,1,0,0:0:0:0:
377,138,61380,1,0,0:0:0:0:
361,190,61455,1,0,0:0:0:0:
340,240,61530,1,0,0:0:0:0:
354,290,61605,1,0,0:0:0:0:
399,320,61680,1,0,0:0:0:0:
433,244,61755,5,0,0:0:0:0:
382,211,61830,1,0,0:0:0:0:
321,218,61905,1,0,0:0:0:0:
278,262,61980,1,0,0:0:0:0:
235,306,62055,1,0,0:0:0:0:
174,313,62130,1,0,0:0:0:0:
123,280,62205,1,0,0:0:0:0:
106,220,62280,1,0,0:0:0:0:
130,164,62355,5,0,0:0:0:0:
184,136,62430,1,0,0:0:0:0:
243,149,62505,1,0,0:0:0:0:
280,197,62580,1,0,0:0:0:0:
340,210,62655,1,0,0:0:0:0:
394,182,62730,1,0,0:0:0:0:
420,126,62805,1,0,0:0:0:0:
403,66,62880,1,0,0:0:0:0:
333,126,62955,5,0,0:0:0:0:
316,170,63030,1,0,0:0:0:0:
331,214,63105,1,0,0:0:0:0:
370,238,63180,1,0,0:0:0:0:
415,230,63255,1,0,0:0:0:0:
446,196,63330,1,0,0:0:0:0:
447,150,63405,1,0,0:0:0:0:
417,115,63480,1,0,0:0:0:0:
372,105,63555,5,0,0:0:0:0:
332,128,63630,1,0,0:0:0:0:
292,151,63705,1,0,0:0:0:0:
247,141,63780,1,0,0:0:0:0:
217,106,63855,1,0,0:0:0:0:
187,71,63930,1,0,0:0:0:0:
142,61,64005,1,0,0:0:0:0:
102,84,64080,1,0,0:0:0:0:
157,162,64155,5,0,0:0:0:0:
210,135,64230,1,0,0:0:0:0:
242,85,64305,1,0,0:0:0:0:
294,57,64380,1,0,0:0:0:0:
353,58,64455,1,0,0:0:0:0:
403,89,64530,1,0,0:0:0:0:
431,140,64605,1,0,0:0:0:0:
430,199,64680,1,0,0:0:0:0:
399,249,64755,5,0,0:0:0:0:
348,277,64830,1,0,0:0:0:0:
289,275,64905,1,0,0:0:0:0:
239,245,64980,1,0,0:0:0:0:
211,193,65055,1,0,0:0:0:0:
212,135,65130,1,0,0:0:0:0:
243,84,65205,1,0,0:0:0:0:
293,56,65280,1,0,0:0:0:0:
380,107,65355,5,0,0:0:0:0:
378,154,65430,1,0,0:0:0:0:
352,193,65505,1,0,0:0:0:0:
311,215,65580,1,0,0:0:0:0:
264,211,65655,1,0,0:0:0:0:
224,186,65730,1,0,0:0:0:0:
204,143,65805,1,0,0:0:0:0:
184,100,65880,1,0,0:0:0:0:
144,75,65955,5,0,0:0:0:0:
97,71,66030,1,0,0:0:0:0:
56,93,66105,1,0,0:0:0:0:
30,132,66180,1,0,0:0:0:0:
28,179,66255,1,0,0:0:0:0:
50,220,66330,1,0,0:0:0:0:
89,246,66405,1,0,0:0:0:0:
136,248,66480,1,0,0:0:0:0:
189,169,66555,5,0,0:0:0:0:
221,125,66630,1,0,0:0:0:0:
273,111,66705,1,0,0:0:0:0:
321,131,66780,1,0,0:0:0:0:
343,181,66855,1,0,0:0:0:0:
330,232,66930,1,0,0:0:0:0:
317,283,67005,1,0,0:0:0:0:
339,331,67080,1,0,0:0:0:0:
387,353,67155,5,0,0:0:0:0:
437,338,67230,1,0,0:0:0:0:
468,295,67305,1,0,0:0:0:0:
463,244,67380,1,0,0:0:0:0:
426,206,67455,1,0,0:0:0:0:
374,203,67530,1,0,0:0:0:0:
336,167,67605,1,0,0:0:0:0:
333,115,67680,1,0,0:0:0:0:
419,55,67755,5,0,0:0:0:0:
438,111,67830,1,0,0:0:0:0:
426,168,67905,1,0,0:0:0:0:
387,212,67980,1,0,0:0:0:0:
331,230,68055,1,0,0:0:0:0:
273,218,68130,1,0,0:0:0:0:
229,178,68205,1,0,0:0:0:0:
185,138,68280,1,0,0:0:0:0:
127,126,68355,5,0,0:0:0:0:
71,144,68430,1,0,0:0:0:0:
32,188,68505,1,0,0:0:0:0:
19,246,68580,1,0,0:0:0:0:
37,302,68655,1,0,0:0:0:0:
81,341,68730,1,0,0:0:0:0:
139,353,68805,1,0,0:0:0:0:
195,334,68880,1,0,0:0:0:0:
248,233,68955,5,0,0:0:0:0:
206,208,69030,1,0,0:0:0:0:
157,215,69105,1,0,0:0:0:0:
125,252,69180,1,0,0:0:0:0:
123,301,69255,1,0,0:0:0:0:
153,338,69330,1,0,0:0:0:0:
202,349,69405,1,0,0:0:0:0:
245,325,69480,1,0,0:0:0:0:
263,279,69555,5,0,0:0:0:0:
248,231,69630,1,0,0:0:0:0:
205,205,69705,1,0,0:0:0:0:
162,181,69780,1,0,0:0:0:0:
144,135,69855,1,0,0:0:0:0:
159,87,69930,1,0,0:0:0:0:
202,61,70005,1,0,0:0:0:0:
251,68,70080,1,0,0:0:0:0:
368,140,70155,5,0,0:0:0:0:
336,182,70230,1,0,0:0:0:0:
286,203,70305,1,0,0:0:0:0:
232,196,70380,1,0,0:0:0:0:
189,163,70455,1,0,0:0:0:0:
146,130,70530,1,0,0:0:0:0:
92,123,70605,1,0,0:0:0:0:
42,144,70680,1,0,0:0:0:0:
10,187,70755,5,0,0:0:0:0:
3,241,70830,1,0,0:0:0:0:
24,291,70905,1,0,0:0:0:0:
67,323,70980,1,0,0:0:0:0:
120,329,71055,1,0,0:0:0:0:
170,308,71130,1,0,0:0:0:0:
203,265,71205,1,0,0:0:0:0:
209,211,71280,1,0,0:0:0:0:
176,112,71355,5,0,0:0:0:0:
200,70,71430,1,0,0:0:0:0:
237,43,71505,1,0,0:0:0:0:
289,44,71580,1,0,0:0:0:0:
331,67,71655,1,0,0:0:0:0:
355,108,71730,1,0,0:0:0:0:
356,156,71805,1,0,0:0:0:0:
333,198,71880,1,0,0:0:0:0:
292,223,71955,5,0,0:0:0:0:
245,224,72030,1,0,0:0:0:0:
203,200,72105,1,0,0:0:0:0:
178,160,72180,1,0,0:0:0:0:
136,138,72255,1,0,0:0:0:0:
88,138,72330,1,0,0:0:0:0:
48,163,72405,1,0,0:0:0:0:
25,204,72480,1,0,0:0:0:0:
110,286,72555,5,0,0:0:0:0:
159,319,72630,1,0,0:0:0:0:
217,312,72705,1,0,0:0:0:0:
258,269,72780,1,0,0:0:0:0:
261,211,72855,1,0,0:0:0:0:
244,155,72930,1,0,0:0:0:0:
268,101,73005,1,0,0:0:0:0:
320,74,73080,1,0,0:0:0:0:
378,89,73155,5,0,0:0:0:0:
413,135,73230,1,0,0:0:0:0:
409,194,73305,1,0,0:0:0:0:
369,237,73380,1,0,0:0:0:0:
309,243,73455,1,0,0:0:0:0:
259,211,73530,1,0,0:0:0:0:
201,218,73605,1,0,0:0:0:0:
159,262,73680,1,0,0:0:0:0:
244,322,73755,5,0,0:0:0:0:
290,333,73830,1,0,0:0:0:0:
335,319,73905,1,0,0:0:0:0:
367,284,73980,1,0,0:0:0:0:
377,238,74055,1,0,0:0:0:0:
363,192,74130,1,0,0:0:0:0:
328,160,74205,1,0,0:0:0:0:
282,150,74280,1,0,0:0:0:0:
237,164,74355,5,0,0:0:0:0:
205,198,74430,1,0,0:0:0:0:
160,213,74505,1,0,0:0:0:0:
113,203,74580,1,0,0:0:0:0:
78,170,74655,1,0,0:0:0:0:
64,125,74730,1,0,0:0:0:0:
74,79,74805,1,0,0:0:0:0:
106,44,74880,1,0,0:0:0:0:
219,28,74955,5,0,0:0:0:0:
272,30,75030,1,0,0:0:0:0:
316,58,75105,1,0,0:0:0:0:
340,104,75180,1,0,0:0:0:0:
338,157,75255,1,0,0:0:0:0:
309,201,75330,1,0,0:0:0:0:
263,226,75405,1,0,0:0:0:0:
211,223,75480,1,0,0:0:0:0:
166,195,75555,5,0,0:0:0:0:
141,148,75630,1,0,0:0:0:0:
143,95,75705,1,0,0:0:0:0:
171,52,75780,1,0,0:0:0:0:
218,27,75855,1,0,0:0:0:0:
270,30,75930,1,0,0:0:0:0:
315,57,76005,1,0,0:0:0:0:
338,104,76080,1,0,0:0:0:0:
299,169,76155,5,0,0:0:0:0:
299,169,76230,2,0,B|294:202|294:202|278:238,2,60,0|0|0,0:0|0:0|0:0,0:0:0:0:
224,127,76455,5,0,0:0:0:0:
224,127,76530,2,0,B|219:94|219:94|203:58,2,60,0|0|0,0:0|0:0|0:0,0:0:0:0:
192,208,76755,5,0,0:0:0:0:
192,220,76830,1,0,0:0:0:0:
191,231,76905,1,0,0:0:0:0:
191,243,76980,1,0,0:0:0:0:
191,255,77055,1,0,0:0:0:0:
191,267,77130,1,0,0:0:0:0:
191,279,77205,1,0,0:0:0:0:
191,291,77280,1,0,0:0:0:0:
191,327,77355,5,0,0:0:0:0:
256,192,77505,12,0,79605,0:0:0:0:
163,57,79755,6,0,B|173:144|172:181|172:181|185:221|229:237|229:237|262:226,1,233.999989288331,0|0,0:0|0:0,0:0:0:0:
418,128,80055,2,0,B|346:126|288:88|288:88|242:114|242:114|245:166,1,233.999989288331,0|0,0:0|0:0,0:0:0:0:
367,324,80355,2,0,B|385:249|418:214|418:214|386:195|359:200|359:200|302:178,1,233.999989288331,0|0,0:0|0:0,0:0:0:0:
220,115,80655,2,0,B|219:145|206:164|206:164|234:180|234:180|224:212|214:242|214:242|282:246|306:258,1,233.999989288331,0|0,0:0|0:0,0:0:0:0:
458,220,80955,6,0,B|403:199|403:199|346:202,1,107.999996704102,0|0,0:0|0:0,0:0:0:0:
166,253,81255,1,0,0:0:0:0:
359,266,81405,1,0,0:0:0:0:
274,93,81555,1,0,0:0:0:0:
274,93,81630,1,0,0:0:0:0:
274,93,81705,1,0,0:0:0:0:
264,287,81855,2,0,P|301:332|360:346,1,107.999996704102,0|0,0:0|0:0,0:0:0:0:
480,204,82155,5,0,0:0:0:0:
480,204,82230,1,0,0:0:0:0:
480,204,82305,1,0,0:0:0:0:
264,185,82455,1,0,0:0:0:0:
460,276,82605,1,0,0:0:0:0:
405,68,82755,1,0,0:0:0:0:
315,263,82905,1,0,0:0:0:0:
491,140,83055,1,0,0:0:0:0:
491,140,83130,1,0,0:0:0:0:
491,140,83205,1,0,0:0:0:0:
247,51,83355,6,0,B|229:107|229:107|240:164,1,107.999996704102,0|0,0:0|0:0,0:0:0:0:
369,298,83655,1,0,0:0:0:0:
369,298,83730,1,0,0:0:0:0:
369,298,83805,1,0,0:0:0:0:
404,106,83955,1,0,0:0:0:0:
278,255,84105,1,0,0:0:0:0:
313,63,84255,1,0,0:0:0:0:
163,188,84405,1,0,0:0:0:0:
360,189,84555,5,0,0:0:0:0:
117,240,84705,1,0,0:0:0:0:
263,335,84855,1,0,0:0:0:0:
212,92,85005,1,0,0:0:0:0:
28,258,85155,5,0,0:0:0:0:
57,270,85230,1,0,0:0:0:0:
88,275,85305,1,0,0:0:0:0:
120,272,85380,1,0,0:0:0:0:
151,263,85455,1,0,0:0:0:0:
181,252,85530,1,0,0:0:0:0:
213,248,85605,1,0,0:0:0:0:
245,249,85680,1,0,0:0:0:0:
276,257,85755,6,0,P|319:193|295:149,1,120,0|0,0:0|0:0,0:0:0:0:
123,66,86055,1,0,0:0:0:0:
123,66,86130,1,0,0:0:0:0:
123,66,86205,1,0,0:0:0:0:
76,264,86355,1,0,0:0:0:0:
258,173,86505,1,0,0:0:0:0:
55,161,86655,1,0,0:0:0:0:
147,343,86805,1,0,0:0:0:0:
159,140,86955,5,0,0:0:0:0:
159,140,87030,1,0,0:0:0:0:
159,140,87105,1,0,0:0:0:0:
324,296,87255,1,0,0:0:0:0:
298,71,87405,1,0,0:0:0:0:
246,292,87555,1,0,0:0:0:0:
449,190,87705,1,0,0:0:0:0:
223,177,87855,1,0,0:0:0:0:
238,185,87930,1,0,0:0:0:0:
253,193,88005,1,0,0:0:0:0:
268,201,88080,1,0,0:0:0:0:
310,223,88155,5,0,0:0:0:0:
434,93,88305,1,0,0:0:0:0:
260,51,88455,1,0,0:0:0:0:
390,175,88605,1,0,0:0:0:0:
433,2,88755,1,0,0:0:0:0:
310,131,88905,1,0,0:0:0:0:
484,174,89055,1,0,0:0:0:0:
355,50,89205,1,0,0:0:0:0:
340,283,89355,5,0,0:0:0:0:
502,115,89505,1,0,0:0:0:0:
270,99,89655,1,0,0:0:0:0:
463,229,89805,1,0,0:0:0:0:
400,6,89955,1,0,0:0:0:0:
344,231,90105,1,0,0:0:0:0:
475,40,90255,1,0,0:0:0:0:
475,40,90330,1,0,0:0:0:0:
475,40,90405,1,0,0:0:0:0:
194,175,90555,5,0,0:0:0:0:
182,221,90630,1,0,0:0:0:0:
194,266,90705,1,0,0:0:0:0:
227,299,90780,1,0,0:0:0:0:
272,311,90855,1,0,0:0:0:0:
317,298,90930,1,0,0:0:0:0:
350,265,91005,1,0,0:0:0:0:
362,220,91080,1,0,0:0:0:0:
350,175,91155,5,0,0:0:0:0:
317,142,91230,1,0,0:0:0:0:
272,130,91305,1,0,0:0:0:0:
227,142,91380,1,0,0:0:0:0:
182,154,91455,1,0,0:0:0:0:
137,142,91530,1,0,0:0:0:0:
104,109,91605,1,0,0:0:0:0:
91,63,91680,1,0,0:0:0:0:
102,17,91755,5,0,2:0:0:0:
78,72,91830,1,0,0:0:0:0:
84,131,91905,1,0,0:0:0:0:
119,179,91980,1,0,0:0:0:0:
173,203,92055,1,0,0:0:0:0:
232,197,92130,1,0,0:0:0:0:
280,162,92205,1,0,0:0:0:0:
339,156,92280,1,0,0:0:0:0:
393,180,92355,5,0,0:0:0:0:
428,228,92430,1,0,0:0:0:0:
434,287,92505,1,0,0:0:0:0:
410,341,92580,1,0,0:0:0:0:
362,376,92655,1,0,0:0:0:0:
303,382,92730,1,0,0:0:0:0:
249,358,92805,1,0,0:0:0:0:
214,310,92880,1,0,0:0:0:0:
207,250,92955,6,0,B|219:188|219:188|258:142,1,120
470,122,93255,1,0,0:0:0:0:
470,122,93330,1,0,0:0:0:0:
470,122,93405,1,0,0:0:0:0:
347,299,93555,1,0,0:0:0:0:
194,146,93705,1,0,0:0:0:0:
390,53,93855,1,0,0:0:0:0:
266,230,94005,1,0,0:0:0:0:
143,53,94155,5,0,0:0:0:0:
143,53,94230,1,0,0:0:0:0:
143,53,94305,1,0,0:0:0:0:
143,53,94380,1,0,0:0:0:0:
143,53,94455,2,0,P|123:113|137:173,1,120
332,256,94755,2,0,P|352:196|338:136,1,120
185,291,95055,2,0,P|234:330|295:337,1,120
318,62,95355,6,0,B|267:102|267:102|247:167,1,120
357,344,95655,1,0,0:0:0:0:
436,143,95805,1,0,0:0:0:0:
268,278,95955,1,0,0:0:0:0:
481,246,96105,1,0,0:0:0:0:
281,168,96255,1,0,0:0:0:0:
416,336,96405,1,0,0:0:0:0:
384,124,96555,5,0,0:0:0:0:
246,335,96705,1,0,0:0:0:0:
304,90,96855,1,0,0:0:0:0:
418,315,97005,1,0,0:0:0:0:
433,64,97155,1,0,0:0:0:0:
295,274,97305,1,0,0:0:0:0:
498,125,97455,2,0,P|490:197|454:230,1,120
155,215,97755,6,0,B|146:149|146:149|181:104,1,120
389,59,98055,1,0,0:0:0:0:
389,59,98130,1,0,0:0:0:0:
389,59,98205,1,0,0:0:0:0:
348,271,98355,1,0,0:0:0:0:
184,129,98505,1,0,0:0:0:0:
398,170,98655,1,0,0:0:0:0:
256,335,98805,1,0,0:0:0:0:
300,62,98955,6,0,P|353:95|389:151,1,120
198,252,99255,2,0,P|221:194|270:148,1,120
469,89,99555,2,0,P|427:135|365:161,1,120
191,46,99855,2,0,P|252:37|316:56,1,120
380,269,100155,5,0,0:0:0:0:
159,211,100305,1,0,0:0:0:0:
319,48,100455,1,0,0:0:0:0:
262,270,100605,1,0,0:0:0:0:
99,110,100755,1,0,0:0:0:0:
321,168,100905,1,0,0:0:0:0:
160,332,101055,1,0,0:0:0:0:
218,110,101205,1,0,0:0:0:0:
415,305,101355,5,0,0:0:0:0:
147,235,101505,1,0,0:0:0:0:
450,171,101655,1,0,0:0:0:0:
174,196,101805,1,0,0:0:0:0:
401,37,101955,1,0,0:0:0:0:
330,305,102105,1,0,0:0:0:0:
171,79,102255,1,0,0:0:0:0:
171,79,102330,1,0,0:0:0:0:
171,79,102405,1,0,0:0:0:0:
459,60,102555,5,0,0:0:0:0:
477,110,102630,1,0,0:0:0:0:
467,162,102705,1,0,0:0:0:0:
432,202,102780,1,0,0:0:0:0:
382,219,102855,1,0,0:0:0:0:
329,209,102930,1,0,0:0:0:0:
289,174,103005,1,0,0:0:0:0:
272,124,103080,1,0,0:0:0:0:
232,89,103155,5,0,0:0:0:0:
179,78,103230,1,0,0:0:0:0:
129,96,103305,1,0,0:0:0:0:
94,135,103380,1,0,0:0:0:0:
84,188,103455,1,0,0:0:0:0:
102,238,103530,1,0,0:0:0:0:
141,273,103605,1,0,0:0:0:0:
194,283,103680,1,0,0:0:0:0:
244,265,103755,5,0,0:0:0:0:
189,290,103830,1,0,0:0:0:0:
128,284,103905,1,0,0:0:0:0:
78,248,103980,1,0,0:0:0:0:
53,193,104055,1,0,0:0:0:0:
58,132,104130,1,0,0:0:0:0:
94,83,104205,1,0,0:0:0:0:
150,57,104280,1,0,0:0:0:0:
210,63,104355,5,0,0:0:0:0:
260,97,104430,1,0,0:0:0:0:
284,153,104505,1,0,0:0:0:0:
279,215,104580,1,0,0:0:0:0:
303,271,104655,1,0,0:0:0:0:
353,305,104730,1,0,0:0:0:0:
413,311,104805,1,0,0:0:0:0:
467,286,104880,1,0,0:0:0:0:
501,237,104955,5,0,0:0:0:0:
314,84,105255,1,0,0:0:0:0:
458,343,105555,5,0,0:0:0:0:
364,267,105705,1,0,0:0:0:0:
270,191,105855,1,0,0:0:0:0:
70,69,106155,6,0,B|131:117|192:82|192:82|221:105|221:105|251:93|251:93|282:98,1,215.999993408203
374,94,106755,1,0,0:0:0:0:
344,198,106905,1,0,0:0:0:0:
314,302,107055,1,0,0:0:0:0:
314,302,107130,1,0,0:0:0:0:
314,302,107205,1,0,0:0:0:0:
314,302,107280,1,0,0:0:0:0:
314,302,107355,6,0,B|274:319|274:319|228:320,1,71.9999978027344
240,173,107580,1,0,0:0:0:0:
240,173,107655,2,0,B|234:216|234:216|212:256,1,71.9999978027344
104,153,107880,1,0,0:0:0:0:
104,153,107955,2,0,B|138:179|138:179|162:218,1,71.9999978027344
356,331,108255,2,0,B|398:320|398:320|419:284,1,71.9999978027344
424,115,108555,5,0,0:0:0:0:
246,146,108705,1,0,0:0:0:0:
246,146,108855,1,0,0:0:0:0:
392,249,109005,5,0,0:0:0:0:
214,217,109155,1,0,0:0:0:0:
214,217,109305,1,0,0:0:0:0:
318,363,109455,5,0,0:0:0:0:
162,272,109605,1,0,0:0:0:0:
162,272,109755,1,0,0:0:0:0:
6,362,109905,1,0,0:0:0:0:
62,191,110055,5,0,0:0:0:0:
79,164,110130,1,0,0:0:0:0:
104,144,110205,1,0,0:0:0:0:
134,134,110280,1,0,0:0:0:0:
166,134,110355,1,0,0:0:0:0:
195,146,110430,1,0,0:0:0:0:
219,167,110505,1,0,0:0:0:0:
234,195,110580,1,0,0:0:0:0:
240,226,110655,1,0,0:0:0:0:
255,254,110730,1,0,0:0:0:0:
279,275,110805,1,0,0:0:0:0:
308,286,110880,1,0,0:0:0:0:
361,280,110955,5,0,0:0:0:0:
387,138,111105,1,0,0:0:0:0:
387,138,111255,1,0,0:0:0:0:
238,294,111405,1,0,0:0:0:0:
215,80,111555,1,0,0:0:0:0:
394,200,111705,1,0,0:0:0:0:
180,225,111855,1,0,0:0:0:0:
180,225,112005,1,0,0:0:0:0:
360,70,112155,6,0,B|354:108|354:108|322:144,1,71.9999978027344
150,140,112455,2,0,L|103:144,3,35.9999989013672
228,196,112755,2,0,P|266:210|319:202,3,71.9999978027344
444,103,113355,1,0,0:0:0:0:
255,40,113805,5,0,0:0:0:0:
255,40,113955,2,0,L|255:97,1,35.9999989013672
134,173,114105,2,0,B|186:182|215:211|215:211|253:197|253:197|289:211,1,143.999995605469
435,152,114555,6,0,B|434:220|434:220|401:268,1,120
168,213,114855,2,0,L|294:204,1,120
495,80,115155,2,0,L|369:89,1,120
286,246,115455,1,0,0:0:0:0:
286,246,115605,1,0,0:0:0:0:
447,324,115755,2,0,L|455:195,1,120
277,42,116055,2,0,L|269:171,1,120
502,103,116355,6,0,P|423:106|387:133,1,120
353,305,116655,1,0,0:0:0:0:
114,281,116805,1,0,0:0:0:0:
375,224,116955,1,0,0:0:0:0:
136,200,117105,1,0,0:0:0:0:
351,95,117255,6,0,P|333:168|291:188,1,120
292,322,117555,2,0,P|238:270|241:224,1,120
124,158,117855,2,0,P|196:137|235:163,1,120
395,87,118155,6,0,B|418:150|418:150|398:210,1,120
232,294,118455,2,0,L|107:278,1,120
43,112,118755,2,0,L|168:128,1,120
62,345,119055,1,0,0:0:0:0:
62,345,119205,1,0,0:0:0:0:
56,165,119355,2,0,L|83:39,1,120
245,121,119655,2,0,L|218:247,1,120
132,80,119955,6,0,P|184:40|245:36,1,120
401,108,120255,1,0,0:0:0:0:
332,296,120405,1,0,0:0:0:0:
201,145,120555,1,0,0:0:0:0:
392,214,120705,1,0,0:0:0:0:
237,345,120855,1,0,0:0:0:0:
306,155,121005,1,0,0:0:0:0:
437,310,121155,1,0,0:0:0:0:
247,242,121305,1,0,0:0:0:0:
57,312,121455,1,0,0:0:0:0:
57,312,121605,1,0,0:0:0:0:
174,145,121755,6,0,B|241:122|241:122|294:137,1,120
460,244,122055,2,0,L|331:254,1,120
243,72,122355,2,0,L|372:62,1,120
407,300,122655,1,0,0:0:0:0:
407,300,122805,1,0,0:0:0:0:
231,221,122955,2,0,L|221:89,1,120
409,59,123255,2,0,L|419:191,1,120
290,324,123555,6,0,P|208:324|175:297,1,120
141,102,123855,1,0,0:0:0:0:
378,135,124005,1,0,0:0:0:0:
188,280,124155,1,0,0:0:0:0:
220,44,124305,1,0,0:0:0:0:
359,239,124455,6,0,P|301:273|252:263,1,120
245,79,124755,2,0,P|303:112|319:159,1,120
163,257,125055,2,0,P|163:190|196:153,1,120
442,253,125355,6,0,B|384:284|384:284|314:286,1,120
174,132,125655,2,0,L|296:120,1,120
359,325,125955,2,0,L|237:337,1,120
59,218,126255,1,0,0:0:0:0:
59,218,126405,1,0,0:0:0:0:
216,69,126555,2,0,L|230:199,1,120
51,313,126855,2,0,L|37:183,1,120
115,29,127155,6,0,P|174:51|207:101,1,120
157,271,127455,2,0,L|31:254,1,120
157,120,127755,2,0,L|283:137,1,120
395,270,128055,1,0,0:0:0:0:
160,319,128205,1,0,0:0:0:0:
309,131,128355,1,0,0:0:0:0:
234,359,128505,1,0,0:0:0:0:
108,155,128655,1,0,0:0:0:0:
115,126,128730,1,0,0:0:0:0:
135,104,128805,1,0,0:0:0:0:
163,94,128880,1,0,0:0:0:0:
192,100,128955,6,0,B|212:169|212:169|199:244,1,143.999995605469
69,176,129255,1,0,0:0:0:0:
322,120,129405,1,0,0:0:0:0:
244,367,129555,1,0,0:0:0:0:
189,115,129705,1,0,0:0:0:0:
435,194,129855,1,0,0:0:0:0:
196,292,130005,1,0,0:0:0:0:
354,88,130155,6,0,P|332:160|260:171,1,143.999995605469
72,86,130455,2,0,P|145:69|190:125,1,143.999995605469
216,329,130755,2,0,P|164:273|191:206,1,143.999995605469
295,63,131055,1,0,0:0:0:0:
295,63,131130,1,0,0:0:0:0:
295,63,131205,1,0,0:0:0:0:
295,63,131280,1,0,0:0:0:0:
295,63,131355,6,0,B|294:95|276:131|276:131|288:131|288:131|272:160|274:200,1,143.999995605469
407,321,131655,1,0,0:0:0:0:
386,120,131805,1,0,0:0:0:0:
386,120,131880,1,0,0:0:0:0:
386,120,131955,1,0,0:0:0:0:
223,239,132105,1,0,0:0:0:0:
424,218,132255,1,0,0:0:0:0:
279,78,132405,1,0,0:0:0:0:
347,311,132555,5,0,0:0:0:0:
363,69,132705,1,0,0:0:0:0:
215,291,132855,1,0,0:0:0:0:
503,150,133005,1,0,0:0:0:0:
192,73,133155,1,0,0:0:0:0:
423,296,133305,1,0,0:0:0:0:
283,8,133455,1,0,0:0:0:0:
283,8,133530,1,0,0:0:0:0:
283,8,133605,1,0,0:0:0:0:
206,319,133755,6,0,B|279:346|279:346|352:328,1,143.999995605469
243,138,134055,1,0,0:0:0:0:
90,291,134205,1,0,0:0:0:0:
300,234,134355,1,0,0:0:0:0:
123,111,134505,1,0,0:0:0:0:
179,320,134655,1,0,0:0:0:0:
271,124,134805,1,0,0:0:0:0:
62,180,134955,6,0,B|114:206|157:194|157:194|183:206|183:206|215:201,1,143.999995605469
425,75,135255,2,0,B|373:49|330:61|330:61|304:49|304:49|272:54,1,143.999995605469
142,269,135555,2,0,P|188:323|258:299,1,143.999995605469
224,63,135855,1,0,0:0:0:0:
224,63,135930,1,0,0:0:0:0:
224,63,136005,1,0,0:0:0:0:
75,219,136155,5,0,0:0:0:0:
333,200,136305,1,0,0:0:0:0:
67,170,136455,1,0,0:0:0:0:
340,248,136605,1,0,0:0:0:0:
181,13,136755,1,0,0:0:0:0:
202,296,136905,1,0,0:0:0:0:
280,23,137055,1,0,0:0:0:0:
114,253,137205,1,0,0:0:0:0:
373,137,137355,5,0,0:0:0:0:
63,106,137505,1,0,0:0:0:0:
365,30,137655,1,0,0:0:0:0:
142,247,137805,1,0,0:0:0:0:
426,120,137955,1,0,0:0:0:0:
119,170,138105,1,0,0:0:0:0:
387,330,138255,1,0,0:0:0:0:
285,36,138405,1,0,0:0:0:0:
79,331,138555,5,0,0:0:0:0:
135,322,138630,1,0,0:0:0:0:
172,279,138705,1,0,0:0:0:0:
172,222,138780,1,0,0:0:0:0:
136,178,138855,1,0,0:0:0:0:
135,122,138930,1,0,0:0:0:0:
171,78,139005,1,0,0:0:0:0:
225,67,139080,1,0,0:0:0:0:
275,95,139155,5,0,0:0:0:0:
286,144,139230,1,0,0:0:0:0:
268,196,139305,1,0,0:0:0:0:
293,245,139380,1,0,0:0:0:0:
343,266,139455,2,0,L|406:220,1,71.9999978027344
474,234,139605,2,0,L|479:156,1,71.9999978027344
450,57,139755,5,0,0:0:0:0:
410,108,139830,1,0,0:0:0:0:
412,172,139905,1,0,0:0:0:0:
454,219,139980,1,0,0:0:0:0:
455,282,140055,1,0,0:0:0:0:
415,330,140130,1,0,0:0:0:0:
353,341,140205,1,0,0:0:0:0:
298,310,140280,1,0,0:0:0:0:
276,251,140355,5,0,0:0:0:0:
297,192,140430,1,0,0:0:0:0:
275,133,140505,1,0,0:0:0:0:
220,101,140580,1,0,0:0:0:0:
158,112,140655,1,0,0:0:0:0:
117,161,140730,1,0,0:0:0:0:
117,223,140805,1,0,0:0:0:0:
158,272,140880,1,0,0:0:0:0:
220,283,140955,6,0,B|290:250|290:250|316:178,1,143.999995605469
130,139,141255,1,0,0:0:0:0:
350,324,141405,1,0,0:0:0:0:
252,54,141555,1,0,0:0:0:0:
252,313,141705,1,0,0:0:0:0:
419,115,141855,1,0,0:0:0:0:
165,70,142005,1,0,0:0:0:0:
363,236,142155,6,0,P|383:148|349:89,1,143.999995605469
173,108,142455,2,0,P|239:169|307:169,1,143.999995605469
388,13,142755,2,0,P|301:39|267:98,1,143.999995605469
297,297,143055,1,0,0:0:0:0:
297,297,143130,1,0,0:0:0:0:
297,297,143205,1,0,0:0:0:0:
174,119,143355,6,0,B|254:116|254:116|315:168,1,143.999995605469
146,327,143655,1,0,0:0:0:0:
138,96,143805,1,0,0:0:0:0:
37,304,143955,1,0,0:0:0:0:
262,248,144105,1,0,0:0:0:0:
40,184,144255,1,0,0:0:0:0:
227,321,144405,1,0,0:0:0:0:
212,90,144555,6,0,P|154:146|164:202,1,143.999995605469
352,211,144855,2,0,P|296:153|240:163,1,143.999995605469
225,349,145155,2,0,P|283:293|273:237,1,143.999995605469,0|0,0:2|0:2,0:2:0:0:
86,223,145455,2,0,P|142:281|198:271,1,143.999995605469,0|0,0:2|0:2,0:2:0:0:
324,95,145755,6,0,B|405:91|405:91|442:149,1,143.999995605469
310,280,146055,1,0,0:0:0:0:
310,280,146130,1,0,0:0:0:0:
310,280,146205,1,0,0:0:0:0:
174,111,146355,1,0,0:0:0:0:
132,324,146505,1,0,0:0:0:0:
245,139,146655,1,0,0:0:0:0:
29,134,146805,1,0,0:0:0:0:
214,247,146955,5,0,0:0:0:0:
100,38,147105,1,0,0:0:0:0:
95,276,147255,1,0,0:0:0:0:
253,99,147405,1,0,0:0:0:0:
55,230,147555,1,0,0:0:0:0:
292,216,147705,1,0,0:0:0:0:
102,75,147855,2,0,P|95:154|155:195,1,143.999995605469
396,143,148155,5,0,0:0:0:0:
157,276,148305,1,0,0:0:0:0:
411,187,148455,1,0,0:0:0:0:
141,231,148605,1,0,0:0:0:0:
397,329,148755,1,0,0:0:0:0:
265,90,148905,1,0,0:0:0:0:
213,358,149055,1,0,0:0:0:0:
452,226,149205,1,0,0:0:0:0:
152,221,149355,5,0,0:0:0:0:
433,329,149505,1,0,0:0:0:0:
244,95,149655,1,0,0:0:0:0:
343,381,149805,1,0,0:0:0:0:
401,84,149955,1,0,0:0:0:0:
166,275,150105,1,0,0:0:0:0:
466,228,150255,1,0,0:0:0:0:
466,228,150330,1,0,0:0:0:0:
466,228,150405,1,0,0:0:0:0:
287,36,150555,5,0,0:0:0:0:
331,82,150630,1,0,0:0:0:0:
335,145,150705,1,0,0:0:0:0:
297,196,150780,1,0,0:0:0:0:
235,211,150855,1,0,0:0:0:0:
177,182,150930,1,0,0:0:0:0:
152,124,151005,1,0,0:0:0:0:
170,64,151080,1,0,0:0:0:0:
224,28,151155,5,0,0:0:0:0:
286,35,151230,1,0,0:0:0:0:
331,82,151305,1,0,0:0:0:0:
334,144,151380,1,0,0:0:0:0:
296,196,151455,1,0,0:0:0:0:
293,258,151530,1,0,0:0:0:0:
331,310,151605,1,0,0:0:0:0:
393,325,151680,1,0,0:0:0:0:
386,231,151755,5,0,0:0:0:0:
314,223,151830,1,0,0:0:0:0:
253,263,151905,1,0,0:0:0:0:
180,254,151980,1,0,0:0:0:0:
130,200,152055,1,0,0:0:0:0:
126,127,152130,1,0,0:0:0:0:
170,68,152205,1,0,0:0:0:0:
242,51,152280,1,0,0:0:0:0:
307,85,152355,6,0,B|324:124|324:124|324:160,3,71.9999978027344
403,98,152655,2,0,B|386:59|386:59|386:23,3,71.9999978027344
439,163,152955,5,0,0:0:0:0:
194,249,153255,1,0,0:0:0:0:
475,254,153555,5,0,0:0:0:0:
352,297,153705,1,0,0:0:0:0:
229,340,153855,1,0,0:0:0:0:
50,186,154155,2,0,B|100:171|166:205|166:205|181:177|181:177|230:204|299:182,1,251.999992309571
375,137,154755,1,0,0:0:0:0:
338,301,154905,1,0,0:0:0:0:
215,187,155055,1,0,0:0:0:0:
215,187,155130,1,0,0:0:0:0:
215,187,155205,1,0,0:0:0:0:
215,187,155280,1,0,0:0:0:0:
215,187,155355,6,0,B|256:214|256:214|307:218,1,83.9999974365235
180,116,155580,1,0,0:0:0:0:
180,116,155655,2,0,B|182:66|182:66|160:20,1,83.9999974365235
140,181,155880,1,0,0:0:0:0:
140,181,155955,2,0,B|96:203|96:203|67:245,1,83.9999974365235
181,342,156255,5,0,0:0:0:0:
347,319,156405,1,0,0:0:0:0:
230,98,156555,5,0,0:0:0:0:
230,98,156705,1,0,0:0:0:0:
256,306,156855,1,0,0:0:0:0:
122,102,157005,5,0,0:0:0:0:
122,102,157155,1,0,0:0:0:0:
183,302,157305,1,0,0:0:0:0:
16,124,157455,5,0,0:0:0:0:
16,124,157605,1,0,0:0:0:0:
110,310,157755,5,0,0:0:0:0:
141,322,157830,1,0,0:0:0:0:
174,322,157905,1,0,0:0:0:0:
205,311,157980,1,0,0:0:0:0:
230,290,158055,1,0,0:0:0:0:
247,261,158130,1,0,0:0:0:0:
252,229,158205,1,0,0:0:0:0:
247,196,158280,1,0,0:0:0:0:
231,168,158355,5,0,0:0:0:0:
225,136,158430,1,0,0:0:0:0:
230,103,158505,1,0,0:0:0:0:
245,74,158580,1,0,0:0:0:0:
271,52,158655,1,0,0:0:0:0:
302,39,158730,1,0,0:0:0:0:
334,38,158805,1,0,0:0:0:0:
366,49,158880,1,0,0:0:0:0:
430,71,158955,5,0,0:0:0:0:
359,268,159105,1,0,0:0:0:0:
359,268,159255,1,0,0:0:0:0:
287,72,159405,1,0,0:0:0:0:
422,232,159555,1,0,0:0:0:0:
216,197,159705,1,0,0:0:0:0:
376,62,159855,1,0,0:0:0:0:
376,62,160005,1,0,0:0:0:0:
264,287,160155,6,0,B|279:254|279:254|296:239|296:239|313:200,1,83.9999974365235
303,93,160455,2,0,L|290:52,3,41.9999987182618
359,172,160755,2,0,P|400:178|441:172,3,83.9999974365235
167,108,161355,1,0,0:0:0:0:
276,306,161805,5,0,0:0:0:0:
276,306,161955,2,0,P|283:278|297:254,1,41.9999987182618
293,99,162105,2,0,B|290:162|355:195|355:195|401:183,1,167.999994873047
476,32,162555,6,0,B|413:47|413:47|368:88,1,120
456,282,162855,2,0,L|462:155,1,120
277,49,163155,2,0,L|271:176,1,120
396,345,163455,1,0,0:0:0:0:
396,345,163605,1,0,0:0:0:0:
479,172,163755,2,0,L|351:162,1,120
178,282,164055,2,0,L|306:292,1,120
389,94,164355,6,0,P|324:114|289:154,1,120
377,350,164655,1,0,0:0:0:0:
392,134,164805,1,0,0:0:0:0:
452,343,164955,1,0,0:0:0:0:
467,127,165105,1,0,0:0:0:0:
296,259,165255,6,0,P|372:242|402:204,1,120
219,190,165555,2,0,P|195:264|213:309,1,120
323,162,165855,2,0,P|270:104|222:97,1,120
102,301,166155,6,0,B|139:251|139:251|128:189,1,120
34,40,166455,2,0,L|43:163,1,120
215,209,166755,2,0,L|206:86,1,120
50,239,167055,1,0,0:0:0:0:
50,239,167205,1,0,0:0:0:0:
221,324,167355,2,0,L|356:310,1,120
412,133,167655,2,0,L|277:147,1,120
415,293,167955,6,0,P|461:240|461:183,1,120
320,64,168255,1,0,0:0:0:0:
245,240,168405,1,0,0:0:0:0:
398,126,168555,1,0,0:0:0:0:
213,83,168705,1,0,0:0:0:0:
328,235,168855,1,0,0:0:0:0:
272,53,169005,1,0,0:0:0:0:
230,239,169155,1,0,0:0:0:0:
382,124,169305,1,0,0:0:0:0:
340,310,169455,1,0,0:0:0:0:
340,310,169605,1,0,0:0:0:0:
137,233,169755,6,0,B|141:168|141:168|177:120,1,120
351,50,170055,2,0,L|342:184,1,120
228,324,170355,2,0,L|237:190,1,120
286,19,170655,1,0,0:0:0:0:
286,19,170805,1,0,0:0:0:0:
449,120,170955,2,0,L|314:133,1,120
114,97,171255,2,0,L|249:84,1,120
443,35,171555,6,0,P|474:95|460:158,1,120
334,302,171855,1,0,0:0:0:0:
228,127,172005,1,0,0:0:0:0:
408,226,172155,1,0,0:0:0:0:
217,301,172305,1,0,0:0:0:0:
298,114,172455,2,0,P|307:193|283:240,1,120
278,360,172755,2,0,P|205:328|176:284,1,120
75,219,173055,2,0,P|138:171|191:168,1,120
366,269,173355,6,0,B|407:221|407:221|406:146,1,120
227,42,173655,2,0,L|235:164,1,120
299,369,173955,2,0,L|291:247,1,120
140,92,174255,1,0,0:0:0:0:
140,92,174405,1,0,0:0:0:0:
46,273,174555,2,0,L|189:266,1,120
378,185,174855,2,0,L|235:192,1,120
62,73,175155,6,0,P|140:62|186:85,1,120
338,240,175455,2,0,L|308:358,1,120
83,319,175755,2,0,L|113:201,1,120
309,83,176055,1,0,0:0:0:0:
275,308,176205,1,0,0:0:0:0:
104,158,176355,1,0,0:0:0:0:
332,163,176505,1,0,0:0:0:0:
155,306,176655,1,0,0:0:0:0:
147,264,176730,1,0,0:0:0:0:
167,226,176805,1,0,0:0:0:0:
206,209,176880,1,0,0:0:0:0:
286,233,176955,5,0,0:0:0:0:
286,233,177105,1,0,0:0:0:0:
145,199,177255,2,0,P|178:136|241:118,1,120
427,267,177555,2,0,P|394:330|331:348,1,120
157,284,177855,5,0,0:0:0:0:
157,284,178005,1,0,0:0:0:0:
42,196,178155,2,0,P|111:153|157:151,1,120
247,45,178455,2,0,P|311:95|328:137,1,120,0|0,0:3|0:3,0:3:0:0:
284,328,178755,6,0,B|274:269|274:269|294:209,1,120
433,80,179055,1,0,0:0:0:0:
405,270,179205,1,0,0:0:0:0:
367,82,179355,1,0,0:0:0:0:
322,269,179505,1,0,0:0:0:0:
495,184,179655,1,0,0:0:0:0:
270,129,179805,1,0,0:0:0:0:
408,316,179955,1,0,0:0:0:0:
382,86,180105,1,0,0:0:0:0:
223,254,180255,2,0,P|188:205|196:137,1,120
382,175,180555,5,0,0:0:0:0:
382,175,180705,1,0,0:0:0:0:
430,39,180855,2,0,P|348:32|305:53,1,120
334,311,181155,2,0,P|416:318|459:297,1,120
234,221,181455,5,0,0:0:0:0:
234,221,181605,1,0,0:0:0:0:
151,88,181755,2,0,P|105:132|99:198,1,120
26,283,182055,2,0,P|70:329|136:335,1,120
302,310,182355,6,0,B|337:253|337:253|334:184,1,120
181,103,182655,1,0,0:0:0:0:
384,96,182805,1,0,0:0:0:0:
212,204,182955,1,0,0:0:0:0:
240,3,183105,1,0,0:0:0:0:
401,128,183255,1,0,0:0:0:0:
200,101,183405,1,0,0:0:0:0:
388,24,183555,1,0,0:0:0:0:
294,204,183705,1,0,0:0:0:0:
109,70,183855,2,0,P|163:36|225:39,1,120
407,163,184155,5,0,0:0:0:0:
407,163,184305,1,0,0:0:0:0:
477,288,184455,2,0,P|412:310|350:297,1,120
452,24,184755,2,0,P|387:2|325:15,1,120
223,178,185055,5,0,0:0:0:0:
223,178,185205,1,0,0:0:0:0:
75,125,185355,2,0,P|59:184|69:241,1,120
371,125,185655,2,0,P|387:184|377:241,1,120
182,338,185955,6,0,B|170:275|170:275|188:207,1,120
312,62,186255,1,0,0:0:0:0:
345,275,186405,1,0,0:0:0:0:
473,102,186555,1,0,0:0:0:0:
261,134,186705,1,0,0:0:0:0:
434,262,186855,1,0,0:0:0:0:
403,50,187005,1,0,0:0:0:0:
276,222,187155,1,0,0:0:0:0:
488,191,187305,1,0,0:0:0:0:
317,64,187455,2,0,P|250:97|226:139,1,120
208,314,187755,5,0,0:0:0:0:
208,314,187905,1,0,0:0:0:0:
40,330,188055,2,0,P|48:257|36:202,1,120
376,330,188355,2,0,P|368:257|380:202,1,120
373,43,188655,5,0,0:0:0:0:
373,43,188805,1,0,0:0:0:0:
488,164,188955,2,0,P|468:226|412:258,1,120
284,349,189255,2,0,P|259:288|281:228,1,120
392,119,189555,5,0,0:0:0:0:
402,190,189705,1,0,0:0:0:0:
354,253,189855,1,0,0:0:0:0:
267,264,190005,1,0,0:0:0:0:
190,204,190155,1,0,0:0:0:0:
176,97,190305,1,0,0:0:0:0:
248,2,190455,1,0,0:0:0:0:
104,84,192855,6,0,B|168:83|168:83|196:111|196:111|256:110,1,143.999995605469
400,57,193155,1,0,0:0:0:0:
400,57,193230,1,0,0:0:0:0:
400,57,193305,1,0,0:0:0:0:
379,228,193455,2,0,P|301:200|267:147,1,143.999995605469
481,188,193755,2,8,P|473:265|425:320,1,143.999995605469,0|0,0:0|0:0,0:0:0:0:
175,338,194055,5,0,0:0:0:0:
268,96,194205,1,0,0:0:0:0:
345,318,194355,1,0,0:0:0:0:
219,91,194505,1,0,0:0:0:0:
127,334,194655,1,0,0:0:0:0:
329,170,194805,1,0,0:0:0:0:
74,121,194955,1,0,0:0:0:0:
74,121,195030,1,0,0:0:0:0:
74,121,195105,1,0,0:0:0:0:
352,46,195255,6,0,P|421:77|423:140,1,143.999995605469
205,214,195555,1,0,0:0:0:0:
205,214,195630,1,0,0:0:0:0:
205,214,195705,1,0,0:0:0:0:
102,57,195855,2,0,P|184:37|245:64,1,143.999995605469
422,241,196155,2,0,P|338:231|290:185,1,143.999995605469
482,35,196455,6,0,B|468:113|468:113|419:155,1,143.999995605469
218,70,196755,1,0,0:0:0:0:
218,70,196830,1,0,0:0:0:0:
218,70,196905,1,0,0:0:0:0:
402,39,197055,2,0,L|411:197,1,143.999995605469
324,349,197355,1,0,0:0:0:0:
324,349,197430,1,0,0:0:0:0:
324,349,197505,1,0,0:0:0:0:
129,296,197655,6,0,P|147:213|201:180,1,143.999995605469
428,252,197955,1,0,0:0:0:0:
200,342,198105,1,0,0:0:0:0:
317,127,198255,1,0,0:0:0:0:
281,370,198405,1,0,0:0:0:0:
153,161,198555,1,0,0:0:0:0:
345,314,198705,1,0,0:0:0:0:
100,321,198855,6,0,P|83:237|101:180,1,143.999995605469
250,49,199155,1,0,0:0:0:0:
401,181,199305,1,0,0:0:0:0:
99,199,199455,2,0,L|256:171,1,143.999995605469
479,226,199755,2,0,L|322:254,1,143.999995605469
64,228,200055,5,0,0:0:0:0:
291,76,200205,1,0,0:0:0:0:
310,349,200355,1,0,0:0:0:0:
158,123,200505,1,0,0:0:0:0:
430,105,200655,5,0,0:0:0:0:
418,131,200730,1,0,0:0:0:0:
430,157,200805,1,0,0:0:0:0:
418,183,200880,1,0,0:0:0:0:
434,203,200955,1,0,0:0:0:0:
422,229,201030,1,0,0:0:0:0:
434,255,201105,1,0,0:0:0:0:
422,281,201180,1,0,0:0:0:0:
377,317,201255,5,0,0:0:0:0:
321,331,201330,1,0,0:0:0:0:
265,315,201405,1,0,0:0:0:0:
224,273,201480,1,0,0:0:0:0:
210,217,201555,1,0,0:0:0:0:
225,161,201630,1,0,0:0:0:0:
267,121,201705,1,0,0:0:0:0:
324,106,201780,1,0,0:0:0:0:
380,122,201855,5,0,0:0:0:0:
338,162,201930,1,0,0:0:0:0:
281,175,202005,1,0,0:0:0:0:
225,158,202080,1,0,0:0:0:0:
185,115,202155,1,0,0:0:0:0:
128,102,202230,1,0,0:0:0:0:
72,119,202305,1,0,0:0:0:0:
32,162,202380,1,0,0:0:0:0:
29,221,202455,6,0,P|93:274|164:268,1,143.999995605469
331,49,202755,1,0,0:0:0:0:
439,315,202905,1,0,0:0:0:0:
199,154,203055,2,0,L|123:115,2,71.9999978027344
397,241,203355,2,0,L|481:230,2,71.9999978027344
102,311,203655,5,0,0:0:0:0:
330,112,203805,1,0,0:0:0:0:
145,351,203955,1,0,0:0:0:0:
291,87,204105,1,0,0:0:0:0:
206,377,204255,1,0,0:0:0:0:
253,79,204405,1,0,0:0:0:0:
375,355,204555,1,0,0:0:0:0:
375,355,204630,1,0,0:0:0:0:
375,355,204705,1,0,0:0:0:0:
349,97,204855,6,0,P|426:101|486:51,1,143.999995605469
118,77,205155,1,0,0:0:0:0:
118,77,205230,1,0,0:0:0:0:
118,77,205305,1,0,0:0:0:0:
264,324,205455,1,0,0:0:0:0:
311,41,205605,1,0,0:0:0:0:
171,291,205755,1,0,0:0:0:0:
439,190,205905,1,0,0:0:0:0:
108,173,206055,6,0,P|207:160|264:174,1,143.999995605469
479,341,206355,1,0,0:0:0:0:
425,58,206505,1,0,0:0:0:0:
243,282,206655,1,0,0:0:0:0:
492,135,206805,1,0,0:0:0:0:
207,88,206955,1,0,0:0:0:0:
431,272,207105,1,0,0:0:0:0:
306,12,207255,6,0,P|293:89|340:132,1,143.999995605469
469,318,207555,2,0,L|320:306,1,143.999995605469
131,93,207855,1,0,0:0:0:0:
82,376,208005,1,0,0:0:0:0:
330,232,208155,1,0,0:0:0:0:
44,233,208305,1,0,0:0:0:0:
293,376,208455,6,0,B|374:375|374:375|439:337,1,143.999995605469
433,53,208755,1,0,0:0:0:0:
147,94,208905,2,0,P|146:141|165:177,2,71.9999978027344
422,184,209205,2,0,P|423:231|404:267,2,71.9999978027344
155,292,209505,1,0,0:0:0:0:
40,27,209655,5,0,0:0:0:0:
351,84,209805,1,0,0:0:0:0:
40,27,209955,1,0,0:0:0:0:
280,231,210105,1,0,0:0:0:0:
40,27,210255,5,0,0:0:0:0:
33,98,210330,1,0,0:0:0:0:
73,156,210405,1,0,0:0:0:0:
140,174,210480,1,0,0:0:0:0:
204,144,210555,1,0,0:0:0:0:
233,81,210630,1,0,0:0:0:0:
295,51,210705,1,0,0:0:0:0:
362,68,210780,1,0,0:0:0:0:
394,155,210855,5,0,0:0:0:0:
127,264,211005,1,0,0:0:0:0:
127,264,211155,1,0,0:0:0:0:
127,264,211305,1,0,0:0:0:0:
220,302,211455,1,0,0:0:0:0:
308,255,211605,1,0,0:0:0:0:
329,156,211755,1,0,0:0:0:0:
267,78,211905,1,0,0:0:0:0:
137,48,212055,6,0,B|101:61|92:75|92:75|152:70|216:98,1,179.999994506836
243,176,212505,2,0,P|254:228|144:239,1,179.999994506836
138,333,212955,2,0,P|95:300|76:250,1,107.999996704102
54,88,213255,6,0,B|139:107|155:22|242:49,1,179.999994506836
386,113,213705,2,0,L|200:124,1,179.999994506836
164,194,214155,2,0,L|278:206,1,107.999996704102
438,312,214455,6,0,B|406:261|373:258|344:299|344:299|317:287|317:287|299:307|272:311,1,179.999994506836
108,175,214905,2,0,P|186:175|259:246,1,179.999994506836
267,130,215355,2,0,P|320:187|335:227,1,107.999996704102
475,344,215655,6,0,B|450:307|422:291|422:291|466:251|438:192,1,179.999994506836
237,133,216105,2,0,P|272:195|386:224,1,179.999994506836
399,301,216555,2,0,P|443:264|439:200,1,107.999996704102
421,36,216855,6,0,B|359:55|336:49|336:49|332:75|332:75|292:65|217:75|257:138|111:86|111:86|146:80|179:68,1,395.999987915039
294,148,217755,2,0,L|292:196,1,35.9999989013672
390,191,217905,2,0,L|357:226,1,35.9999989013672
249,340,218055,6,0,B|252:272|289:236|289:236|354:264,1,179.999994506836
491,153,218505,2,0,L|412:323,1,179.999994506836
304,149,218955,2,0,P|369:153|418:139,1,107.999996704102
451,42,219255,6,0,B|389:58|352:84|352:84|308:65|266:62,1,179.999994506836
89,159,219705,2,0,P|139:160|203:59,1,179.999994506836
86,79,220155,2,0,P|123:83|102:38,1,107.999996704102
36,218,220455,6,0,B|70:242|70:242|117:246|144:228|144:228|146:256|146:256|176:244|208:253,1,179.999994506836
274,318,220905,2,0,B|213:295|145:357|86:321,1,179.999994506836
57,163,221355,2,0,L|55:205,1,35.9999989013672
128,142,221505,2,0,L|153:175,1,35.9999989013672
262,54,221655,6,0,B|232:104|262:153|262:153|248:198|248:198|271:237|271:237|253:289|253:289|321:322|357:264,1,359.999989013672
386,177,222480,2,0,L|348:106,2,71.9999978027344
487,276,222855,6,0,B|410:305|364:290|364:290|341:318|282:276|247:340|247:340|202:283|235:231,1,359.999989013672
304,188,223680,2,0,L|379:171,2,71.9999978027344
190,134,224055,6,0,B|185:200|230:255|230:255|265:248|293:266|293:266|324:317|324:317|343:263|312:203,1,359.999989013672
288,109,224880,2,0,L|340:42,2,71.9999978027344
204,23,225255,6,0,B|198:69|204:105|204:105|169:126|169:126|101:109|63:175|113:236|162:217|162:217|155:263|155:263|179:291|168:358|168:358|125:366|125:366|136:334|129:307,1,539.999983520508
234,178,226455,6,0,B|233:223|226:244|226:244|251:293|252:333|252:333|314:322|364:331|364:331|319:294|332:224|397:196|469:244|467:298|420:333,1,539.999983520508
324,136,227655,6,0,L|329:171,1,35.9999989013672
421,160,227805,2,0,L|402:190,1,35.9999989013672
477,241,227955,2,0,L|442:252,1,35.9999989013672
470,340,228105,2,0,L|436:327,1,35.9999989013672
328,261,228255,2,0,L|288:275,3,35.9999989013672
450,212,228555,2,0,L|490:198,3,35.9999989013672
346,132,228855,5,0,0:0:0:0:
90,330,229305,1,0,0:0:0:0:
55,116,229605,1,0,0:0:0:0:
220,254,229905,2,0,P|307:271|386:195,1,179.999994506836
397,129,230355,2,0,P|301:144|269:66,1,179.999994506836
174,101,230805,2,0,P|202:135|211:177,2,71.9999978027344
53,42,231255,5,0,0:0:0:0:
63,101,231330,1,0,0:0:0:0:
73,160,231405,1,0,0:0:0:0:
83,219,231480,1,0,0:0:0:0:
121,265,231555,1,0,0:0:0:0:
176,285,231630,1,0,0:0:0:0:
235,275,231705,1,0,0:0:0:0:
281,237,231780,1,0,0:0:0:0:
301,182,231855,5,0,0:0:0:0:
322,237,231930,1,0,0:0:0:0:
373,265,232005,1,0,0:0:0:0:
430,253,232080,1,0,0:0:0:0:
467,208,232155,1,0,0:0:0:0:
465,149,232230,1,0,0:0:0:0:
426,106,232305,1,0,0:0:0:0:
369,97,232380,1,0,0:0:0:0:
319,126,232455,5,0,0:0:0:0:
269,155,232530,1,0,0:0:0:0:
219,184,232605,1,0,0:0:0:0:
169,213,232680,1,0,0:0:0:0:
159,269,232755,1,0,0:0:0:0:
195,312,232830,1,0,0:0:0:0:
251,312,232905,1,0,0:0:0:0:
287,269,232980,1,0,0:0:0:0:
277,213,233055,5,0,0:0:0:0:
314,257,233130,1,0,0:0:0:0:
368,276,233205,1,0,0:0:0:0:
424,265,233280,1,0,0:0:0:0:
467,227,233355,1,0,0:0:0:0:
485,173,233430,1,0,0:0:0:0:
473,116,233505,1,0,0:0:0:0:
435,74,233580,1,0,0:0:0:0:
381,57,233655,5,0,0:0:0:0:
376,92,233730,1,0,0:0:0:0:
371,127,233805,1,0,0:0:0:0:
366,162,233880,1,0,0:0:0:0:
361,197,233955,1,0,0:0:0:0:
356,232,234030,1,0,0:0:0:0:
351,267,234105,1,0,0:0:0:0:
346,302,234180,1,0,0:0:0:0:
341,337,234255,5,0,0:0:0:0:
281,345,234330,1,0,0:0:0:0:
229,312,234405,1,0,0:0:0:0:
210,254,234480,1,0,0:0:0:0:
234,197,234555,1,0,0:0:0:0:
287,168,234630,1,0,0:0:0:0:
347,181,234705,1,0,0:0:0:0:
385,229,234780,1,0,0:0:0:0:
383,290,234855,5,0,0:0:0:0:
336,278,234930,1,0,0:0:0:0:
289,266,235005,1,0,0:0:0:0:
242,254,235080,1,0,0:0:0:0:
195,243,235155,1,0,0:0:0:0:
148,232,235230,1,0,0:0:0:0:
101,221,235305,1,0,0:0:0:0:
54,210,235380,1,0,0:0:0:0:
41,163,235455,6,0,L|60:97,3,60
72,254,235755,2,0,L|53:320,3,60
137,154,236055,5,0,0:0:0:0:
145,219,236130,1,0,0:0:0:0:
199,254,236205,1,0,0:0:0:0:
261,234,236280,1,0,0:3:0:0:
286,175,236355,1,0,0:3:0:0:
348,155,236430,1,0,0:0:0:0:
402,190,236505,1,0,0:0:0:0:
410,255,236580,1,0,0:0:0:0:
374,309,236655,5,0,0:0:0:0:
316,338,236730,1,0,0:0:0:0:
256,312,236805,1,0,0:0:0:0:
227,254,236880,1,0,0:0:0:0:
230,189,236955,1,0,0:0:0:0:
283,150,237030,1,0,0:0:0:0:
298,86,237105,1,0,0:0:0:0:
268,27,237180,1,0,0:0:0:0:
207,1,237255,5,0,0:0:0:0:
185,43,237330,1,0,0:0:0:0:
163,85,237405,1,0,0:0:0:0:
141,128,237480,1,0,0:0:0:0:
119,171,237555,5,0,0:0:0:0:
165,177,237630,1,0,0:0:0:0:
212,183,237705,1,0,0:0:0:0:
260,189,237780,1,0,0:0:0:0:
308,197,237855,5,0,0:0:0:0:
297,149,237930,1,0,0:0:0:0:
287,103,238005,1,0,0:0:0:0:
276,56,238080,1,0,0:0:0:0:
265,9,238155,5,0,0:0:0:0:
246,78,238230,1,0,0:0:0:0:
227,147,238305,1,0,0:0:0:0:
208,216,238380,1,0,0:0:0:0:
226,287,238455,5,0,0:0:0:0:
274,336,238530,1,0,0:0:0:0:
341,355,238605,1,0,0:0:0:0:
409,338,238680,1,0,0:0:0:0:
459,289,238755,1,0,0:0:0:0:
478,221,238830,1,0,0:0:0:0:
461,153,238905,1,0,0:0:0:0:
412,103,238980,1,0,0:0:0:0:
345,84,239055,5,0,0:0:0:0:
287,123,239130,1,0,0:0:0:0:
279,192,239205,1,0,0:0:0:0:
221,230,239280,1,0,0:0:0:0:
154,210,239355,1,0,0:0:0:0:
127,146,239430,1,0,0:0:0:0:
158,83,239505,1,0,0:0:0:0:
226,68,239580,1,0,0:0:0:0:
227,91,239655,5,0,0:0:0:0:
228,114,239730,1,0,0:0:0:0:
229,137,239805,1,0,0:0:0:0:
230,160,239880,1,0,0:0:0:0:
242,179,239955,1,0,0:0:0:0:
262,189,240030,1,0,0:0:0:0:
284,188,240105,1,0,0:0:0:0:
303,175,240180,1,0,0:0:0:0:
313,155,240255,5,0,0:0:0:0:
301,105,240330,1,0,0:0:0:0:
265,67,240405,1,0,0:0:0:0:
215,52,240480,1,0,0:0:0:0:
164,64,240555,1,0,0:0:0:0:
126,99,240630,1,0,0:0:0:0:
111,149,240705,1,0,0:0:0:0:
123,200,240780,1,0,0:0:0:0:
207,253,240855,5,0,0:0:0:0:
448,75,241005,1,0,0:0:0:0:
152,31,241155,1,0,0:0:0:0:
331,272,241305,1,0,0:0:0:0:
383,37,241455,2,0,P|410:108|397:155,1,120
189,264,241755,2,0,P|162:193|175:146,1,120
454,98,242055,5,0,0:0:0:0:
107,196,242205,1,0,0:0:0:0:
474,171,242355,1,0,0:0:0:0:
114,144,242505,1,0,0:0:0:0:
468,247,242655,1,0,0:0:0:0:
139,99,242805,1,0,0:0:0:0:
436,316,242955,1,0,0:0:0:0:
178,64,243105,1,0,0:0:0:0:
361,374,243255,5,0,0:0:0:0:
361,38,243405,1,0,0:0:0:0:
124,276,243555,1,0,0:0:0:0:
460,276,243705,1,0,0:0:0:0:
223,39,243855,1,0,0:0:0:0:
223,375,244005,1,0,0:0:0:0:
461,138,244155,1,0,0:0:0:0:
126,138,244305,1,0,0:0:0:0:
417,340,244455,5,0,0:0:0:0:
415,292,244530,1,0,0:0:0:0:
382,256,244605,1,0,0:0:0:0:
333,249,244680,1,0,0:0:0:0:
290,275,244755,2,0,P|260:315|190:313,1,120
47,189,245055,5,0,0:0:0:0:
49,141,245130,1,0,0:0:0:0:
82,105,245205,1,0,0:0:0:0:
131,98,245280,1,0,0:0:0:0:
174,124,245355,2,0,P|204:164|274:162,1,120
394,17,245655,5,0,0:0:0:0:
346,313,245805,1,0,0:0:0:0:
240,33,245955,1,0,0:0:0:0:
51,265,246105,1,0,0:0:0:0:
331,159,246255,1,0,0:0:0:0:
36,111,246405,1,0,0:0:0:0:
232,338,246555,1,0,0:0:0:0:
280,42,246705,1,0,0:0:0:0:
23,196,246855,5,0,0:0:0:0:
378,137,247005,1,0,0:0:0:0:
30,240,247155,1,0,0:0:0:0:
385,181,247305,1,0,0:0:0:0:
37,284,247455,1,0,0:0:0:0:
392,225,247605,1,0,0:0:0:0:
44,328,247755,1,0,0:0:0:0:
399,269,247905,1,0,0:0:0:0:
90,87,248055,5,0,0:0:0:0:
319,364,248205,1,0,0:0:0:0:
322,5,248355,1,0,0:0:0:0:
197,342,248505,1,0,0:0:0:0:
510,165,248655,1,0,0:0:0:0:
151,162,248805,1,0,0:0:0:0:
488,288,248955,1,0,0:0:0:0:
215,55,249105,1,0,0:0:0:0:
174,257,249255,6,0,L|261:225,1,80
334,134,249455,2,0,L|318:225,1,80
359,340,249655,2,0,L|287:280,1,80
165,144,249855,6,0,P|222:156|246:175,1,80
369,153,250055,2,0,P|330:196|301:207,1,80
261,322,250255,2,0,P|242:266|247:236,1,80
286,91,250455,1,0,0:0:0:0:
299,80,263355,5,0,0:0:0:0:
179,266,263917,1,0,0:0:0:0:
341,304,264105,1,0,0:0:0:0:
293,145,264292,1,0,0:0:0:0:
179,266,264480,1,0,0:0:0:0:
179,266,264573,1,0,0:0:0:0:
179,266,264667,2,0,L|247:267,1,60
371,270,264855,5,0,0:0:0:0:
388,225,264948,1,0,0:0:0:0:
380,177,265042,1,0,0:0:0:0:
349,139,265136,1,0,0:0:0:0:
303,122,265230,1,0,0:0:0:0:
255,129,265323,1,0,0:0:0:0:
217,160,265417,1,0,0:0:0:0:
200,206,265511,1,0,0:0:0:0:
169,244,265605,5,0,0:0:0:0:
123,261,265699,1,0,0:0:0:0:
75,253,265793,1,0,0:0:0:0:
37,223,265886,2,0,L|34:154,1,60
43,43,266073,5,0,0:0:0:0:
85,66,266167,1,0,0:0:0:0:
109,106,266261,1,0,0:0:0:0:
110,153,266355,1,0,0:0:0:0:
87,194,266449,1,0,0:0:0:0:
87,241,266542,1,0,0:0:0:0:
111,281,266636,1,0,0:0:0:0:
151,304,266729,1,0,0:0:0:0:
198,303,266823,5,0,0:0:0:0:
238,279,266916,1,0,0:0:0:0:
261,239,267010,1,0,0:0:0:0:
261,192,267105,1,0,0:0:0:0:
238,152,267198,1,0,0:0:0:0:
238,104,267292,1,0,0:0:0:0:
262,64,267386,1,0,0:0:0:0:
302,41,267479,1,0,0:0:0:0:
349,42,267573,5,0,0:0:0:0:
389,66,267666,1,0,0:0:0:0:
412,106,267760,1,0,0:0:0:0:
412,153,267855,2,0,L|353:185,1,60
209,197,268042,5,0,0:0:0:0:
247,158,268136,1,0,0:0:0:0:
301,152,268230,1,0,0:0:0:0:
346,182,268323,1,0,0:0:0:0:
361,234,268417,1,0,0:0:0:0:
338,283,268511,1,0,0:0:0:0:
289,307,268605,1,0,0:0:0:0:
237,294,268698,1,0,0:0:0:0:
205,251,268792,5,0,0:0:0:0:
209,197,268886,2,0,L|220:133,1,60
327,85,269073,1,0,0:0:0:0:
327,85,269167,2,0,L|365:80,2,30
267,71,269355,5,0,0:0:0:0:
208,88,269448,1,0,0:0:0:0:
165,132,269542,1,0,0:0:0:0:
150,191,269636,1,0,0:0:0:0:
166,250,269730,1,0,0:0:0:0:
210,292,269823,1,0,0:0:0:0:
269,307,269917,1,0,0:0:0:0:
328,291,270011,1,0,0:0:0:0:
371,247,270105,5,0,0:0:0:0:
386,188,270198,1,0,0:0:0:0:
370,129,270292,1,0,0:0:0:0:
326,86,270386,1,0,0:0:0:0:
266,70,270480,1,0,0:0:0:0:
207,86,270574,1,0,0:0:0:0:
147,70,270667,1,0,0:0:0:0:
87,86,270761,1,0,0:0:0:0:
27,69,270855,2,0,L|11:140,1,60
37,248,271042,5,0,0:0:0:0:
76,293,271136,1,0,0:0:0:0:
134,302,271229,1,0,0:0:0:0:
185,271,271323,1,0,0:0:0:0:
204,215,271416,1,0,0:0:0:0:
255,184,271511,1,0,0:0:0:0:
313,193,271604,1,0,0:0:0:0:
352,238,271698,1,0,0:0:0:0:
410,247,271792,5,0,0:0:0:0:
460,216,271886,2,0,L|462:151,1,60
404,50,272073,5,0,0:0:0:0:
398,97,272167,1,0,0:0:0:0:
392,144,272261,1,0,0:0:0:0:
386,191,272355,2,0,L|339:242,1,60
198,269,272542,5,0,0:0:0:0:
178,212,272636,1,0,0:0:0:0:
189,152,272730,1,0,0:0:0:0:
228,106,272823,1,0,0:0:0:0:
284,84,272917,1,0,0:0:0:0:
347,98,273011,1,0,0:0:0:0:
391,134,273105,1,0,0:0:0:0:
412,191,273198,1,0,0:0:0:0:
402,250,273292,5,0,0:0:0:0:
363,297,273386,1,0,0:0:0:0:
306,317,273480,1,0,0:0:0:0:
246,307,273574,1,0,0:0:0:0:
189,328,273667,2,0,L|126:302,1,60
62,184,273855,6,0,L|115:170,2,30
216,90,274042,2,0,L|230:143,2,30
310,246,274230,2,0,L|257:260,2,30
156,340,274417,2,0,L|142:287,2,30
92,128,274605,5,0,0:0:0:0:
125,64,274698,1,0,0:0:0:0:
191,36,274792,1,0,0:0:0:0:
262,58,274886,1,0,0:0:0:0:
301,118,274980,1,0,0:0:0:0:
291,191,275073,1,0,0:0:0:0:
331,252,275167,1,0,0:0:0:0:
400,275,275261,1,0,0:0:0:0:
467,247,275355,5,0,0:0:0:0:
500,181,275448,1,0,0:0:0:0:
484,111,275542,1,0,0:0:0:0:
426,66,275636,1,0,0:0:0:0:
352,71,275729,1,0,0:0:0:0:
299,120,275823,1,0,0:0:0:0:
291,193,275916,1,0,0:0:0:0:
237,243,276011,1,0,0:0:0:0:
163,247,276105,5,0,0:0:0:0:
105,203,276199,1,0,0:0:0:0:
88,131,276292,1,0,0:0:0:0:
122,65,276386,1,0,0:0:0:0:
189,36,276480,1,0,0:0:0:0:
259,58,276573,1,0,0:0:0:0:
300,118,276667,1,0,0:0:0:0:
292,190,276761,1,0,0:0:0:0:
237,243,276855,6,0,B|206:253|171:242|171:242|210:302|325:288|336:202|336:202|266:159|297:98|330:82,1,431.999986816407
462,70,277605,5,0,0:0:0:0:
454,141,277698,1,0,0:0:0:0:
447,212,277792,1,0,0:0:0:0:
395,261,277886,1,0,0:0:0:0:
323,265,277980,2,0,P|288:246|268:216,1,71.9999978027344
187,131,278167,6,0,P|220:110|256:107,1,71.9999978027344
321,131,278355,1,0,0:0:0:0:
345,187,278448,1,0,0:0:0:0:
327,245,278542,1,0,0:0:0:0:
276,278,278636,5,0,0:0:0:0:
215,271,278730,1,0,0:0:0:0:
174,227,278823,1,0,0:0:0:0:
170,166,278917,1,0,0:0:0:0:
207,117,279011,5,0,0:0:0:0:
266,103,279105,1,0,0:0:0:0:
321,131,279198,1,0,0:0:0:0:
345,187,279292,1,0,0:0:0:0:
317,239,279386,5,0,0:0:0:0:
272,264,279480,1,0,0:0:0:0:
223,255,279573,1,0,0:0:0:0:
193,218,279667,1,0,0:0:0:0:
194,173,279761,5,0,0:0:0:0:
222,141,279855,1,0,0:0:0:0:
261,131,279948,1,0,0:0:0:0:
288,138,280042,1,0,0:0:0:0:
310,153,280136,1,0,0:0:0:0:
317,179,280230,1,0,0:0:0:0:
315,206,280324,1,0,0:0:0:0:
295,225,280417,1,0,0:0:0:0:
271,237,280511,1,0,0:0:0:0:
245,230,280605,5,0,0:0:0:0:
197,198,280698,1,0,0:0:0:0:
180,142,280792,1,0,0:0:0:0:
130,110,280886,1,0,0:0:0:0:
71,117,280980,1,0,0:0:0:0:
31,160,281074,1,0,0:0:0:0:
27,219,281167,1,0,0:0:0:0:
63,266,281261,1,0,0:0:0:0:
141,274,281355,5,0,0:0:0:0:
205,229,281448,1,0,0:0:0:0:
225,153,281542,1,0,0:0:0:0:
289,107,281636,1,0,0:0:0:0:
367,113,281730,1,0,0:0:0:0:
423,168,281824,1,0,0:0:0:0:
430,246,281917,1,0,0:0:0:0:
386,310,282011,1,0,0:0:0:0:
311,331,282105,2,0,L|234:322,3,71.9999978027344
173,236,282480,5,0,0:0:0:0:
173,236,282573,1,0,0:0:0:0:
173,236,282667,1,0,0:0:0:0:
173,236,282761,1,0,0:0:0:0:
210,244,282855,5,0,0:0:0:0:
280,231,282948,1,0,0:0:0:0:
315,169,283042,1,0,0:0:0:0:
301,99,283136,1,0,0:0:0:0:
245,54,283230,2,0,P|219:94|214:122,1,71.9999978027344
245,257,283417,5,0,0:0:0:0:
262,269,283511,1,0,0:0:0:0:
280,260,283605,1,0,0:0:0:0:
297,272,283698,1,0,0:0:0:0:
315,263,283792,1,0,0:0:0:0:
332,275,283886,1,0,0:0:0:0:
350,266,283980,1,0,0:0:0:0:
367,278,284073,1,0,0:0:0:0:
385,269,284167,1,0,0:0:0:0:
402,281,284261,1,0,0:0:0:0:
420,272,284355,5,0,0:0:0:0:
435,232,284448,1,0,0:0:0:0:
427,189,284542,1,0,0:0:0:0:
399,156,284636,1,0,0:0:0:0:
358,141,284730,1,0,0:0:0:0:
315,148,284823,1,0,0:0:0:0:
281,176,284917,1,0,0:0:0:0:
237,183,285011,1,0,0:0:0:0:
195,167,285105,5,0,0:0:0:0:
167,132,285199,1,0,0:0:0:0:
160,88,285292,1,0,0:0:0:0:
176,46,285386,1,0,0:0:0:0:
211,18,285480,2,0,L|294:23,1,71.9999978027344
386,53,285667,5,0,0:0:0:0:
407,98,285761,1,0,0:0:0:0:
391,154,285855,1,0,0:0:0:0:
342,186,285948,1,0,0:0:0:0:
284,179,286042,1,0,0:0:0:0:
244,137,286135,1,0,0:0:0:0:
186,130,286230,1,0,0:0:0:0:
137,162,286323,1,0,0:0:0:0:
120,218,286418,1,0,0:0:0:0:
142,271,286511,5,0,0:0:0:0:
195,298,286604,1,0,0:0:0:0:
252,284,286699,1,0,0:0:0:0:
287,236,286792,1,0,0:0:0:0:
283,177,286887,1,0,0:0:0:0:
317,129,286980,1,0,0:0:0:0:
374,114,287073,1,0,0:0:0:0:
427,139,287166,1,0,0:0:0:0:
451,192,287261,1,0,0:0:0:0:
458,255,287355,6,0,L|387:273,1,71.9999978027344
288,351,287542,2,0,L|307:280,1,71.9999978027344
292,161,287730,2,0,L|343:213,1,71.9999978027344
449,267,287917,2,0,P|398:271|365:251,1,71.9999978027344
348,144,288105,6,0,P|362:73|383:162,1,240
252,344,288709,6,0,P|232:263|252:223,1,120
465,138,289009,2,0,P|404:195|360:198,1,120
141,132,289309,1,0,0:0:0:0:
141,132,289384,1,0,0:0:0:0:
141,132,289459,1,0,0:0:0:0:
370,62,289609,1,0,0:0:0:0:
316,295,289759,1,0,0:0:0:0:
200,84,289909,6,0,P|234:107|264:108,1,60
389,104,290059,2,0,P|350:122|335:147,1,60
392,289,290209,1,0,0:0:0:0:
392,289,290284,1,0,0:0:0:0:
392,289,290359,1,0,0:0:0:0:
101,215,290509,5,0,0:0:0:0:
424,197,290659,1,0,0:0:0:0:
136,52,290809,1,0,0:0:0:0:
357,287,290959,1,0,0:0:0:0:
443,63,291109,6,0,P|475:31|506:17,2,60
304,178,291409,1,0,0:0:0:0:
386,17,291559,1,0,0:0:0:0:
410,316,291709,2,0,P|354:327|288:297,1,120
238,70,292009,1,0,0:0:0:0:
454,173,292159,1,0,0:0:0:0:
234,269,292309,5,0,0:0:0:0:
175,256,292384,1,0,0:0:0:0:
138,208,292459,1,0,0:0:0:0:
140,147,292534,1,0,0:0:0:0:
181,102,292609,1,0,0:0:0:0:
240,94,292684,1,0,0:0:0:0:
292,126,292759,1,0,0:0:0:0:
311,184,292834,1,0,0:0:0:0:
287,240,292909,5,0,0:0:0:0:
306,298,292984,1,0,0:0:0:0:
358,330,293059,1,0,0:0:0:0:
417,322,293134,1,0,0:0:0:0:
457,276,293209,1,0,0:0:0:0:
459,215,293284,1,0,0:0:0:0:
423,169,293359,1,0,0:0:0:0:
365,156,293434,1,0,0:0:0:0:
283,164,293509,6,0,P|238:217|244:281,1,120
417,256,293809,1,0,0:0:0:0:
250,83,293959,1,0,0:0:0:0:
181,312,294109,1,0,0:0:0:0:
181,312,294184,1,0,0:0:0:0:
181,312,294259,1,0,0:0:0:0:
401,108,294409,1,0,0:0:0:0:
103,142,294559,1,0,0:0:0:0:
325,284,294709,6,0,P|369:254|370:183,1,120
326,124,294934,2,0,P|278:100|216:135,1,120
177,195,295159,2,0,L|199:268,1,60
259,318,295309,2,0,P|341:337|382:325,1,120
436,269,295534,2,0,P|455:187|443:146,1,120
401,77,295759,2,0,L|340:51,1,60
254,43,295909,6,0,L|189:51,3,60
228,126,296209,2,0,L|175:165,3,60
261,209,296509,5,0,0:0:0:0:
280,259,296584,1,0,0:0:0:0:
321,292,296659,1,0,0:0:0:0:
373,300,296734,1,0,0:0:0:0:
422,281,296809,1,0,0:0:0:0:
455,240,296884,1,0,0:0:0:0:
463,188,296959,1,0,0:0:0:0:
444,139,297034,1,0,0:0:0:0:
403,106,297109,5,0,0:0:0:0:
331,110,297184,1,0,0:0:0:0:
278,159,297259,1,0,0:0:0:0:
269,230,297334,1,0,0:0:0:0:
216,278,297409,1,0,0:0:0:0:
144,281,297484,1,0,0:0:0:0:
88,237,297559,1,0,0:0:0:0:
72,166,297634,1,0,0:0:0:0:
115,108,297709,6,0,L|164:57,3,60
198,128,298009,2,0,L|268:120,3,60
261,225,298309,5,0,0:0:0:0:
294,274,298384,1,0,0:0:0:0:
350,290,298459,1,0,0:0:0:0:
403,266,298534,1,0,0:0:0:0:
429,213,298609,1,0,0:0:0:0:
414,155,298684,1,0,0:0:0:0:
367,121,298759,1,0,0:0:0:0:
309,125,298834,1,0,0:0:0:0:
267,166,298909,5,0,0:0:0:0:
208,170,298984,1,0,0:0:0:0:
160,135,299059,1,0,0:0:0:0:
100,139,299134,1,0,0:0:0:0:
57,180,299209,1,0,0:0:0:0:
50,239,299284,1,0,0:0:0:0:
82,288,299359,1,0,0:0:0:0:
139,305,299434,1,0,0:0:0:0:
193,281,299509,5,0,0:0:0:0:
242,333,299584,1,0,0:0:0:0:
313,328,299659,1,0,0:0:0:0:
355,270,299734,1,0,0:0:0:0:
338,201,299809,1,0,0:0:0:0:
274,168,299884,1,0,0:0:0:0:
209,197,299959,1,0,0:0:0:0:
145,164,300034,1,0,0:0:0:0:
128,95,300109,5,0,0:0:0:0:
170,37,300184,1,0,0:0:0:0:
240,32,300259,1,0,0:0:0:0:
290,83,300334,1,0,0:0:0:0:
340,134,300409,1,0,0:0:0:0:
390,185,300484,1,0,0:0:0:0:
383,256,300559,1,0,0:0:0:0:
324,296,300634,1,0,0:0:0:0:
255,276,300709,5,0,0:0:0:0:
210,293,300784,1,0,0:0:0:0:
162,285,300859,1,0,0:0:0:0:
124,254,300934,1,0,0:0:0:0:
107,208,301009,1,0,0:0:0:0:
114,160,301084,1,0,0:0:0:0:
145,122,301159,1,0,0:0:0:0:
191,105,301234,1,0,0:0:0:0:
239,113,301309,5,0,0:0:0:0:
276,143,301384,1,0,0:0:0:0:
293,187,301459,1,0,0:0:0:0:
329,216,301534,1,0,0:0:0:0:
375,223,301609,1,0,0:0:0:0:
418,206,301684,1,0,0:0:0:0:
452,175,301759,1,0,0:0:0:0:
467,131,301834,1,0,0:0:0:0:
457,85,301909,5,0,0:0:0:0:
434,94,301984,1,0,0:0:0:0:
411,103,302059,1,0,0:0:0:0:
389,112,302134,1,0,0:0:0:0:
367,121,302209,1,0,0:0:0:0:
345,130,302284,1,0,0:0:0:0:
323,139,302359,1,0,0:0:0:0:
301,148,302434,1,0,0:0:0:0:
279,157,302509,5,0,0:0:0:0:
219,166,302584,1,0,0:0:0:0:
170,129,302659,1,0,0:0:0:0:
161,69,302734,1,0,0:0:0:0:
198,20,302809,1,0,0:0:0:0:
258,11,302884,1,0,0:0:0:0:
307,48,302959,1,0,0:0:0:0:
316,108,303034,1,0,0:0:0:0:
279,157,303109,5,0,0:0:0:0:
238,193,303184,1,0,0:0:0:0:
229,246,303259,1,0,0:0:0:0:
257,292,303334,1,0,0:0:0:0:
307,310,303409,1,0,0:0:0:0:
357,290,303484,1,0,0:0:0:0:
384,243,303559,1,0,0:0:0:0:
373,190,303634,1,0,0:0:0:0:
333,156,303709,5,0,0:0:0:0:
278,157,303784,1,0,0:0:0:0:
238,191,303859,1,0,0:0:0:0:
185,191,303934,1,0,0:0:0:0:
144,157,304009,1,0,0:0:0:0:
135,105,304084,1,0,0:0:0:0:
161,58,304159,1,0,0:0:0:0:
211,40,304234,1,0,0:0:0:0:
264,49,304309,5,0,0:0:0:0:
317,87,304384,1,0,0:0:0:0:
327,151,304459,1,0,0:0:0:0:
289,204,304534,1,0,0:0:0:0:
225,214,304609,1,0,0:0:0:0:
172,175,304684,1,0,0:0:0:0:
106,184,304759,1,0,0:0:0:0:
67,236,304834,1,0,0:0:0:0:
76,302,304909,5,0,0:0:0:0:
129,342,304984,1,0,0:0:0:0:
193,333,305059,1,0,0:0:0:0:
233,280,305134,1,0,0:0:0:0:
298,270,305209,1,0,0:0:0:0:
351,309,305284,1,0,0:0:0:0:
416,299,305359,1,0,0:0:0:0:
454,245,305434,1,0,0:0:0:0:
442,179,305509,5,0,0:0:0:0:
415,138,305584,1,0,0:0:0:0:
371,115,305659,1,0,0:0:0:0:
321,117,305734,1,0,0:0:0:0:
280,144,305809,1,0,0:0:0:0:
257,187,305884,1,0,0:0:0:0:
260,237,305959,1,0,0:0:0:0:
237,281,306034,1,0,0:0:0:0:
195,308,306109,5,0,0:0:0:0:
145,310,306184,1,0,0:0:0:0:
100,287,306259,1,0,0:0:0:0:
73,245,306334,1,0,0:0:0:0:
71,195,306409,1,0,0:0:0:0:
94,151,306484,1,0,0:0:0:0:
136,124,306559,1,0,0:0:0:0:
185,122,306634,1,0,0:0:0:0:
228,144,306709,5,0,0:0:0:0:
230,155,306784,1,0,0:0:0:0:
232,166,306859,1,0,0:0:0:0:
234,177,306934,1,0,0:0:0:0:
236,188,307009,1,0,0:0:0:0:
238,199,307084,1,0,0:0:0:0:
240,210,307159,1,0,0:0:0:0:
242,221,307234,1,0,0:0:0:0:
244,232,307309,5,0,0:0:0:0:
246,243,307384,1,0,0:0:0:0:
248,254,307459,1,0,0:0:0:0:
250,265,307534,1,0,0:0:0:0:
252,276,307609,1,0,0:0:0:0:
254,287,307684,1,0,0:0:0:0:
256,298,307759,1,0,0:0:0:0:
258,309,307834,1,0,0:0:0:0:
308,333,307909,5,0,0:0:0:0:
358,315,307984,1,0,0:0:0:0:
384,269,308059,1,0,0:0:0:0:
374,216,308134,1,0,0:0:0:0:
334,183,308209,1,0,0:0:0:0:
280,182,308284,1,0,0:0:0:0:
240,217,308359,1,0,0:0:0:0:
231,270,308434,1,0,0:0:0:0:
190,304,308509,5,0,0:0:0:0:
136,304,308584,1,0,0:0:0:0:
95,269,308659,1,0,0:0:0:0:
85,216,308734,1,0,0:0:0:0:
112,170,308809,1,0,0:0:0:0:
162,151,308884,1,0,0:0:0:0:
188,104,308959,1,0,0:0:0:0:
177,51,309034,1,0,0:0:0:0:
99,85,309109,5,0,0:0:0:0:
138,121,309184,1,0,0:0:0:0:
189,132,309259,1,0,0:0:0:0:
239,116,309334,1,0,0:0:0:0:
274,77,309409,1,0,0:0:0:0:
323,60,309484,1,0,0:0:0:0:
374,70,309559,1,0,0:0:0:0:
413,104,309634,1,0,0:0:0:0:
429,153,309709,5,0,0:0:0:0:
419,204,309784,1,0,0:0:0:0:
385,243,309859,1,0,0:0:0:0:
336,260,309934,1,0,0:0:0:0:
285,250,310009,1,0,0:0:0:0:
246,216,310084,1,0,0:0:0:0:
195,206,310159,1,0,0:0:0:0:
145,222,310234,1,0,0:0:0:0:
105,310,310309,5,0,0:0:0:0:
157,323,310384,1,0,0:0:0:0:
205,299,310459,1,0,0:0:0:0:
226,250,310534,1,0,0:0:0:0:
211,198,310609,1,0,0:0:0:0:
232,148,310684,1,0,0:0:0:0:
280,124,310759,1,0,0:0:0:0:
332,137,310834,1,0,0:0:0:0:
365,180,310909,5,0,0:0:0:0:
362,233,310984,1,0,0:0:0:0:
325,272,311059,1,0,0:0:0:0:
272,279,311134,1,0,0:0:0:0:
226,250,311209,1,0,0:0:0:0:
211,198,311284,1,0,0:0:0:0:
166,167,311359,1,0,0:0:0:0:
111,172,311434,1,0,0:0:0:0:
80,291,311509,5,0,0:0:0:0:
114,249,311584,1,0,0:0:0:0:
122,195,311659,1,0,0:0:0:0:
102,144,311734,1,0,0:0:0:0:
110,89,311809,1,0,0:0:0:0:
144,46,311884,1,0,0:0:0:0:
195,25,311959,1,0,0:0:0:0:
249,33,312034,1,0,0:0:0:0:
292,67,312109,5,0,0:0:0:0:
313,118,312184,1,0,0:0:0:0:
305,173,312259,1,0,0:0:0:0:
271,216,312334,1,0,0:0:0:0:
263,270,312409,1,0,0:0:0:0:
283,320,312484,1,0,0:0:0:0:
326,354,312559,1,0,0:0:0:0:
380,361,312634,1,0,0:0:0:0:
430,261,312709,5,0,0:0:0:0:
404,213,312784,1,0,0:0:0:0:
353,192,312859,1,0,0:0:0:0:
301,209,312934,1,0,0:0:0:0:
271,255,313009,1,0,0:0:0:0:
218,270,313084,1,0,0:0:0:0:
167,248,313159,1,0,0:0:0:0:
143,198,313234,1,0,0:0:0:0:
156,144,313309,5,0,0:0:0:0:
201,111,313384,1,0,0:0:0:0:
256,115,313459,1,0,0:0:0:0:
295,153,313534,1,0,0:0:0:0:
349,157,313609,1,0,0:0:0:0:
393,125,313684,1,0,0:0:0:0:
406,72,313759,1,0,0:0:0:0:
381,23,313834,1,0,0:0:0:0:
323,79,313909,5,0,0:0:0:0:
334,131,313984,1,0,0:0:0:0:
369,170,314059,1,0,0:0:0:0:
379,221,314134,1,0,0:0:0:0:
362,270,314209,1,0,0:0:0:0:
323,304,314284,1,0,0:0:0:0:
271,314,314359,1,0,0:0:0:0:
222,297,314434,1,0,0:0:0:0:
188,258,314509,5,0,0:0:0:0:
178,207,314584,1,0,0:0:0:0:
195,156,314659,1,0,0:0:0:0:
234,123,314734,1,0,0:0:0:0:
285,113,314809,1,0,0:0:0:0:
334,129,314884,1,0,0:0:0:0:
368,167,314959,1,0,0:0:0:0:
378,216,315034,1,0,0:0:0:0:
344,286,315109,6,0,L|296:326,3,60
474,224,315409,1,0,0:0:0:0:
304,173,315484,2,0,L|241:147,3,60
236,227,315784,2,0,L|171:247,3,60
219,321,316084,5,0,0:0:0:0:
242,320,316159,1,0,0:0:0:0:
265,319,316234,1,0,0:0:0:0:
311,317,316309,1,0,0:0:0:0:
256,192,316459,12,0,318559,0:0:0:0:
448,141,318709,6,0,L|229:121,1,215.999993408203
47,223,319009,2,0,L|265:203,1,215.999993408203
442,306,319309,2,0,L|223:286,1,215.999993408203
92,94,319609,2,0,P|168:140|151:264,1,215.999993408203
44,337,319909,6,0,B|108:341|108:341|167:320,1,120
219,152,320209,1,0,0:0:0:0:
219,152,320284,1,0,0:0:0:0:
219,152,320359,1,0,0:0:0:0:
73,257,320509,1,0,0:0:0:0:
320,298,320659,2,0,P|346:217|337:171,1,120
166,79,320959,2,0,P|140:160|149:206,1,120
379,144,321259,5,0,0:0:0:0:
203,307,321409,1,0,0:0:0:0:
306,106,321559,1,0,0:0:0:0:
275,344,321709,1,0,0:0:0:0:
226,124,321859,1,0,0:0:0:0:
355,326,322009,1,0,0:0:0:0:
355,326,322084,1,0,0:0:0:0:
355,326,322159,1,0,0:0:0:0:
97,171,322309,5,0,0:0:0:0:
454,129,322459,2,0,B|390:148|390:148|345:188,1,120
498,371,322759,1,0,0:0:0:0:
391,90,322909,1,0,0:0:0:0:
313,318,323059,1,0,0:0:0:0:
267,82,323209,1,0,0:0:0:0:
429,350,323359,6,0,B|455:289|455:289|450:220,1,120
162,153,323659,2,0,B|136:214|136:214|141:283,1,120
420,160,323959,2,0,L|297:129,1,120
75,325,324259,1,0,0:0:0:0:
372,283,324409,1,0,0:0:0:0:
386,243,324484,1,0,0:0:0:0:
385,200,324559,1,0,0:0:0:0:
369,159,324634,1,0,0:0:0:0:
339,125,324709,6,0,B|281:122|281:122|225:146,1,120
263,346,325009,2,0,B|294:297|294:297|301:236,1,120
115,84,325309,1,0,0:0:0:0:
237,290,325459,1,0,0:0:0:0:
293,56,325609,1,0,0:0:0:0:
102,201,325759,2,0,P|123:269|168:292,1,120
374,177,326059,1,0,0:0:0:0:
81,112,326209,5,0,0:0:0:0:
416,91,326359,1,0,0:0:0:0:
55,188,326509,1,0,0:0:0:0:
457,162,326659,1,0,0:0:0:0:
93,261,326809,1,0,0:0:0:0:
428,240,326959,1,0,0:0:0:0:
171,341,327109,5,0,0:0:0:0:
277,73,327259,1,0,0:0:0:0:
392,338,327409,1,0,0:0:0:0:
124,232,327559,1,0,0:0:0:0:
389,118,327709,1,0,0:0:0:0:
389,118,327784,1,0,0:0:0:0:
389,118,327859,1,0,0:0:0:0:
283,384,328009,1,0,0:0:0:0:
106,160,328159,1,0,0:0:0:0:
374,261,328309,5,0,0:0:0:0:
92,308,328459,1,0,0:0:0:0:
259,76,328609,1,0,0:0:0:0:
305,359,328759,1,0,0:0:0:0:
73,192,328909,1,0,0:0:0:0:
358,221,329059,1,0,0:0:0:0:
97,339,329209,1,0,0:0:0:0:
126,54,329359,1,0,0:0:0:0:
274,300,329509,5,0,0:0:0:0:
221,285,329584,1,0,0:0:0:0:
182,245,329659,1,0,0:0:0:0:
168,190,329734,1,0,0:0:0:0:
183,136,329809,1,0,0:0:0:0:
223,96,329884,1,0,0:0:0:0:
276,82,329959,1,0,0:0:0:0:
330,97,330034,1,0,0:0:0:0:
369,138,330109,5,0,0:0:0:0:
383,192,330184,1,0,0:0:0:0:
369,247,330259,1,0,0:0:0:0:
329,287,330334,1,0,0:0:0:0:
274,300,330409,1,0,0:0:0:0:
219,313,330484,1,0,0:0:0:0:
164,326,330559,1,0,0:0:0:0:
109,339,330634,1,0,0:0:0:0:
96,284,330709,5,0,0:0:0:0:
121,233,330784,1,0,0:0:0:0:
172,210,330859,1,0,0:0:0:0:
226,225,330934,1,0,0:0:0:0:
258,271,331009,1,0,0:0:0:0:
312,286,331084,1,0,0:0:0:0:
363,263,331159,1,0,0:0:0:0:
388,212,331234,1,0,0:0:0:0:
374,157,331309,5,0,0:0:0:0:
328,124,331384,1,0,0:0:0:0:
271,128,331459,1,0,0:0:0:0:
230,167,331534,1,0,0:0:0:0:
173,171,331609,1,0,0:0:0:0:
127,138,331684,1,0,0:0:0:0:
113,83,331759,1,0,0:0:0:0:
137,31,331834,1,0,0:0:0:0:
190,38,331909,6,0,B|246:69|246:69|267:131,1,120
127,321,332209,1,0,0:0:0:0:
52,92,332359,1,0,0:0:0:0:
288,130,332509,5,0,0:0:0:0:
55,320,332659,1,0,0:0:0:0:
7,24,332809,1,0,0:0:0:0:
197,257,332959,2,0,B|263:280|328:246,1,120
412,33,333259,6,0,B|346:57|318:125,1,120
410,337,333559,1,0,0:0:0:0:
473,55,333709,1,0,0:0:0:0:
298,284,333859,1,0,0:0:0:0:
267,45,334009,1,0,0:0:0:0:
450,266,334159,1,0,0:0:0:0:
169,331,334309,6,0,B|132:282|132:282|139:216,1,120
325,73,334609,1,0,0:0:0:0:
307,312,334759,1,0,0:0:0:0:
115,167,334909,1,0,0:0:0:0:
115,167,334984,1,0,0:0:0:0:
115,167,335059,1,0,0:0:0:0:
413,192,335209,1,0,0:0:0:0:
413,192,335284,1,0,0:0:0:0:
413,192,335359,1,0,0:0:0:0:
162,308,335509,6,0,P|181:241|217:195,1,120
485,178,335809,2,0,P|466:245|430:291,1,120
246,81,336109,5,0,0:0:0:0:
289,60,336184,1,0,0:0:0:0:
335,71,336259,1,0,0:0:0:0:
363,109,336334,1,0,0:0:0:0:
360,156,336409,1,0,0:0:0:0:
327,190,336484,1,0,0:0:0:0:
280,195,336559,1,0,0:0:0:0:
241,169,336634,1,0,0:0:0:0:
296,128,336709,6,0,B|356:138|356:138|401:182,1,120
456,323,337009,1,0,0:0:0:0:
226,252,337159,1,0,0:0:0:0:
479,92,337309,1,0,0:0:0:0:
176,207,337459,1,0,0:0:0:0:
479,92,337609,1,0,0:0:0:0:
154,96,337759,1,0,0:0:0:0:
461,204,337909,1,0,0:0:0:0:
217,28,338059,5,0,0:0:0:0:
252,325,338209,1,0,0:0:0:0:
325,58,338359,1,0,0:0:0:0:
167,284,338509,1,0,0:0:0:0:
429,116,338659,1,0,0:0:0:0:
118,107,338809,1,0,0:0:0:0:
368,292,338959,1,0,0:0:0:0:
269,47,339109,5,0,0:0:0:0:
159,233,339259,1,0,0:0:0:0:
376,236,339409,1,0,0:0:0:0:
190,125,339559,1,0,0:0:0:0:
187,342,339709,1,0,0:0:0:0:
299,156,339859,1,0,0:0:0:0:
82,153,340009,1,0,0:0:0:0:
268,263,340159,1,0,0:0:0:0:
273,48,340309,5,0,0:0:0:0:
117,199,340459,1,0,0:0:0:0:
335,203,340609,1,0,0:0:0:0:
184,47,340759,1,0,0:0:0:0:
181,265,340909,1,0,0:0:0:0:
338,113,341059,1,0,0:0:0:0:
120,110,341209,1,0,0:0:0:0:
273,267,341359,1,0,0:0:0:0:
263,33,341509,5,0,0:0:0:0:
224,71,341584,1,0,0:0:0:0:
209,123,341659,1,0,0:0:0:0:
222,175,341734,1,0,0:0:0:0:
259,214,341809,1,0,0:0:0:0:
271,266,341884,1,0,0:0:0:0:
255,317,341959,1,0,0:0:0:0:
216,353,342034,1,0,0:0:0:0:
163,364,342109,5,0,0:0:0:0:
113,348,342184,1,0,0:0:0:0:
76,308,342259,1,0,0:0:0:0:
65,256,342334,1,0,0:0:0:0:
82,205,342409,1,0,0:0:0:0:
120,171,342484,1,0,0:0:0:0:
172,160,342559,1,0,0:0:0:0:
221,176,342634,1,0,0:0:0:0:
284,196,342709,5,0,0:0:0:0:
345,170,342784,1,0,0:0:0:0:
375,111,342859,1,0,0:0:0:0:
360,46,342934,1,0,0:0:0:0:
306,6,343009,1,0,0:0:0:0:
240,9,343084,1,0,0:0:0:0:
192,55,343159,1,0,0:0:0:0:
184,121,343234,1,0,0:0:0:0:
219,177,343309,5,0,0:0:0:0:
209,242,343384,1,0,0:0:0:0:
159,286,343459,1,0,0:0:0:0:
94,287,343534,1,0,0:0:0:0:
42,245,343609,1,0,0:0:0:0:
29,180,343684,1,0,0:0:0:0:
61,123,343759,1,0,0:0:0:0:
122,99,343834,1,0,0:0:0:0:
184,121,343909,6,0,B|287:272|287:272|340:305|420:282|409:185|348:176|296:192|287:271|287:271|219:328|219:328|167:261,1,630.000024032594
285,129,345109,2,0,B|381:92|474:159|460:263,1,270.000010299683
343,228,345709,5,0,0:0:0:0:
343,228,345859,1,0,0:0:0:0:
425,46,346009,1,0,0:0:0:0:
422,72,346084,1,0,0:0:0:0:
419,98,346159,1,0,0:0:0:0:
416,124,346234,1,0,0:0:0:0:
393,138,346309,5,0,0:0:0:0:
236,96,346459,1,0,0:0:0:0:
236,96,346609,1,0,0:0:0:0:
285,250,346759,1,0,0:0:0:0:
128,208,346909,1,0,0:0:0:0:
177,362,347059,1,0,0:0:0:0:
20,320,347209,1,0,0:0:0:0:
20,320,347359,1,0,0:0:0:0:
237,261,347509,5,0,0:0:0:0:
53,131,347659,1,0,0:0:0:0:
276,157,347809,1,0,0:0:0:0:
113,312,347959,1,0,0:0:0:0:
165,56,348109,1,0,0:0:0:0:
331,257,348259,1,0,0:0:0:0:
78,192,348409,1,0,0:0:0:0:
327,116,348559,1,0,0:0:0:0:
245,296,348709,5,0,0:0:0:0:
245,296,348784,1,0,0:0:0:0:
245,296,348859,1,0,0:0:0:0:
183,79,349009,1,0,0:0:0:0:
183,79,349084,1,0,0:0:0:0:
183,79,349159,1,0,0:0:0:0:
402,129,349309,5,0,0:0:0:0:
376,154,349384,1,0,0:0:0:0:
346,174,349459,1,0,0:0:0:0:
312,188,349534,1,0,0:0:0:0:
276,195,349609,1,0,0:0:0:0:
240,196,349684,1,0,0:0:0:0:
204,190,349759,1,0,0:0:0:0:
169,177,349834,1,0,0:0:0:0:
136,158,349909,6,0,P|175:121|240:253,1,270.000010299683
109,252,350509,1,0,0:0:0:0:
115,72,350659,1,0,0:0:0:0:
279,145,350809,1,0,0:0:0:0:
279,145,350884,1,0,0:0:0:0:
279,145,350959,1,0,0:0:0:0:
55,174,351109,5,0,0:0:0:0:
268,243,351259,1,0,0:0:0:0:
119,104,351409,5,0,0:0:0:0:
203,312,351559,1,0,0:0:0:0:
213,109,351709,5,0,0:0:0:0:
109,307,351859,1,0,0:0:0:0:
270,185,352009,5,0,0:0:0:0:
52,231,352159,1,0,0:0:0:0:
249,277,352309,5,0,0:0:0:0:
258,279,352384,1,0,0:0:0:0:
266,281,352459,1,0,0:0:0:0:
274,283,352534,1,0,0:0:0:0:
282,285,352609,1,0,0:0:0:0:
290,287,352684,1,0,0:0:0:0:
298,289,352759,1,0,0:0:0:0:
306,291,352834,1,0,0:0:0:0:
314,293,352909,5,0,0:0:0:0:
463,117,353509,5,0,0:0:0:0:
105,161,353659,1,0,0:0:0:0:
450,209,353809,1,0,0:0:0:0:
117,68,353959,1,0,0:0:0:0:
392,283,354109,1,0,0:0:0:0:
392,283,354184,1,0,0:0:0:0:
392,283,354259,1,0,0:0:0:0:
485,10,354409,5,0,0:0:0:0:
308,237,354559,1,0,0:0:0:0:
485,10,354709,1,0,0:0:0:0:
241,162,354859,1,0,0:0:0:0:
485,10,355009,1,0,0:0:0:0:
203,69,355159,1,0,0:0:0:0:
438,235,355309,6,0,P|374:288|311:279,1,143.999995605469
344,81,355609,1,0,0:0:0:0:
375,280,355759,1,0,0:0:0:0:
188,208,355909,1,0,0:0:0:0:
386,177,356059,1,0,0:0:0:0:
259,320,356209,6,0,P|205:308|172:275,2,95.9999970703126
258,225,356509,2,0,P|295:184|340:172,2,95.9999970703126
344,273,356809,1,0,0:0:0:0:
399,286,356909,1,0,0:0:0:0:
454,299,357009,1,0,0:0:0:0:
481,266,357109,6,0,P|468:183|417:142,1,143.999995605469
337,31,357409,2,0,P|271:83|261:148,1,143.999995605469
193,266,357709,2,0,P|271:296|332:272,1,143.999995605469
460,107,358009,1,0,0:0:0:0:
248,64,358159,1,0,0:0:0:0:
402,214,358309,1,0,0:0:0:0:
467,8,358459,1,0,0:0:0:0:
291,198,358609,1,0,0:0:0:0:
504,285,358759,1,0,0:0:0:0:
399,79,358909,6,0,L|249:92,1,143.999995605469
28,54,359209,2,0,L|114:176,1,143.999995605469
217,376,359509,2,0,L|280:239,1,143.999995605469
446,61,359809,5,0,0:0:0:0:
88,28,359959,1,0,0:0:0:0:
468,140,360109,1,0,0:0:0:0:
50,102,360259,1,0,0:0:0:0:
482,221,360409,1,0,0:0:0:0:
23,180,360559,1,0,0:0:0:0:
356,315,360709,6,0,P|383:226|373:169,1,143.999995605469
181,83,361009,2,0,P|244:150|298:170,1,143.999995605469
475,54,361309,2,0,P|384:75|340:112,1,143.999995605469
440,300,361609,5,0,0:0:0:0:
94,282,361759,1,0,0:0:0:0:
403,125,361909,1,0,0:0:0:0:
57,107,362059,1,0,0:0:0:0:
320,330,362209,2,0,P|346:240|332:179,1,143.999995605469
132,29,362509,5,0,0:0:0:0:
219,333,362659,1,0,0:0:0:0:
377,65,362809,1,0,0:0:0:0:
76,143,362959,1,0,0:0:0:0:
344,301,363109,1,0,0:0:0:0:
191,31,363259,1,0,0:0:0:0:
34,299,363409,6,0,P|46:342|86:371,2,95.9999970703126
122,288,363709,2,0,P|153:256|158:206,2,95.9999970703126,0|0|0,2:0|2:0|2:0,2:0:0:0:
65,224,364009,1,0,0:0:0:0:
75,177,364109,1,0,0:0:0:0:
85,130,364209,1,0,0:0:0:0:
67,94,364309,5,0,0:0:0:0:
382,61,364459,1,0,0:0:0:0:
251,349,364609,1,0,0:0:0:0:
123,58,364759,1,0,0:0:0:0:
432,124,364909,1,0,0:0:0:0:
186,324,365059,1,0,0:0:0:0:
207,36,365209,2,0,B|245:98|245:98|225:168,1,143.999995605469
391,306,365509,2,0,B|318:307|318:307|267:255,1,143.999995605469
61,322,365809,2,0,B|95:258|95:258|166:240,1,143.999995605469
441,327,366109,5,0,0:0:0:0:
32,186,366259,1,0,0:0:0:0:
460,239,366409,1,0,0:0:0:0:
51,98,366559,1,0,0:0:0:0:
479,151,366709,1,0,0:0:0:0:
479,151,366784,1,0,0:0:0:0:
479,151,366859,1,0,0:0:0:0:
122,37,367009,6,0,L|191:60,1,71.9999978027344
262,27,367159,2,0,L|310:81,1,71.9999978027344
386,58,367309,2,0,L|400:129,1,71.9999978027344
474,155,367459,2,0,L|450:224,1,71.9999978027344
487,293,367609,2,0,L|432:341,1,71.9999978027344
253,352,367759,2,0,L|276:283,1,71.9999978027344
417,120,367909,5,0,0:0:0:0:
417,120,368059,1,0,0:0:0:0:
208,64,368209,2,0,P|179:133|218:191,1,143.999995605469
377,305,368509,2,0,P|406:236|367:178,1,143.999995605469
86,225,368809,5,0,0:0:0:0:
86,225,368959,1,0,0:0:0:0:
308,284,369109,2,0,P|356:215|345:157,1,143.999995605469
153,31,369409,2,0,P|105:100|116:158,1,143.999995605469
392,307,369709,5,0,0:0:0:0:
310,61,369859,1,0,0:0:0:0:
138,256,370009,1,0,0:0:0:0:
385,174,370159,1,0,0:0:0:0:
191,2,370309,1,0,0:0:0:0:
274,247,370459,1,0,0:0:0:0:
389,16,370609,5,0,0:0:0:0:
145,99,370759,1,0,0:0:0:0:
377,213,370909,1,0,0:0:0:0:
198,27,371059,1,0,0:0:0:0:
216,285,371209,1,0,0:0:0:0:
453,180,371359,1,0,0:0:0:0:
94,147,371509,5,0,0:0:0:0:
94,147,371659,1,0,0:0:0:0:
375,85,371809,2,0,P|388:162|358:227,1,143.999995605469
109,357,372109,2,0,P|96:280|126:215,1,143.999995605469
466,177,372409,5,0,0:0:0:0:
466,177,372559,1,0,0:0:0:0:
147,42,372709,2,0,P|81:94|59:157,1,143.999995605469
342,347,373009,2,0,P|408:295|430:232,1,143.999995605469
283,79,373309,5,0,0:0:0:0:
252,292,373459,1,0,0:0:0:0:
347,113,373609,5,0,0:0:0:0:
187,257,373759,1,0,0:0:0:0:
375,182,373909,5,0,0:0:0:0:
159,188,374059,1,0,0:0:0:0:
351,252,374209,5,0,0:0:0:0:
402,255,374284,1,0,0:0:0:0:
442,225,374359,1,0,0:0:0:0:
453,176,374434,1,0,0:0:0:0:
430,131,374509,1,0,0:0:0:0:
383,111,374584,1,0,0:0:0:0:
336,125,374659,5,0,0:0:0:0:
308,165,374734,1,0,0:0:0:0:
260,177,374809,1,0,0:0:0:0:
215,156,374884,1,0,0:0:0:0:
195,111,374959,1,0,0:0:0:0:
208,63,375034,1,0,0:0:0:0:
272,94,375109,5,0,0:0:0:0:
272,94,375259,1,0,0:0:0:0:
127,291,375409,2,0,L|96:140,1,143.999995605469
385,291,375709,2,0,L|416:140,1,143.999995605469
70,40,376009,5,0,0:0:0:0:
70,40,376159,1,0,0:0:0:0:
428,73,376309,2,0,L|461:226,1,143.999995605469
84,311,376609,2,0,L|51:158,1,143.999995605469
422,332,376909,5,0,0:0:0:0:
141,268,377059,1,0,0:0:0:0:
330,51,377209,1,0,0:0:0:0:
286,335,377359,1,0,0:0:0:0:
128,94,377509,1,0,0:0:0:0:
411,40,377659,1,0,0:0:0:0:
231,265,377809,5,0,0:0:0:0:
35,53,377959,1,0,0:0:0:0:
231,265,378109,1,0,0:0:0:0:
427,53,378259,1,0,0:0:0:0:
231,265,378409,1,0,0:0:0:0:
52,171,378559,1,0,0:0:0:0:
381,140,378709,5,0,0:0:0:0:
381,140,378859,1,0,0:0:0:0:
56,72,379009,2,0,P|149:74|179:122,1,143.999995605469
136,323,379309,2,0,P|91:241|117:191,1,143.999995605469
391,255,379609,5,0,0:0:0:0:
391,255,379759,1,0,0:0:0:0:
267,77,379909,2,0,L|279:227,1,143.999995605469
506,340,380209,2,0,L|494:190,1,143.999995605469
167,141,380509,5,0,0:0:0:0:
306,176,380659,1,0,0:0:0:0:
119,41,380809,1,0,0:0:0:0:
246,298,380959,1,0,0:0:0:0:
484,68,381109,1,0,0:0:0:0:
111,101,381259,1,0,0:0:0:0:
466,341,381409,1,0,0:0:0:0:
369,91,383809,6,0,B|398:83|422:69|422:69|401:113|399:176|407:197|407:197|448:240|424:293|368:314|319:292|303:228|334:200|334:200|334:178|330:155|330:155|297:127|286:74|286:74|240:56|240:56|255:211|148:220|45:177|41:95|110:33|110:33|170:58|185:147|125:181|125:181|71:218|57:273|114:311,1,1350.00005149841
221,307,388609,2,0,B|269:276|318:294|318:294|413:349|513:302|534:210|476:109|408:103|319:128|303:200|303:200|226:200|160:251|160:251|-22:260|-89:80|72:-50|210:26|214:138|214:138|112:141,1,1350.00005149841
42,35,393409,2,0,B|26:20|17:5|17:5|23:72|19:160|-2:206|-2:206|55:187|136:203|172:241|186:337|139:380|139:380|83:341|64:272|102:197|102:197|152:144|191:144|191:144|289:201|368:171|414:120|414:120|342:35|226:57|194:94,1,1350.00005149841
330,326,398209,2,0,B|357:349|372:369|372:369|409:340|461:328|461:328|430:258|441:192|479:171|479:171|442:189|375:180|327:128|319:37|319:37|275:148|243:168|243:168|279:183|279:183|254:200|231:251|231:251|239:269|248:281|248:281|197:263|197:263|221:298|182:354|118:342|70:280|114:220|114:220|143:202|143:202|146:166|146:166|94:48,1,1350.00005149841
101,63,402859,1,0,0:0:0:0:
101,63,403009,6,0,P|77:157|272:162,1,360
410,63,404209,2,0,P|435:157|240:162,1,360
256,47,405409,1,0,0:0:0:0:
256,342,405859,1,0,0:0:0:0:
256,126,406009,2,0,L|256:213,1,60
255,265,406309,1,0,0:0:0:0:
255,265,406384,1,0,0:0:0:0:
255,265,406459,1,0,0:0:0:0:
255,265,406534,1,0,0:0:0:0:
255,265,406609,6,0,L|319:261,1,60
180,233,406909,2,0,L|116:229,1,60
289,190,407209,2,0,L|353:186,1,60
147,156,407509,2,0,L|83:152,1,60
348,114,407809,6,0,B|410:108|410:108|430:85|417:53,1,120
245,52,408259,1,0,0:0:0:0:
245,52,408409,2,0,L|225:98,2,30
75,47,408709,2,0,P|63:84|71:120,1,60
78,284,409009,6,0,L|146:269,1,60
244,312,409309,2,0,L|312:327,1,60
368,219,409609,2,0,L|436:204,1,60
280,69,409909,2,0,P|270:115|272:140,1,60
344,277,410209,6,0,B|288:249|288:249|232:260,1,120
278,344,410659,1,0,0:0:0:0:
306,170,410809,1,0,0:0:0:0:
306,170,410884,1,0,0:0:0:0:
306,170,410959,1,0,0:0:0:0:
134,236,411109,2,0,P|174:251|199:252,1,60
409,248,411409,6,0,L|469:260,1,60
347,170,411709,2,0,L|407:160,1,60
262,119,412009,2,0,L|315:89,1,60
163,96,412309,2,0,L|203:50,1,60
41,75,412609,6,0,P|37:142|57:192,1,120
133,222,413059,1,0,0:0:0:0:
211,192,413209,2,0,P|255:148|256:85,1,120
50,211,413809,2,0,P|66:271|120:303,1,120
150,66,414409,2,0,P|89:49|34:80,1,120
25,163,414859,1,0,0:0:0:0:
100,211,415009,6,0,L|168:224,1,60
180,310,415309,2,0,L|240:276,1,60
315,317,415609,2,0,L|339:252,1,60
427,255,415909,2,0,P|416:211|384:175,1,90
321,213,416209,6,0,L|395:217,1,60
253,137,416509,2,0,L|327:133,1,60
186,225,416809,2,0,L|260:229,1,60
119,126,417109,2,0,L|193:122,1,60
64,246,417409,6,0,P|90:301|139:337,1,120
238,329,417859,1,0,0:0:0:0:
312,258,418009,2,0,P|323:186|308:131,1,120
316,21,418609,2,0,P|248:47|208:87,1,120
105,130,419209,2,0,P|161:175|216:190,1,120
324,168,419659,1,0,0:0:0:0:
410,84,419809,2,0,P|298:66|212:158,1,240
321,293,420709,5,0,0:0:0:0:
383,190,421009,2,0,L|419:197,7,30
316,144,421609,2,0,L|304:109,7,30
309,216,422209,5,0,0:0:0:0:
262,270,422284,1,0,0:0:0:0:
191,281,422359,1,0,0:0:0:0:
129,244,422434,1,0,0:0:0:0:
106,176,422509,1,0,0:0:0:0:
131,108,422584,1,0,0:0:0:0:
194,74,422659,5,0,0:0:0:0:
264,88,422734,1,0,0:0:0:0:
308,143,422809,1,0,0:0:0:0:
377,156,422884,1,0,0:0:0:0:
439,122,422959,1,0,0:0:0:0:
464,57,423034,1,0,0:0:0:0:
386,51,423109,5,0,0:0:0:0:
308,46,423184,1,0,0:0:0:0:
230,41,423259,1,0,0:0:0:0:
152,36,423334,1,0,0:0:0:0:
74,31,423409,5,0,0:0:0:0:
69,102,423484,1,0,0:0:0:0:
120,151,423559,1,0,0:0:0:0:
190,143,423634,1,0,0:0:0:0:
230,84,423709,1,0,0:0:0:0:
300,76,423784,1,0,0:0:0:0:
351,125,423859,1,0,0:0:0:0:
346,195,423934,1,0,0:0:0:0:
288,236,424009,5,0,0:0:0:0:
220,219,424084,1,0,0:0:0:0:
163,260,424159,1,0,0:0:0:0:
158,329,424234,1,0,0:0:0:0:
208,378,424309,1,0,0:0:0:0:
277,370,424384,1,0,0:0:0:0:
316,313,424459,1,0,0:0:0:0:
297,246,424534,1,0,0:0:0:0:
233,217,424609,5,0,0:0:0:0:
209,220,424684,1,0,0:0:0:0:
185,223,424759,1,0,0:0:0:0:
161,226,424834,1,0,0:0:0:0:
137,229,424909,1,0,0:0:0:0:
113,232,424984,1,0,0:0:0:0:
89,236,425059,1,0,0:0:0:0:
65,240,425134,1,0,0:0:0:0:
39,224,425209,5,0,0:0:0:0:
29,195,425284,1,0,0:0:0:0:
34,164,425359,1,0,0:0:0:0:
54,140,425434,1,0,0:0:0:0:
83,129,425509,1,0,0:0:0:0:
114,134,425584,1,0,0:0:0:0:
138,154,425659,1,0,0:0:0:0:
149,183,425734,1,0,0:0:0:0:
144,213,425809,5,0,0:0:0:0:
154,259,425884,1,0,0:0:0:0:
191,287,425959,1,0,0:0:0:0:
238,285,426034,1,0,0:0:0:0:
272,253,426109,1,0,0:0:0:0:
277,206,426184,1,0,0:0:0:0:
252,167,426259,1,0,0:0:0:0:
207,153,426334,1,0,0:0:0:0:
163,171,426409,5,0,0:0:0:0:
200,200,426484,1,0,0:0:0:0:
246,198,426559,1,0,0:0:0:0:
280,166,426634,1,0,0:0:0:0:
287,120,426709,1,0,0:0:0:0:
262,81,426784,1,0,0:0:0:0:
217,67,426859,1,0,0:0:0:0:
174,84,426934,1,0,0:0:0:0:
151,124,427009,5,0,0:0:0:0:
153,195,427084,1,0,0:0:0:0:
208,239,427159,1,0,0:0:0:0:
277,224,427234,1,0,0:0:0:0:
311,162,427309,1,0,0:0:0:0:
380,148,427384,1,0,0:0:0:0:
435,192,427459,1,0,0:0:0:0:
436,262,427534,1,0,0:0:0:0:
382,308,427609,5,0,0:0:0:0:
313,298,427684,1,0,0:0:0:0:
276,238,427759,1,0,0:0:0:0:
299,171,427834,1,0,0:0:0:0:
262,110,427909,1,0,0:0:0:0:
192,98,427984,1,0,0:0:0:0:
138,146,428059,1,0,0:0:0:0:
140,218,428134,1,0,0:0:0:0:
195,262,428209,5,0,0:0:0:0:
277,245,428284,1,0,0:0:0:0:
316,171,428359,1,0,0:0:0:0:
285,93,428434,1,0,0:0:0:0:
205,67,428509,1,0,0:0:0:0:
133,111,428584,1,0,0:0:0:0:
122,193,428659,1,0,0:0:0:0:
178,256,428734,1,0,0:0:0:0:
262,253,428809,5,0,0:0:0:0:
300,207,428884,1,0,0:0:0:0:
358,196,428959,1,0,0:0:0:0:
409,225,429034,1,0,0:0:0:0:
430,280,429109,1,0,0:0:0:0:
410,335,429184,1,0,0:0:0:0:
359,365,429259,1,0,0:0:0:0:
301,356,429334,1,0,0:0:0:0:
262,311,429409,5,0,0:0:0:0:
205,291,429484,1,0,0:0:0:0:
145,302,429559,1,0,0:0:0:0:
87,281,429634,1,0,0:0:0:0:
47,234,429709,1,0,0:0:0:0:
36,173,429784,1,0,0:0:0:0:
56,115,429859,1,0,0:0:0:0:
103,75,429934,1,0,0:0:0:0:
164,64,430009,5,0,0:0:0:0:
222,85,430084,1,0,0:0:0:0:
262,132,430159,1,0,0:0:0:0:
272,193,430234,1,0,0:0:0:0:
311,240,430309,1,0,0:0:0:0:
368,261,430384,1,0,0:0:0:0:
429,251,430459,1,0,0:0:0:0:
476,211,430534,1,0,0:0:0:0:
496,152,430609,5,0,0:0:0:0:
478,150,430684,1,0,0:0:0:0:
460,148,430759,1,0,0:0:0:0:
442,146,430834,1,0,0:0:0:0:
424,144,430909,1,0,0:0:0:0:
406,142,430984,1,0,0:0:0:0:
388,140,431059,1,0,0:0:0:0:
370,138,431134,1,0,0:0:0:0:
352,136,431209,5,0,0:0:0:0:
338,123,431284,1,0,0:0:0:0:
324,136,431359,1,0,0:0:0:0:
310,123,431434,1,0,0:0:0:0:
296,136,431509,1,0,0:0:0:0:
282,123,431584,1,0,0:0:0:0:
268,136,431659,1,0,0:0:0:0:
254,123,431734,1,0,0:0:0:0:
240,136,431809,6,0,P|232:202|309:228,1,155.999992858887
449,43,432109,1,0,0:0:0:0:
141,98,432259,1,0,0:0:0:0:
373,305,432409,2,0,L|387:135,1,155.999992858887
74,148,432709,2,0,L|59:317,1,155.999992858887
431,184,433009,5,0,0:0:0:0:
187,78,433159,1,0,0:0:0:0:
354,283,433309,1,0,0:0:0:0:
280,28,433459,1,0,0:0:0:0:
121,240,433609,1,0,0:0:0:0:
367,142,433759,1,0,0:0:0:0:
102,129,433909,1,0,0:0:0:0:
271,333,434059,1,0,0:0:0:0:
235,70,434209,5,0,0:0:0:0:
235,70,434284,1,0,0:0:0:0:
235,70,434359,1,0,0:0:0:0:
116,307,434509,2,0,P|202:312|267:275,1,155.999992858887
461,105,434809,2,0,P|375:100|310:137,1,155.999992858887
463,351,435109,1,0,0:0:0:0:
399,45,435259,1,0,0:0:0:0:
90,283,435409,5,0,0:0:0:0:
445,238,435559,1,0,0:0:0:0:
90,193,435709,1,0,0:0:0:0:
445,148,435859,1,0,0:0:0:0:
90,103,436009,1,0,0:0:0:0:
445,58,436159,1,0,0:0:0:0:
90,13,436309,1,0,0:0:0:0:
90,13,436384,1,0,0:0:0:0:
90,13,436459,1,0,0:0:0:0:
268,269,436609,6,0,B|330:215|330:215|412:232,1,155.999992858887
206,102,436909,2,0,B|221:182|221:182|166:245,1,155.999992858887
382,134,437209,2,0,B|304:107|304:107|277:27,1,155.999992858887
271,304,437509,1,0,0:0:0:0:
111,92,437659,1,0,0:0:0:0:
421,122,437809,5,0,0:0:0:0:
149,276,437959,1,0,0:0:0:0:
462,279,438109,1,0,0:0:0:0:
309,7,438259,1,0,0:0:0:0:
306,320,438409,1,0,0:0:0:0:
416,27,438559,1,0,0:0:0:0:
108,79,438709,1,0,0:0:0:0:
346,282,438859,1,0,0:0:0:0:
192,10,439009,6,0,P|170:88|198:168,1,155.999992858887
433,268,439309,2,0,P|441:187|399:113,1,155.999992858887
145,90,439609,2,0,P|151:170|204:236,1,155.999992858887
454,169,439909,2,0,P|434:90|369:35,1,155.999992858887
149,314,440209,5,0,0:0:0:0:
208,364,440284,1,0,0:0:0:0:
284,350,440359,1,0,0:0:0:0:
322,283,440434,1,0,0:0:0:0:
296,210,440509,1,0,0:0:0:0:
223,184,440584,1,0,0:0:0:0:
156,222,440659,1,0,0:0:0:0:
83,195,440734,1,0,0:0:0:0:
59,122,440809,5,0,0:0:0:0:
115,96,440884,1,0,0:0:0:0:
174,112,440959,1,0,0:0:0:0:
209,162,441034,1,0,0:0:0:0:
203,223,441109,1,0,0:0:0:0:
237,273,441184,1,0,0:0:0:0:
296,289,441259,1,0,0:0:0:0:
351,264,441334,1,0,0:0:0:0:
366,186,441409,6,0,L|359:116,3,66.0000020141602
302,63,441709,2,0,L|241:35,3,66.0000020141602
168,64,442009,2,0,L|110:105,3,66.0000020141602
96,181,442309,2,0,L|102:246,3,66.0000020141602
168,324,442609,6,0,L|83:333,3,66.0000020141602
258,291,442909,2,0,L|343:300,3,66.0000020141602
146,236,443209,2,0,L|61:245,3,66.0000020141602
290,201,443509,2,0,L|375:210,3,66.0000020141602
91,142,443809,6,0,L|103:77,3,66.0000020141602
303,67,444109,2,0,L|368:79,3,66.0000020141602
386,276,444409,2,0,L|374:341,3,66.0000020141602
176,328,444709,2,0,L|111:316,3,66.0000020141602
113,115,445009,6,0,L|311:125,1,198.000006042481
501,187,445309,2,0,L|303:197,1,198.000006042481
112,258,445609,2,0,L|310:268,1,198.000006042481
500,330,445909,2,0,L|302:340,1,198.000006042481
125,348,446209,5,0,0:0:0:0:
110,304,446284,1,0,0:0:0:0:
122,259,446359,1,0,0:0:0:0:
158,229,446434,1,0,0:0:0:0:
204,225,446509,1,0,0:0:0:0:
244,248,446584,1,0,0:0:0:0:
264,290,446659,1,0,0:0:0:0:
304,312,446734,1,0,0:0:0:0:
350,307,446809,5,0,0:0:0:0:
384,277,446884,1,0,0:0:0:0:
394,232,446959,1,0,0:0:0:0:
378,189,447034,1,0,0:0:0:0:
340,164,447109,1,0,0:0:0:0:
293,165,447184,1,0,0:0:0:0:
256,192,447259,1,0,0:0:0:0:
242,235,447334,1,0,0:0:0:0:
255,278,447409,5,0,0:0:0:0:
298,247,447484,1,0,0:0:0:0:
315,196,447559,1,0,0:0:0:0:
300,144,447634,1,0,0:0:0:0:
258,111,447709,1,0,0:0:0:0:
205,107,447784,1,0,0:0:0:0:
159,135,447859,1,0,0:0:0:0:
137,184,447934,1,0,0:0:0:0:
148,237,448009,5,0,0:0:0:0:
186,274,448084,1,0,0:0:0:0:
240,282,448159,1,0,0:0:0:0:
288,257,448234,1,0,0:0:0:0:
312,208,448309,1,0,0:0:0:0:
359,181,448384,1,0,0:0:0:0:
413,186,448459,1,0,0:0:0:0:
454,221,448534,1,0,0:0:0:0:
467,273,448609,5,0,0:0:0:0:
408,281,448684,1,0,0:0:0:0:
352,258,448759,1,0,0:0:0:0:
315,210,448834,1,0,0:0:0:0:
307,150,448909,1,0,0:0:0:0:
270,102,448984,1,0,0:0:0:0:
214,78,449059,1,0,0:0:0:0:
153,86,449134,1,0,0:0:0:0:
105,122,449209,5,0,0:0:0:0:
81,178,449284,1,0,0:0:0:0:
89,239,449359,1,0,0:0:0:0:
126,288,449434,1,0,0:0:0:0:
181,311,449509,1,0,0:0:0:0:
241,304,449584,1,0,0:0:0:0:
290,266,449659,1,0,0:0:0:0:
314,210,449734,1,0,0:0:0:0:
306,149,449809,5,0,0:0:0:0:
327,86,449884,1,0,0:0:0:0:
383,51,449959,1,0,0:0:0:0:
448,60,450034,1,0,0:0:0:0:
492,109,450109,1,0,0:0:0:0:
493,175,450184,1,0,0:0:0:0:
453,227,450259,1,0,0:0:0:0:
389,241,450334,1,0,0:0:0:0:
330,210,450409,5,0,0:0:0:0:
304,148,450484,1,0,0:0:0:0:
244,117,450559,1,0,0:0:0:0:
178,131,450634,1,0,0:0:0:0:
137,185,450709,1,0,0:0:0:0:
140,252,450784,1,0,0:0:0:0:
185,302,450859,1,0,0:0:0:0:
252,311,450934,1,0,0:0:0:0:
309,274,451009,5,0,0:0:0:0:
308,260,451084,1,0,0:0:0:0:
307,246,451159,1,0,0:0:0:0:
306,232,451234,1,0,0:0:0:0:
306,218,451309,1,0,0:0:0:0:
306,204,451384,1,0,0:0:0:0:
306,190,451459,1,0,0:0:0:0:
306,176,451534,1,0,0:0:0:0:
306,162,451609,5,0,0:0:0:0:
306,148,451684,1,0,0:0:0:0:
306,134,451759,1,0,0:0:0:0:
306,120,451834,1,0,0:0:0:0:
306,106,451909,1,0,0:0:0:0:
306,92,451984,1,0,0:0:0:0:
306,78,452059,1,0,0:0:0:0:
306,64,452134,1,0,0:0:0:0:
326,38,452209,5,0,0:0:0:0:
358,30,452284,1,0,0:0:0:0:
387,44,452359,1,0,0:0:0:0:
400,74,452434,1,0,0:0:0:0:
391,105,452509,1,0,0:0:0:0:
400,136,452584,1,0,0:0:0:0:
391,167,452659,1,0,0:0:0:0:
399,197,452734,1,0,0:0:0:0:
391,229,452809,5,0,0:0:0:0:
345,222,452884,1,0,0:0:0:0:
299,215,452959,1,0,0:0:0:0:
253,208,453034,1,0,0:0:0:0:
222,173,453109,5,0,0:0:0:0:
268,180,453184,1,0,0:0:0:0:
314,187,453259,1,0,0:0:0:0:
360,194,453334,1,0,0:0:0:0:
330,158,453409,5,0,0:0:0:0:
284,151,453484,1,0,0:0:0:0:
238,144,453559,1,0,0:0:0:0:
192,137,453634,1,0,0:0:0:0:
161,102,453709,5,0,0:0:0:0:
207,109,453784,1,0,0:0:0:0:
253,116,453859,1,0,0:0:0:0:
299,123,453934,1,0,0:0:0:0:
270,86,454009,5,0,0:0:0:0:
224,79,454084,1,0,0:0:0:0:
178,72,454159,1,0,0:0:0:0:
132,65,454234,1,0,0:0:0:0:
92,89,454309,1,0,0:0:0:0:
77,133,454384,1,0,0:0:0:0:
93,176,454459,1,0,0:0:0:0:
132,198,454534,1,0,0:0:0:0:
176,189,454609,5,0,0:0:0:0:
223,153,454684,1,0,0:0:0:0:
281,145,454759,1,0,0:0:0:0:
335,167,454834,1,0,0:0:0:0:
371,213,454909,1,0,0:0:0:0:
378,271,454984,1,0,0:0:0:0:
356,325,455059,1,0,0:0:0:0:
310,361,455134,1,0,0:0:0:0:
252,369,455209,5,0,0:0:0:0:
198,346,455284,1,0,0:0:0:0:
162,300,455359,1,0,0:0:0:0:
154,242,455434,1,0,0:0:0:0:
176,187,455509,1,0,0:0:0:0:
167,128,455584,1,0,0:0:0:0:
130,81,455659,1,0,0:0:0:0:
74,59,455734,1,0,0:0:0:0:
14,67,455809,5,0,0:0:0:0:
28,138,455884,1,0,0:0:0:0:
88,178,455959,1,0,0:0:0:0:
159,164,456034,1,0,0:0:0:0:
199,104,456109,1,0,0:0:0:0:
269,89,456184,1,0,0:0:0:0:
329,129,456259,1,0,0:0:0:0:
344,199,456334,1,0,0:0:0:0:
305,259,456409,5,0,0:0:0:0:
234,273,456484,1,0,0:0:0:0:
174,234,456559,1,0,0:0:0:0:
159,163,456634,1,0,0:0:0:0:
199,102,456709,1,0,0:0:0:0:
269,88,456784,1,0,0:0:0:0:
330,127,456859,1,0,0:0:0:0:
400,111,456934,1,0,0:0:0:0:
438,50,457009,5,0,0:0:0:0:
365,81,457084,1,0,0:0:0:0:
341,156,457159,1,0,0:0:0:0:
384,222,457234,1,0,0:0:0:0:
361,297,457309,1,0,0:0:0:0:
288,327,457384,1,0,0:0:0:0:
218,292,457459,1,0,0:0:0:0:
199,215,457534,1,0,0:0:0:0:
245,150,457609,5,0,0:0:0:0:
265,205,457684,1,0,0:0:0:0:
244,259,457759,1,0,0:0:0:0:
193,288,457834,1,0,0:0:0:0:
136,276,457909,1,0,0:0:0:0:
98,231,457984,1,0,0:0:0:0:
99,173,458059,1,0,0:0:0:0:
137,128,458134,1,0,0:0:0:0:
195,120,458209,5,0,0:0:0:0:
263,143,458284,1,0,0:0:0:0:
300,204,458359,1,0,0:0:0:0:
367,226,458434,1,0,0:0:0:0:
433,200,458509,1,0,0:0:0:0:
466,137,458584,1,0,0:0:0:0:
452,67,458659,1,0,0:0:0:0:
396,23,458734,1,0,0:0:0:0:
325,25,458809,5,0,0:0:0:0:
273,73,458884,1,0,0:0:0:0:
264,143,458959,1,0,0:0:0:0:
302,202,459034,1,0,0:0:0:0:
293,271,459109,1,0,0:0:0:0:
241,318,459184,1,0,0:0:0:0:
171,321,459259,1,0,0:0:0:0:
115,277,459334,1,0,0:0:0:0:
100,209,459409,5,0,0:0:0:0:
146,205,459484,1,0,0:0:0:0:
192,201,459559,1,0,0:0:0:0:
238,198,459634,1,0,0:0:0:0:
284,195,459709,1,0,0:0:0:0:
330,192,459784,1,0,0:0:0:0:
376,189,459859,1,0,0:0:0:0:
422,186,459934,1,0,0:0:0:0:
468,183,460009,5,0,0:0:0:0:
425,116,460084,1,0,0:0:0:0:
348,92,460159,1,0,0:0:0:0:
274,122,460234,1,0,0:0:0:0:
237,194,460309,1,0,0:0:0:0:
200,266,460384,1,0,0:0:0:0:
126,296,460459,1,0,0:0:0:0:
49,272,460534,1,0,0:0:0:0:
6,205,460609,5,0,0:0:0:0:
