osu file format v14

[General]
AudioFilename: audio.mp3
AudioLeadIn: 0
PreviewTime: 53957
Countdown: 0
SampleSet: Soft
StackLeniency: 0.7
Mode: 0
LetterboxInBreaks: 0
WidescreenStoryboard: 1

[Editor]
Bookmarks: 1029,1457,21386,28243,30804,41957,55672,61672,62850,63386,72172,84172,86529,96814,100243,103662,107090,108804,110519,124243,130243,144804,157662,167090,168804,181662,209090,209947,223662,226233,227090,256233,257947,271662,281947,294804,295662,304233,305947,308947,311947,323947
DistanceSpacing: 1.3
BeatDivisor: 4
GridSize: 32
TimelineZoom: 1.9

[Metadata]
Title:BRING+EYES=DEATH+INVITE
TitleUnicode:嚮導BRING+瞳EYES=死DEATH+齎INVITE
Artist:Imperial Circus Dead Decadence
ArtistUnicode:Imperial Circus Dead Decadence
Creator:Thymue
Version:tbda
Source:
Tags:icdd
BeatmapID:1986208
BeatmapSetID:944109

[Difficulty]
HPDrainRate:9
CircleSize:3.8
OverallDifficulty:7
ApproachRate:10
SliderMultiplier:1.4
SliderTickRate:1

[Events]
//Background and Video events
0,0,"dasdasdad.png",0,0
//Break Periods
//Storyboard Layer 0 (Background)
//Storyboard Layer 1 (Fail)
//Storyboard Layer 2 (Pass)
//Storyboard Layer 3 (Foreground)
//Storyboard Sound Samples

[TimingPoints]
805,214.285714285714,4,2,0,100,1,0
805,-71.4285714285714,4,2,0,100,0,0
1019,-58.8235294117647,4,2,0,100,0,0
1233,-71.4285714285714,4,2,0,100,0,0
1447,-58.8235294117647,4,2,0,100,0,0
1662,-71.4285714285714,4,2,0,100,0,0
1876,-58.8235294117647,4,2,0,100,0,0
2090,-71.4285714285714,4,2,0,100,0,0
2304,-58.8235294117647,4,2,0,100,0,0
2519,-71.4285714285714,4,2,0,100,0,0
2733,-58.8235294117647,4,2,0,100,0,0
2947,-71.4285714285714,4,2,0,100,0,0
3162,-58.8235294117647,4,2,0,100,0,0
3376,-71.4285714285714,4,2,0,100,0,0
3590,-58.8235294117647,4,2,0,100,0,0
3804,-71.4285714285714,4,2,0,100,0,0
4019,-58.8235294117647,4,2,0,100,0,0
55662,-66.6666666666667,4,2,0,100,0,1
61662,-66.6666666666667,4,2,0,100,0,0
61769,-66.6666666666667,4,2,0,5,0,0
61822,-66.6666666666667,4,2,0,100,0,0
61983,-66.6666666666667,4,2,0,5,0,0
62037,-66.6666666666667,4,2,0,100,0,0
62197,-66.6666666666667,4,2,0,5,0,0
62251,-66.6666666666667,4,2,0,100,0,0
62412,-66.6666666666667,4,2,0,5,0,0
62465,-66.6666666666667,4,2,0,100,0,0
66912,-66.6666666666667,4,2,0,5,0,0
66965,-66.6666666666667,4,2,0,100,0,0
67340,-66.6666666666667,4,2,0,5,0,0
67394,-66.6666666666667,4,2,0,100,0,0
67876,-57.1428571428571,4,2,0,100,0,0
68090,-50,4,2,0,100,0,0
68304,-40,4,2,0,100,0,0
68519,-66.6666666666667,4,2,0,100,0,0
69376,-133.333333333333,4,2,0,100,0,0
72162,-71.4285714285714,4,2,0,100,0,0
72376,-66.6666666666667,4,2,0,100,0,0
72590,-57.1428571428571,4,2,0,100,0,0
84162,-71.4285714285714,4,2,0,100,0,0
84804,-57.1428571428571,4,2,0,100,0,0
124233,-133.333333333333,4,2,0,100,0,1
130608,-133.333333333333,4,2,0,100,0,0

[HitObjects]
93,75,55662,5,0,0:0:0:0:
136,127,55733,1,0,0:0:0:0:
204,141,55804,1,0,0:0:0:0:
264,109,55876,1,0,0:0:0:0:
321,71,55947,1,0,0:0:0:0:
389,83,56019,1,0,0:0:0:0:
430,138,56090,1,0,0:0:0:0:
432,207,56162,1,0,0:0:0:0:
399,268,56233,1,0,0:0:0:0:
340,305,56304,1,0,0:0:0:0:
283,265,56376,1,0,0:0:0:0:
215,255,56447,1,0,0:0:0:0:
149,277,56519,5,0,0:0:0:0:
205,316,56590,1,0,0:0:0:0:
272,306,56662,1,0,0:0:0:0:
313,251,56733,1,0,0:0:0:0:
318,183,56804,1,0,0:0:0:0:
275,130,56876,1,0,0:0:0:0:
207,122,56947,1,0,0:0:0:0:
155,168,57019,1,0,0:0:0:0:
86,173,57090,1,0,0:0:0:0:
29,135,57162,1,0,0:0:0:0:
18,68,57233,1,0,0:0:0:0:
60,15,57304,1,0,0:0:0:0:
128,12,57376,1,0,0:0:0:0:
172,65,57447,1,0,0:0:0:0:
233,98,57519,1,0,0:0:0:0:
302,106,57590,1,0,0:0:0:0:
361,70,57662,1,0,0:0:0:0:
429,81,57733,1,0,0:0:0:0:
473,134,57804,1,0,0:0:0:0:
460,201,57876,1,0,0:0:0:0:
406,243,57947,1,0,0:0:0:0:
337,239,58019,1,0,0:0:0:0:
279,202,58090,1,0,0:0:0:0:
211,184,58162,1,0,0:0:0:0:
141,188,58233,5,0,0:0:0:0:
196,228,58304,1,0,0:0:0:0:
260,208,58376,1,0,0:0:0:0:
281,144,58447,1,0,0:0:0:0:
252,82,58519,1,0,0:0:0:0:
189,55,58590,1,0,0:0:0:0:
125,78,58662,1,0,0:0:0:0:
88,136,58733,1,0,0:0:0:0:
97,204,58804,1,0,0:0:0:0:
148,250,58876,1,0,0:0:0:0:
196,201,58947,1,0,0:0:0:0:
264,191,59019,1,0,0:0:0:0:
323,226,59090,5,0,0:0:0:0:
261,252,59162,1,0,0:0:0:0:
199,226,59233,1,0,0:0:0:0:
174,162,59304,1,0,0:0:0:0:
197,98,59376,1,0,0:0:0:0:
259,71,59447,1,0,0:0:0:0:
321,98,59519,1,0,0:0:0:0:
343,163,59590,1,0,0:0:0:0:
319,228,59662,1,0,0:0:0:0:
259,262,59733,1,0,0:0:0:0:
193,242,59804,1,0,0:0:0:0:
126,261,59876,1,0,0:0:0:0:
80,312,59947,5,0,0:0:0:0:
110,371,60019,1,0,0:0:0:0:
176,368,60090,1,0,0:0:0:0:
200,307,60162,1,0,0:0:0:0:
160,250,60233,1,0,0:0:0:0:
159,182,60304,1,0,0:0:0:0:
198,125,60376,1,0,0:0:0:0:
265,106,60447,1,0,0:0:0:0:
331,126,60519,1,0,0:0:0:0:
376,178,60590,1,0,0:0:0:0:
372,246,60662,1,0,0:0:0:0:
319,289,60733,1,0,0:0:0:0:
252,279,60804,5,0,0:0:0:0:
299,228,60876,1,0,0:0:0:0:
362,201,60947,1,0,0:0:0:0:
432,203,61019,1,0,0:0:0:0:
481,156,61090,1,0,0:0:0:0:
473,89,61162,1,0,0:0:0:0:
414,56,61233,5,0,0:0:0:0:
436,120,61304,1,0,0:0:0:0:
403,180,61376,1,0,0:0:0:0:
337,195,61447,1,0,0:0:0:0:
281,157,61519,1,0,0:0:0:0:
272,89,61590,1,0,0:0:0:0:
304,28,61662,6,4,L|237:147,1,105.000004005432
401,293,61876,2,4,L|360:192,1,105.000004005432
69,213,62090,2,4,L|148:121,1,105.000004005432
461,52,62304,2,4,L|407:170,1,105.000004005432
325,299,62519,6,0,P|286:245|275:200,1,105.000004005432
292,99,62733,1,0,0:0:0:0:
179,91,62840,5,0,3:0:0:0:
178,94,62894,1,0,3:0:0:0:
178,98,62947,1,0,3:0:0:0:
178,102,63001,1,0,3:0:0:0:
178,106,63054,1,0,3:0:0:0:
178,109,63108,1,0,3:0:0:0:
178,113,63162,1,0,3:0:0:0:
178,117,63215,1,0,3:0:0:0:
178,121,63269,1,0,3:0:0:0:
178,124,63322,1,0,3:0:0:0:
178,134,63376,6,0,B|162:165|133:172|133:172|163:208|163:208|112:227|85:277,1,210.000008010865
334,134,63804,2,0,B|349:165|378:172|378:172|348:208|348:208|399:227|427:277,1,210.000008010865
210,107,64233,6,0,P|192:155|148:183,1,105.000004005432
301,276,64447,2,0,P|319:228|363:200,1,105.000004005432
380,126,64662,2,0,P|329:112|290:78,1,105.000004005432
131,257,64876,2,0,P|182:271|221:305,1,105.000004005432
254,36,65090,6,0,B|252:70|274:90|274:90|230:107|230:107|265:148|266:206,1,210.000008010865
183,349,65519,5,4,1:0:0:0:
458,179,65662,1,4,1:0:0:0:
155,56,65804,1,4,1:0:0:0:
182,349,65947,6,0,P|224:312|262:241,1,105.000004005432
329,34,66162,2,0,P|287:72|250:143,1,105.000004005432
252,195,66376,5,0,0:0:0:0:
261,192,66483,1,0,0:0:0:0:
259,204,66590,1,0,0:0:0:0:
252,186,66697,1,0,0:0:0:0:
463,334,66804,6,0,L|407:244,1,105.000004005432
334,128,67019,1,0,0:0:0:0:
334,128,67126,1,0,0:0:0:0:
234,253,67233,6,0,L|337:228,1,105.000004005432
470,198,67447,1,0,0:0:0:0:
470,198,67554,1,0,0:0:0:0:
347,316,67662,6,0,P|355:249|403:183,1,105.000004005432
256,316,67876,6,0,P|248:249|205:176,1,122.500001168251
160,316,68090,6,0,P|168:249|217:179,1,140
64,316,68304,6,0,P|56:249|-2:141,1,175
105,66,68519,6,0,B|158:80|173:137|173:137|194:114|194:114|207:174|275:191,1,210.000008010865
407,66,68947,2,0,B|354:80|339:137|339:137|318:114|318:114|306:244|197:261,1,315.000012016297
104,207,69376,6,0,L|128:155,2,52.5000020027161
269,108,70447,2,0,L|290:170,5,52.5000020027161
168,227,71090,2,0,L|183:174,2,52.5000020027161
43,72,72162,6,0,P|79:102|153:145,1,97.9999970092774
155,54,72376,2,0,P|207:85|252:119,1,105.000004005432
190,168,72590,2,0,P|226:198|322:251,1,122.500001168251
353,186,72804,5,0,0:0:0:0:
140,186,72912,1,0,0:0:0:0:
296,53,73019,5,0,0:0:0:0:
295,266,73126,1,0,0:0:0:0:
128,121,73233,5,0,0:0:0:0:
341,122,73340,1,0,0:0:0:0:
183,279,73447,5,0,0:0:0:0:
184,66,73554,1,0,0:0:0:0:
350,226,73662,5,0,0:0:0:0:
137,225,73769,1,0,0:0:0:0:
296,53,73876,6,0,B|355:83|355:83|366:138,1,122.500001168251
292,289,74090,2,0,B|229:309|229:309|181:278,1,122.500001168251
140,186,74304,2,0,B|169:126|169:126|225:115,1,122.500001168251
366,138,74519,6,0,L|274:227,1,122.500001168251
154,342,74733,1,0,0:0:0:0:
154,342,74840,1,0,0:0:0:0:
55,85,74947,6,0,L|174:130,1,122.500001168251
329,190,75162,1,0,0:0:0:0:
329,190,75269,1,0,0:0:0:0:
78,306,75376,6,0,L|177:225,1,122.500001168251
304,120,75590,1,0,0:0:0:0:
304,120,75697,1,0,0:0:0:0:
412,341,75804,6,0,L|296:284,1,122.500001168251
147,214,76019,1,0,0:0:0:0:
147,214,76126,1,0,0:0:0:0:
390,107,76233,5,0,0:0:0:0:
239,318,76340,1,0,0:0:0:0:
216,94,76447,1,0,0:0:0:0:
335,343,76554,1,0,0:0:0:0:
465,156,76662,5,0,0:0:0:0:
222,239,76769,1,0,0:0:0:0:
470,271,76876,1,0,0:0:0:0:
180,146,76983,1,0,0:0:0:0:
401,331,77090,5,0,0:0:0:0:
329,87,77197,1,0,0:0:0:0:
218,318,77304,1,0,0:0:0:0:
429,182,77412,1,0,0:0:0:0:
184,235,77519,5,0,0:0:0:0:
345,153,77626,1,0,0:0:0:0:
121,142,77733,5,0,0:0:0:0:
355,236,77840,1,0,0:0:0:0:
350,51,77947,6,0,L|252:136,1,122.500001168251
206,304,78162,2,0,L|304:219,1,122.500001168251
420,215,78376,2,0,L|297:223,1,122.500001168251
121,142,78590,2,0,L|243:133,1,122.500001168251
410,67,78804,6,0,B|353:90|333:146|333:146|285:88|212:91|212:91|215:170|147:230,1,367.500003504753
120,108,79233,2,0,B|172:143|176:198|176:198|216:143|282:151|282:151|339:215|430:154,1,367.500003504753
443,206,79662,6,0,B|415:272|415:272|345:303,1,122.500001168251
215,291,79876,1,0,0:0:0:0:
344,167,79983,1,0,0:0:0:0:
182,164,80090,1,0,0:0:0:0:
323,235,80197,1,0,0:0:0:0:
219,105,80304,1,0,0:0:0:0:
111,257,80412,1,0,0:0:0:0:
211,52,80519,5,0,0:0:0:0:
22,212,80626,1,0,0:0:0:0:
147,29,80733,1,0,0:0:0:0:
201,239,80840,1,0,0:0:0:0:
340,48,80947,5,0,0:0:0:0:
435,238,81054,1,0,0:0:0:0:
266,139,81162,1,0,0:0:0:0:
411,167,81269,5,0,0:0:0:0:
246,328,81376,1,0,0:0:0:0:
171,133,81483,5,0,0:0:0:0:
324,327,81590,1,0,0:0:0:0:
375,91,81697,5,0,0:0:0:0:
169,215,81804,1,0,0:0:0:0:
424,292,81912,5,0,0:0:0:0:
286,82,82019,1,0,0:0:0:0:
200,312,82126,1,0,0:0:0:0:
361,181,82233,5,0,0:0:0:0:
361,181,82340,1,0,0:0:0:0:
112,57,82447,1,0,0:0:0:0:
112,57,82554,1,0,0:0:0:0:
133,281,82662,2,0,B|197:251|165:221|225:181,1,122.500001168251
311,48,82876,1,0,0:0:0:0:
311,48,82983,1,0,0:0:0:0:
372,253,83090,6,0,P|336:189|274:180,1,122.500001168251
197,174,83304,2,0,P|218:118|272:94,1,122.500001168251
368,97,83519,2,0,P|346:152|292:176,1,122.500001168251
197,174,83733,2,0,P|200:230|254:276,1,122.500001168251
314,335,83947,2,0,P|335:279|311:224,1,122.500001168251
292,127,84162,6,0,B|235:147|216:213|216:213|200:286|129:293|129:293|55:296|2:220|29:137|105:114,1,489.999985046387
126,202,84804,2,0,B|197:262|144:347|144:347|240:387|348:311,1,367.500003504753
346,262,85233,2,0,B|298:232|228:225|228:225|294:178|269:128|269:128|304:59|368:60,1,367.500003504753
395,106,85662,2,0,B|443:136|513:143|513:143|448:190|473:240|473:240|438:309|356:309,1,367.500003504753
243,127,86090,5,0,0:0:0:0:
243,127,86197,1,0,0:0:0:0:
243,127,86304,1,0,0:0:0:0:
243,127,86412,1,0,0:0:0:0:
350,170,86519,5,0,0:0:0:0:
350,170,86626,1,0,0:0:0:0:
350,170,86733,2,0,L|309:37,1,122.500001168251
255,228,86947,5,0,0:0:0:0:
255,228,87054,1,0,0:0:0:0:
255,228,87162,2,0,L|296:361,1,122.500001168251
143,239,87376,5,0,0:0:0:0:
143,239,87483,1,0,0:0:0:0:
143,239,87590,2,0,L|200:130,1,122.500001168251
45,191,87804,5,0,0:0:0:0:
45,191,87912,1,0,0:0:0:0:
45,191,88019,2,0,L|81:308,1,122.500001168251
119,131,88233,5,0,0:0:0:0:
119,131,88340,1,0,0:0:0:0:
119,131,88447,2,0,L|82:13,1,122.500001168251
205,189,88662,5,0,0:0:0:0:
205,189,88769,1,0,0:0:0:0:
205,189,88876,2,0,L|147:297,1,122.500001168251
318,224,89090,5,0,0:0:0:0:
318,224,89197,1,0,0:0:0:0:
318,224,89304,2,0,L|281:106,1,122.500001168251
408,136,89519,5,0,0:0:0:0:
408,136,89626,1,0,0:0:0:0:
408,136,89733,2,0,L|444:253,1,122.500001168251
307,112,89947,5,0,0:0:0:0:
307,112,90054,1,0,0:0:0:0:
307,112,90162,2,0,L|364:3,1,122.500001168251
214,144,90376,5,0,0:0:0:0:
214,144,90483,1,0,0:0:0:0:
214,144,90590,2,0,L|156:252,1,122.500001168251
119,198,90804,5,0,0:0:0:0:
119,198,90912,1,0,0:0:0:0:
119,198,91019,2,0,L|82:80,1,122.500001168251
207,270,91233,5,0,0:0:0:0:
207,270,91340,1,0,0:0:0:0:
207,270,91447,2,0,L|264:161,1,122.500001168251
330,235,91662,5,0,0:0:0:0:
330,235,91769,1,0,0:0:0:0:
330,235,91876,2,0,L|293:117,1,122.500001168251
437,295,92090,5,0,0:0:0:0:
437,295,92197,1,0,0:0:0:0:
437,295,92304,2,0,L|494:186,1,122.500001168251
408,158,92519,5,0,0:0:0:0:
408,158,92626,1,0,0:0:0:0:
408,158,92733,2,0,L|350:266,1,122.500001168251
287,325,92947,5,0,0:0:0:0:
287,325,93054,1,0,0:0:0:0:
287,325,93162,2,0,L|250:207,1,122.500001168251
201,139,93376,6,0,B|130:100|130:100|86:154,1,122.500001168251
36,218,93590,6,0,L|237:369,1,245.000002336502
264,356,93912,2,0,L|159:127,1,245.000002336502
181,105,94233,2,0,L|363:270,1,245.000002336502
404,251,94554,2,0,B|330:25|330:25|204:33,1,326.666669782003
96,55,94947,5,0,0:0:0:0:
119,111,95054,1,0,0:0:0:0:
94,153,95161,1,0,0:0:0:0:
109,186,95268,1,0,0:0:0:0:
90,218,95376,1,0,0:0:0:0:
107,250,95483,1,0,0:0:0:0:
92,269,95590,1,0,0:0:0:0:
103,290,95697,1,0,0:0:0:0:
89,310,95804,1,0,0:0:0:0:
106,327,95911,1,0,0:0:0:0:
86,341,96018,1,0,0:0:0:0:
107,353,96126,1,0,0:0:0:0:
83,358,96233,1,0,0:0:0:0:
104,369,96340,1,0,0:0:0:0:
256,192,96804,12,0,98519,0:0:0:0:
87,86,100233,6,0,B|126:137|91:204|91:204|161:193|225:240,1,245.000002336502
427,148,100554,5,0,0:0:0:0:
255,18,100662,1,0,0:0:0:0:
356,224,100769,1,0,0:0:0:0:
348,11,100876,1,0,0:0:0:0:
154,135,100983,5,0,0:0:0:0:
373,94,101090,1,0,0:0:0:0:
130,55,101197,5,0,0:0:0:0:
370,179,101304,1,0,0:0:0:0:
113,235,101412,1,0,0:0:0:0:
272,33,101519,5,0,0:0:0:0:
272,298,101626,1,0,0:0:0:0:
179,68,101733,1,0,0:0:0:0:
155,310,101840,1,0,0:0:0:0:
273,125,101947,5,0,0:0:0:0:
84,127,102054,1,0,0:0:0:0:
186,262,102162,1,0,0:0:0:0:
125,65,102269,5,0,0:0:0:0:
35,263,102376,1,0,0:0:0:0:
215,197,102483,1,0,0:0:0:0:
16,118,102590,1,0,0:0:0:0:
142,319,102697,5,0,0:0:0:0:
244,95,102804,1,0,0:0:0:0:
69,285,102912,1,0,0:0:0:0:
339,268,103019,1,0,0:0:0:0:
161,92,103126,5,0,0:0:0:0:
249,326,103233,1,0,0:0:0:0:
402,102,103340,1,0,0:0:0:0:
137,197,103447,1,0,0:0:0:0:
424,312,103554,5,0,0:0:0:0:
294,115,103662,2,0,B|203:226|70:123,1,245.000002336502
21,52,103983,5,0,0:0:0:0:
204,53,104090,1,0,0:0:0:0:
69,185,104197,1,0,0:0:0:0:
138,35,104304,1,0,0:0:0:0:
236,194,104412,1,0,0:0:0:0:
233,22,104519,5,0,0:0:0:0:
150,242,104626,1,0,0:0:0:0:
364,177,104733,1,0,0:0:0:0:
156,116,104840,1,0,0:0:0:0:
349,282,104947,5,0,0:0:0:0:
200,65,105054,1,0,0:0:0:0:
290,336,105162,5,0,0:0:0:0:
265,37,105269,1,0,0:0:0:0:
173,237,105376,6,0,L|218:352,1,122.500001168251
338,146,105590,2,0,L|294:32,1,122.500001168251
178,122,105804,2,0,L|42:160,1,122.500001168251
334,262,106019,2,0,L|470:224,1,122.500001168251
218,352,106233,6,0,L|173:237,1,122.500001168251
294,32,106447,2,0,L|338:146,1,122.500001168251
60,154,106661,2,0,L|178:122,1,122.500001168251
451,229,106876,2,0,L|334:262,1,122.500001168251
291,252,107090,6,0,B|316:184|365:157|365:157|345:79|258:78,1,245.000002336502
83,41,107412,1,0,0:0:0:0:
170,237,107519,1,0,0:0:0:0:
83,130,107626,1,0,0:0:0:0:
71,214,107733,5,0,0:0:0:0:
285,173,107840,1,0,0:0:0:0:
203,341,107947,1,0,0:0:0:0:
207,129,108054,1,0,0:0:0:0:
359,257,108162,5,0,0:0:0:0:
133,241,108269,1,0,0:0:0:0:
328,71,108376,1,0,0:0:0:0:
294,331,108483,5,0,0:0:0:0:
214,81,108590,1,0,0:0:0:0:
395,346,108697,5,0,0:0:0:0:
124,68,108804,1,0,0:0:0:0:
