osu file format v14

[General]
AudioFilename: audio.mp3
AudioLeadIn: 0
PreviewTime: 144170
Countdown: 0
SampleSet: Normal
StackLeniency: 0.7
Mode: 1
LetterboxInBreaks: 0
WidescreenStoryboard: 0

[Editor]
Bookmarks: 21386,40254,40575,41957,55672,61672,86529,110529,124243,130243,131098,182535,192821,209963,244249,257963,295686
DistanceSpacing: 1.3
BeatDivisor: 4
GridSize: 32
TimelineZoom: 5.499997

[Metadata]
Title:BRING+EYES=DEATH+INVITE
TitleUnicode:嚮導BRING+瞳EYES=死DEATH+齎INVITE
Artist:Imperial Circus Dead Decadence
ArtistUnicode:Imperial Circus Dead Decadence
Creator:Raiden
Version:Shuuen
Source:osu!
Tags:fa featured artist icdd symphonic power death dojin doujin black metal 腐蝕ルサンチマン、不死欲の猿楽座。 Fushoku rusanchiman, fushi yoku no sarugakuza. bedi japanese
BeatmapID:2365266
BeatmapSetID:1132374

[Difficulty]
HPDrainRate:4
CircleSize:2
OverallDifficulty:6.5
ApproachRate:10
SliderMultiplier:1.4
SliderTickRate:1

[Events]
//Background and Video events
0,0,"nanomortis2.png",0,0
//Break Periods
2,258162,270821
//Storyboard Layer 0 (Background)
//Storyboard Layer 1 (Fail)
//Storyboard Layer 2 (Pass)
//Storyboard Layer 3 (Foreground)
//Storyboard Layer 4 (Overlay)
//Storyboard Sound Samples

[TimingPoints]
826,214.285714285714,4,1,0,90,1,0
826,-100,4,1,0,90,0,0
33397,210.526315789474,4,1,0,90,1,0
33397,-101.785714285714,4,1,0,90,0,0
34975,-103.092783505155,4,1,0,90,0,0
35081,210.526315789474,4,1,0,90,1,8
35081,-101.785714285714,4,1,0,90,0,8
35111,211.267605633803,4,1,0,90,1,0
35111,-104.166666666667,4,1,0,90,0,0
35322,-101.010101010101,4,1,0,90,0,0
36801,215.827338129496,4,1,0,90,1,0
36801,-99.2857142857145,4,1,0,90,0,0
37664,214.285714285714,4,1,0,90,1,0
37664,-100,4,1,0,90,0,0
38306,-101.010101010101,4,1,0,90,0,0
38414,-102.040816326531,4,1,0,90,0,0
38521,214.285714285714,4,1,0,90,1,8
38521,-100,4,1,0,90,0,8
38539,212.014134275618,4,1,0,90,1,0
38539,-103.092783505155,4,1,0,90,0,0
38751,-100,4,1,0,90,0,0
40129,-99.009900990099,4,1,0,90,0,0
40217,209.79020979021,4,1,0,90,1,8
40217,-102.142857142857,4,1,0,90,0,8
40253,214.285714285714,4,1,0,90,1,0
40253,-101.010101010101,4,1,0,90,0,0
41967,223.880597014925,4,1,0,90,1,0
41967,-95.7142857142859,4,1,0,90,0,0
42862,210.526315789474,4,1,0,90,1,0
42862,-101.785714285714,4,1,0,90,0,0
43689,214.285714285714,4,1,0,90,1,0
43689,-100,4,1,0,90,0,0
45403,212.014134275618,4,1,0,90,1,0
45403,-101.071428571429,4,1,0,90,0,0
47947,214.285714285714,4,1,0,90,1,0
47947,-100,4,1,0,90,0,0
53946,216.606498194946,4,1,0,90,1,0
53946,-98.9285714285714,4,1,0,90,0,0
55678,216.606498194946,4,1,0,90,1,8
55678,-98.9285714285714,4,1,0,90,0,8
55691,213.903743315508,4,1,0,90,1,0
55691,-100.178571428571,4,1,0,90,0,0
58257,214.285714285714,4,1,0,90,1,0
58257,-100,4,1,0,90,0,0
67685,209.79020979021,4,1,0,90,1,0
67685,-102.142857142857,4,1,0,90,0,0
69363,209.79020979021,4,1,0,90,1,8
69363,-102.142857142857,4,1,0,90,0,8
69383,212.765957446809,4,1,0,90,1,0
69383,-83.3333333333333,4,1,0,90,0,0
70234,212.765957446809,4,1,0,90,1,8
70234,-100.714285714285,4,1,0,90,0,8
70256,212.765957446809,4,1,0,90,1,0
70256,-76.9230769230769,4,1,0,90,0,0
72809,214.285714285714,4,1,0,90,1,8
72809,-100,4,1,0,90,0,8
72835,214.285714285714,4,1,0,90,1,1
72835,-100,4,1,0,90,0,1
86748,213.903743315508,4,1,0,90,1,9
86748,-100.178571428571,4,1,0,90,0,9
87390,213.903743315508,4,1,0,90,1,1
87390,-100.178571428571,4,1,0,90,0,1
95090,210.526315789474,4,1,0,90,1,1
95090,-100.714285714285,4,1,0,90,0,1
96142,248.96265560166,4,1,0,90,1,9
96142,-86.0714285714285,4,1,0,90,0,9
96802,213.903743315508,4,1,0,90,1,9
96802,-100.178571428571,4,1,0,90,0,9
96820,216.606498194946,4,1,0,90,1,0
96820,-98.9285714285714,4,1,0,90,0,0
98498,-80,4,1,0,90,0,0
98607,-98.9285714285714,4,1,0,90,0,0
100273,210.896309314587,4,1,0,90,1,0
100273,-101.607142857143,4,1,0,90,0,0
102803,214.285714285714,4,1,0,90,1,0
102803,-100,4,1,0,90,0,0
110517,214.285714285714,4,1,0,90,1,8
110517,-100,4,1,0,90,0,8
110538,214.285714285714,4,1,0,90,1,0
110538,-100,4,1,0,90,0,0
116537,212.765957446809,4,1,0,90,1,0
116537,-100.714285714285,4,1,0,90,0,0
119941,212.765957446809,4,1,0,90,1,8
119941,-100.714285714285,4,1,0,90,0,8
119956,214.285714285714,4,1,0,90,1,0
119956,-100,4,1,0,90,0,0
131098,-111.111111111111,4,1,0,80,0,0
137955,218.181818181818,4,1,0,80,1,0
137955,-108.910891089109,4,1,0,80,0,0
140527,214.285714285714,4,1,0,80,1,0
140527,-111.111111111111,4,1,0,80,0,0
142455,-105.263157894737,4,1,0,80,0,0
142562,-100,4,1,0,80,0,0
142669,-83.3333333333333,4,1,0,90,0,0
143955,-100,4,1,0,90,0,0
144812,214.285714285714,4,1,0,90,1,8
144812,-100,4,1,0,90,0,8
144818,214.285714285714,4,1,0,90,1,1
144818,-100,4,1,0,90,0,1
167746,-100,4,1,0,90,0,1
167800,-98.9774638212625,4,1,0,90,0,1
167853,-97.9756275828825,4,1,0,90,0,1
167907,-96.9938690175394,4,1,0,90,0,1
167960,-96.0314983314527,4,1,0,90,0,1
168014,-95.0881276767308,4,1,0,90,0,1
168067,-94.1631112245254,4,1,0,90,0,1
168121,-93.2559184868668,4,1,0,90,0,1
168175,-92.3660392241622,4,1,0,90,0,1
168228,-91.4929824882431,4,1,0,90,0,1
168282,-90.6362757191762,4,1,0,90,0,1
168416,214.285714285714,4,1,0,90,1,9
168416,-89.2857142857143,4,1,0,90,0,1
168817,214.285714285714,4,1,0,90,1,9
168817,-100,4,1,0,90,0,9
168825,214.285714285714,6,1,0,90,1,0
168825,-111.111111111111,6,1,0,90,0,0
170110,214.285714285714,4,1,0,90,1,0
170110,-111.111111111111,4,1,0,90,0,0
171824,214.285714285714,6,1,0,90,1,0
171824,-111.111111111111,6,1,0,90,0,0
173109,214.285714285714,4,1,0,90,1,0
173109,-111.111111111111,4,1,0,90,0,0
175680,214.285714285714,6,1,0,90,1,0
175680,-111.111111111111,6,1,0,90,0,0
176965,214.285714285714,4,1,0,90,1,0
176965,-111.111111111111,4,1,0,90,0,0
178679,214.285714285714,6,1,0,90,1,0
178679,-111.111111111111,6,1,0,90,0,0
179964,214.285714285714,4,1,0,90,1,0
179964,-111.111111111111,4,1,0,90,0,0
181249,-83.3333333333333,4,1,0,90,0,0
182535,-100,4,1,0,90,0,0
191963,-101.123595505618,4,1,0,90,0,0
192070,-102.272727272727,4,1,0,90,0,0
192177,-103.448275862069,4,1,0,90,0,0
192284,-104.651162790698,4,1,0,90,0,0
192391,-105.882352941176,4,1,0,90,0,0
192498,-107.142857142857,4,1,0,90,0,0
192605,-108.433734939759,4,1,0,90,0,0
192713,-109.756097560976,4,1,0,90,0,0
192820,-111.111111111111,4,1,0,80,0,0
209106,-111.111111111111,4,1,0,81,0,0
209213,-109.58904109589,4,1,0,82,0,0
209321,-108.108108108108,4,1,0,83,0,0
209428,-106.666666666667,4,1,0,84,0,0
209535,-105.263157894737,4,1,0,85,0,0
209642,-103.896103896104,4,1,0,86,0,0
209749,-102.564102564103,4,1,0,87,0,0
209856,-101.26582278481,4,1,0,88,0,0
209963,-100,4,1,0,90,0,0
223678,-83.3333333333333,4,1,0,90,0,0
226249,-90.9090909090909,4,1,0,90,0,0
226463,-95.2380952380952,4,1,0,90,0,0
226678,-100,4,1,0,90,0,0
242525,214.285714285714,4,1,0,90,1,0
242525,-98.0392156862745,4,1,0,90,0,0
244239,214.285714285714,4,1,0,90,1,8
244248,214.285714285714,4,1,0,90,1,0
258176,-133.333333333333,4,1,0,40,0,0
271676,-111.111111111111,4,1,0,80,0,0
281105,-111.111111111111,4,1,0,90,0,0
281158,-109.604535874113,4,1,0,90,0,0
281212,-108.138269917447,4,1,0,90,0,0
281265,-106.710716850583,4,1,0,90,0,0
281319,-105.320252557966,4,1,0,90,0,0
281372,-103.965666378335,4,1,0,90,0,0
281426,-102.645482007787,4,1,0,90,0,0
281480,-101.35840534848,4,1,0,90,0,0
281533,-100.103206405804,4,1,0,90,0,0
281962,214.285714285714,4,1,0,90,1,8
281962,-100,4,1,0,90,0,8
281972,214.285714285714,4,1,0,90,1,1
281972,-95.2380952380952,4,1,0,90,0,1
305971,-95.2380952380952,4,1,0,90,0,0
306829,214.285714285714,4,1,0,90,1,8
306829,-100,4,1,0,90,0,8
306834,214.285714285714,6,1,0,90,1,0
306834,-100,6,1,0,90,0,0
308119,214.285714285714,4,1,0,90,1,0
308119,-100,4,1,0,90,0,0
308976,214.285714285714,6,1,0,90,1,0
308976,-100,6,1,0,90,0,0
310261,214.285714285714,4,1,0,90,1,0
310261,-100,4,1,0,90,0,0
311975,214.285714285714,6,1,0,90,1,0
311975,-100,6,1,0,90,0,0
313260,214.285714285714,4,1,0,90,1,0
313260,-100,4,1,0,90,0,0
314974,214.285714285714,6,1,0,90,1,0
314974,-100,6,1,0,90,0,0
316259,214.285714285714,4,1,0,90,1,0
316259,-100,4,1,0,90,0,0
317973,214.285714285714,6,1,0,90,1,0
317973,-100,6,1,0,90,0,0
319258,214.285714285714,4,1,0,90,1,0
319258,-100,4,1,0,90,0,0
320972,214.285714285714,6,1,0,90,1,0
320972,-100,6,1,0,90,0,0
322257,214.285714285714,4,1,0,90,1,0
322257,-100,4,1,0,90,0,0
323971,214.285714285714,6,1,0,90,1,0
323971,-95.2380952380952,6,1,0,90,0,0
325256,-90.9090909090909,6,1,0,90,0,0
326542,-83.3333333333333,6,1,0,90,0,0

[HitObjects]
256,192,826,5,4,0:0:0:0:
256,192,933,5,0,0:0:0:0:
256,192,1040,5,0,0:0:0:0:
256,192,1147,5,8,0:0:0:0:
256,192,1254,5,8,0:0:0:0:
256,192,1361,5,0,0:0:0:0:
256,192,1468,5,8,0:0:0:0:
256,192,1575,5,0,0:0:0:0:
256,192,1683,5,0,0:0:0:0:
256,192,1790,5,8,0:0:0:0:
256,192,1897,5,0,0:0:0:0:
256,192,2004,5,0,0:0:0:0:
256,192,2111,5,0,0:0:0:0:
256,192,2218,5,8,0:0:0:0:
256,192,2325,5,0,0:0:0:0:
256,192,2433,5,8,0:0:0:0:
256,192,2540,5,0,0:0:0:0:
256,192,2647,5,0,0:0:0:0:
256,192,2754,5,0,0:0:0:0:
256,192,2861,5,8,0:0:0:0:
256,192,2968,5,0,0:0:0:0:
256,192,3075,5,0,0:0:0:0:
256,192,3183,5,8,0:0:0:0:
256,192,3290,5,8,0:0:0:0:
256,192,3397,5,0,0:0:0:0:
256,192,3504,5,0,0:0:0:0:
256,192,3611,5,8,0:0:0:0:
256,192,3718,5,0,0:0:0:0:
256,192,3825,5,0,0:0:0:0:
256,192,3933,5,8,0:0:0:0:
256,192,4040,5,0,0:0:0:0:
256,192,4147,5,0,0:0:0:0:
256,192,4254,5,8,0:0:0:0:
256,192,4361,5,0,0:0:0:0:
256,192,4468,5,8,0:0:0:0:
256,192,4575,5,8,0:0:0:0:
256,192,4683,5,0,0:0:0:0:
256,192,4790,5,0,0:0:0:0:
256,192,4897,5,8,0:0:0:0:
256,192,5004,5,0,0:0:0:0:
256,192,5111,5,0,0:0:0:0:
256,192,5218,5,8,0:0:0:0:
256,192,5325,5,0,0:0:0:0:
256,192,5433,5,0,0:0:0:0:
256,192,5540,5,8,0:0:0:0:
256,192,5647,5,0,0:0:0:0:
256,192,5754,5,8,0:0:0:0:
256,192,5861,5,8,0:0:0:0:
256,192,5968,5,0,0:0:0:0:
256,192,6075,5,0,0:0:0:0:
256,192,6183,5,0,0:0:0:0:
256,192,6290,5,8,0:0:0:0:
256,192,6397,5,8,0:0:0:0:
256,192,6504,5,0,0:0:0:0:
256,192,6611,5,8,0:0:0:0:
256,192,6718,5,0,0:0:0:0:
256,192,6825,5,0,0:0:0:0:
256,192,6933,5,8,0:0:0:0:
256,192,7040,5,0,0:0:0:0:
256,192,7147,5,0,0:0:0:0:
256,192,7254,5,8,0:0:0:0:
256,192,7361,5,0,0:0:0:0:
256,192,7468,5,8,0:0:0:0:
256,192,7575,5,8,0:0:0:0:
256,192,7683,5,0,0:0:0:0:
256,192,7790,5,0,0:0:0:0:
256,192,7897,5,0,0:0:0:0:
256,192,8004,5,8,0:0:0:0:
256,192,8111,5,8,0:0:0:0:
256,192,8218,5,0,0:0:0:0:
256,192,8325,5,8,0:0:0:0:
256,192,8433,5,0,0:0:0:0:
256,192,8540,5,0,0:0:0:0:
256,192,8647,5,8,0:0:0:0:
256,192,8754,5,0,0:0:0:0:
256,192,8861,5,0,0:0:0:0:
256,192,8968,5,0,0:0:0:0:
256,192,9075,5,8,0:0:0:0:
256,192,9183,5,0,0:0:0:0:
256,192,9290,5,8,0:0:0:0:
256,192,9397,5,0,0:0:0:0:
256,192,9504,5,0,0:0:0:0:
256,192,9611,5,0,0:0:0:0:
256,192,9718,5,8,0:0:0:0:
256,192,9825,5,0,0:0:0:0:
256,192,9933,5,0,0:0:0:0:
256,192,10040,5,8,0:0:0:0:
256,192,10147,5,8,0:0:0:0:
256,192,10254,5,0,0:0:0:0:
256,192,10361,5,0,0:0:0:0:
256,192,10468,5,8,0:0:0:0:
256,192,10575,5,0,0:0:0:0:
256,192,10683,5,0,0:0:0:0:
256,192,10790,5,8,0:0:0:0:
256,192,10897,5,0,0:0:0:0:
256,192,11004,5,0,0:0:0:0:
256,192,11111,5,8,0:0:0:0:
256,192,11218,5,0,0:0:0:0:
256,192,11325,5,8,0:0:0:0:
256,192,11433,5,8,0:0:0:0:
256,192,11540,5,0,0:0:0:0:
256,192,11647,5,0,0:0:0:0:
256,192,11754,5,8,0:0:0:0:
256,192,11861,5,0,0:0:0:0:
256,192,11968,5,0,0:0:0:0:
256,192,12075,5,8,0:0:0:0:
256,192,12183,5,0,0:0:0:0:
256,192,12290,5,0,0:0:0:0:
256,192,12397,5,8,0:0:0:0:
256,192,12504,5,0,0:0:0:0:
256,192,12611,5,8,0:0:0:0:
256,192,12718,5,8,0:0:0:0:
256,192,12825,5,0,0:0:0:0:
256,192,12933,5,0,0:0:0:0:
256,192,13040,5,0,0:0:0:0:
256,192,13147,5,8,0:0:0:0:
256,192,13254,5,8,0:0:0:0:
256,192,13361,5,0,0:0:0:0:
256,192,13468,5,8,0:0:0:0:
256,192,13575,5,0,0:0:0:0:
256,192,13683,5,0,0:0:0:0:
256,192,13790,5,8,0:0:0:0:
256,192,13897,5,8,0:0:0:0:
256,192,14004,5,0,0:0:0:0:
256,192,14111,5,8,0:0:0:0:
256,192,14218,5,0,0:0:0:0:
256,192,14325,5,8,0:0:0:0:
256,192,14433,5,8,0:0:0:0:
256,192,14540,5,4,0:0:0:0:
256,192,14647,5,0,0:0:0:0:
256,192,14754,5,0,0:0:0:0:
256,192,14861,5,8,0:0:0:0:
256,192,14968,5,8,0:0:0:0:
256,192,15075,5,0,0:0:0:0:
256,192,15183,5,8,0:0:0:0:
256,192,15290,5,0,0:0:0:0:
256,192,15397,5,0,0:0:0:0:
256,192,15504,5,8,0:0:0:0:
256,192,15611,5,0,0:0:0:0:
256,192,15718,5,0,0:0:0:0:
256,192,15825,5,0,0:0:0:0:
256,192,15933,5,8,0:0:0:0:
256,192,16040,5,0,0:0:0:0:
256,192,16147,5,8,0:0:0:0:
256,192,16254,5,0,0:0:0:0:
256,192,16361,5,0,0:0:0:0:
256,192,16468,5,0,0:0:0:0:
256,192,16575,5,8,0:0:0:0:
256,192,16683,5,0,0:0:0:0:
256,192,16790,5,0,0:0:0:0:
256,192,16897,5,8,0:0:0:0:
256,192,17004,5,8,0:0:0:0:
256,192,17111,5,0,0:0:0:0:
256,192,17218,5,0,0:0:0:0:
256,192,17325,5,8,0:0:0:0:
256,192,17433,5,0,0:0:0:0:
256,192,17540,5,0,0:0:0:0:
256,192,17647,5,8,0:0:0:0:
256,192,17754,5,0,0:0:0:0:
256,192,17861,5,0,0:0:0:0:
256,192,17968,5,8,0:0:0:0:
256,192,18075,5,0,0:0:0:0:
256,192,18183,5,8,0:0:0:0:
256,192,18290,5,8,0:0:0:0:
256,192,18397,5,0,0:0:0:0:
256,192,18504,5,0,0:0:0:0:
256,192,18611,5,8,0:0:0:0:
256,192,18718,5,0,0:0:0:0:
256,192,18825,5,0,0:0:0:0:
256,192,18933,5,8,0:0:0:0:
256,192,19040,5,0,0:0:0:0:
256,192,19147,5,0,0:0:0:0:
256,192,19254,5,8,0:0:0:0:
256,192,19361,5,0,0:0:0:0:
256,192,19468,5,8,0:0:0:0:
256,192,19575,5,8,0:0:0:0:
256,192,19683,5,0,0:0:0:0:
256,192,19790,5,0,0:0:0:0:
256,192,19897,5,0,0:0:0:0:
256,192,20004,5,8,0:0:0:0:
256,192,20111,5,8,0:0:0:0:
256,192,20218,5,0,0:0:0:0:
256,192,20325,5,8,0:0:0:0:
256,192,20433,5,0,0:0:0:0:
256,192,20540,5,0,0:0:0:0:
256,192,20647,5,8,0:0:0:0:
256,192,20754,5,0,0:0:0:0:
256,192,20861,5,0,0:0:0:0:
256,192,20968,5,8,0:0:0:0:
256,192,21075,5,8,0:0:0:0:
256,192,21183,5,0,0:0:0:0:
256,192,21290,5,0,0:0:0:0:
256,192,21397,5,12,0:0:0:0:
256,192,21611,5,0,0:0:0:0:
256,192,21718,5,0,0:0:0:0:
256,192,21825,5,8,0:0:0:0:
256,192,21933,5,0,0:0:0:0:
256,192,22040,5,0,0:0:0:0:
256,192,22147,5,0,0:0:0:0:
256,192,22254,5,8,0:0:0:0:
256,192,22468,5,0,0:0:0:0:
256,192,22575,5,0,0:0:0:0:
256,192,22683,5,8,0:0:0:0:
256,192,22790,5,8,0:0:0:0:
256,192,22897,5,0,0:0:0:0:
256,192,23004,5,0,0:0:0:0:
256,192,23111,5,8,0:0:0:0:
256,192,23325,5,0,0:0:0:0:
256,192,23433,5,0,0:0:0:0:
256,192,23540,5,8,0:0:0:0:
256,192,23647,5,0,0:0:0:0:
256,192,23754,5,0,0:0:0:0:
256,192,23861,5,0,0:0:0:0:
256,192,23968,5,8,0:0:0:0:
256,192,24183,5,0,0:0:0:0:
256,192,24290,5,0,0:0:0:0:
256,192,24397,5,8,0:0:0:0:
256,192,24504,5,8,0:0:0:0:
256,192,24611,5,0,0:0:0:0:
256,192,24718,5,0,0:0:0:0:
256,192,24825,5,8,0:0:0:0:
256,192,24933,5,0,0:0:0:0:
256,192,25040,5,0,0:0:0:0:
256,192,25147,5,8,0:0:0:0:
256,192,25254,5,0,0:0:0:0:
256,192,25361,5,0,0:0:0:0:
256,192,25468,5,8,0:0:0:0:
256,192,25575,5,8,0:0:0:0:
256,192,25683,5,0,0:0:0:0:
256,192,25790,5,8,0:0:0:0:
256,192,25897,5,0,0:0:0:0:
256,192,26004,5,0,0:0:0:0:
256,192,26111,5,8,0:0:0:0:
256,192,26218,5,0,0:0:0:0:
256,192,26325,5,8,0:0:0:0:
256,192,26433,5,0,0:0:0:0:
256,192,26540,5,8,0:0:0:0:
256,192,26647,5,0,0:0:0:0:
256,192,26754,5,0,0:0:0:0:
256,192,26861,5,8,0:0:0:0:
256,192,26968,5,0,0:0:0:0:
256,192,27075,5,0,0:0:0:0:
256,192,27183,5,8,0:0:0:0:
256,192,27290,5,8,0:0:0:0:
256,192,27397,5,0,0:0:0:0:
256,192,27504,5,8,0:0:0:0:
256,192,27611,5,0,0:0:0:0:
256,192,27718,5,0,0:0:0:0:
256,192,27825,5,8,0:0:0:0:
256,192,27933,5,8,0:0:0:0:
256,192,28040,5,8,0:0:0:0:
256,192,28147,5,0,0:0:0:0:
256,192,28254,5,12,0:0:0:0:
256,192,30825,5,0,0:0:0:0:
256,192,30879,5,0,0:0:0:0:
256,192,30933,5,8,0:0:0:0:
256,192,31040,5,0,0:0:0:0:
256,192,31093,5,0,0:0:0:0:
256,192,31147,5,8,0:0:0:0:
256,192,31200,5,8,0:0:0:0:
256,192,31254,5,0,0:0:0:0:
256,192,31308,5,0,0:0:0:0:
256,192,31361,5,8,0:0:0:0:
256,192,31415,5,8,0:0:0:0:
256,192,31468,5,0,0:0:0:0:
256,192,31522,5,0,0:0:0:0:
256,192,31575,5,8,0:0:0:0:
256,192,31683,5,4,0:0:0:0:
256,192,31897,5,8,0:0:0:0:
256,192,32004,5,0,0:0:0:0:
256,192,32111,5,8,0:0:0:0:
256,192,32218,5,0,0:0:0:0:
256,192,32325,5,8,0:0:0:0:
256,192,32433,5,0,0:0:0:0:
256,192,32540,5,8,0:0:0:0:
256,192,32647,5,8,0:0:0:0:
256,192,32754,5,0,0:0:0:0:
256,192,32861,5,0,0:0:0:0:
256,192,32968,5,8,0:0:0:0:
256,192,33075,5,0,0:0:0:0:
256,192,33183,5,8,0:0:0:0:
256,192,33290,5,0,0:0:0:0:
256,192,33397,5,8,0:0:0:0:
256,192,33502,5,8,0:0:0:0:
256,192,33607,5,0,0:0:0:0:
256,192,33712,5,0,0:0:0:0:
256,192,33818,5,8,0:0:0:0:
256,192,33923,5,0,0:0:0:0:
256,192,34028,5,8,0:0:0:0:
256,192,34133,5,0,0:0:0:0:
256,192,34239,5,8,0:0:0:0:
256,192,34344,5,8,0:0:0:0:
256,192,34449,5,8,0:0:0:0:
256,192,34554,5,0,0:0:0:0:
256,192,34660,5,8,0:0:0:0:
256,192,34765,5,0,0:0:0:0:
256,192,34870,5,8,0:0:0:0:
256,192,34975,5,8,0:0:0:0:
256,192,35111,5,4,0:0:0:0:
256,192,35322,5,8,0:0:0:0:
256,192,35427,5,0,0:0:0:0:
256,192,35533,5,8,0:0:0:0:
256,192,35639,5,0,0:0:0:0:
256,192,35744,5,8,0:0:0:0:
256,192,35850,5,0,0:0:0:0:
256,192,35956,5,8,0:0:0:0:
256,192,36061,5,8,0:0:0:0:
256,192,36167,5,8,0:0:0:0:
256,192,36272,5,0,0:0:0:0:
256,192,36378,5,8,0:0:0:0:
256,192,36484,5,0,0:0:0:0:
256,192,36589,5,8,0:0:0:0:
256,192,36695,5,0,0:0:0:0:
256,192,36801,5,8,0:0:0:0:
256,192,36908,5,8,0:0:0:0:
256,192,37016,5,0,0:0:0:0:
256,192,37124,5,0,0:0:0:0:
256,192,37232,5,8,0:0:0:0:
256,192,37340,5,8,0:0:0:0:
256,192,37448,5,8,0:0:0:0:
256,192,37556,5,8,0:0:0:0:
256,192,37664,5,0,0:0:0:0:
256,192,37771,5,0,0:0:0:0:
256,192,37878,5,8,0:0:0:0:
256,192,37985,5,0,0:0:0:0:
256,192,38092,5,8,0:0:0:0:
256,192,38199,5,0,0:0:0:0:
256,192,38306,5,8,0:0:0:0:
256,192,38414,5,8,0:0:0:0:
256,192,38539,5,4,0:0:0:0:
256,192,38751,5,0,0:0:0:0:
256,192,38857,5,0,0:0:0:0:
256,192,38963,5,12,0:0:0:0:
256,192,39175,5,8,0:0:0:0:
256,192,39281,5,8,0:0:0:0:
256,192,39387,5,0,0:0:0:0:
256,192,39493,5,8,0:0:0:0:
256,192,39599,5,8,0:0:0:0:
256,192,39705,5,8,0:0:0:0:
256,192,39811,5,0,0:0:0:0:
256,192,39917,5,0,0:0:0:0:
256,192,40023,5,0,0:0:0:0:
256,192,40129,5,8,0:0:0:0:
256,192,40253,5,0,0:0:0:0:
256,192,40360,5,8,0:0:0:0:
256,192,40467,5,8,0:0:0:0:
256,192,40574,5,0,0:0:0:0:
256,192,40681,5,8,0:0:0:0:
256,192,40735,5,8,0:0:0:0:
256,192,40788,5,8,0:0:0:0:
256,192,40842,5,8,0:0:0:0:
256,192,40895,5,0,0:0:0:0:
256,192,40949,5,0,0:0:0:0:
256,192,41003,5,0,0:0:0:0:
256,192,41056,5,0,0:0:0:0:
256,192,41110,5,8,0:0:0:0:
256,192,41163,5,0,0:0:0:0:
256,192,41217,5,8,0:0:0:0:
256,192,41270,5,8,0:0:0:0:
256,192,41324,5,0,0:0:0:0:
256,192,41538,5,8,0:0:0:0:
256,192,41592,5,8,0:0:0:0:
256,192,41645,5,0,0:0:0:0:
256,192,41699,5,0,0:0:0:0:
256,192,41753,5,8,0:0:0:0:
256,192,41967,5,4,0:0:0:0:
256,192,42190,5,0,0:0:0:0:
256,192,42302,5,8,0:0:0:0:
256,192,42414,5,0,0:0:0:0:
256,192,42526,5,0,0:0:0:0:
256,192,42638,5,8,0:0:0:0:
256,192,42750,5,8,0:0:0:0:
256,192,42862,5,0,0:0:0:0:
256,192,42967,5,8,0:0:0:0:
256,192,43072,5,0,0:0:0:0:
256,192,43177,5,8,0:0:0:0:
256,192,43283,5,0,0:0:0:0:
256,192,43388,5,8,0:0:0:0:
256,192,43493,5,8,0:0:0:0:
256,192,43598,5,8,0:0:0:0:
256,192,43689,5,0,0:0:0:0:
256,192,43796,5,0,0:0:0:0:
256,192,43903,5,8,0:0:0:0:
256,192,44010,5,8,0:0:0:0:
256,192,44117,5,0,0:0:0:0:
256,192,44224,5,0,0:0:0:0:
256,192,44331,5,8,0:0:0:0:
256,192,44439,5,8,0:0:0:0:
256,192,44546,5,4,0:0:0:0:
256,192,44760,5,12,0:0:0:0:
256,192,44974,5,4,0:0:0:0:
256,192,45189,5,12,0:0:0:0:
256,192,45403,5,4,0:0:0:0:
256,192,45615,5,0,0:0:0:0:
256,192,45721,5,0,0:0:0:0:
256,192,45827,5,8,0:0:0:0:
256,192,45933,5,0,0:0:0:0:
256,192,46039,5,8,0:0:0:0:
256,192,46145,5,8,0:0:0:0:
256,192,46251,5,0,0:0:0:0:
256,192,46357,5,8,0:0:0:0:
256,192,46463,5,0,0:0:0:0:
256,192,46569,5,0,0:0:0:0:
256,192,46675,5,8,0:0:0:0:
256,192,46781,5,8,0:0:0:0:
256,192,46887,5,0,0:0:0:0:
256,192,46993,5,8,0:0:0:0:
256,192,47099,5,0,0:0:0:0:
256,192,47205,5,0,0:0:0:0:
256,192,47311,5,8,0:0:0:0:
256,192,47417,5,8,0:0:0:0:
256,192,47523,5,0,0:0:0:0:
256,192,47629,5,8,0:0:0:0:
256,192,47735,5,8,0:0:0:0:
256,192,47841,5,0,0:0:0:0:
256,192,47947,5,8,0:0:0:0:
256,192,48054,5,0,0:0:0:0:
256,192,48161,5,8,0:0:0:0:
256,192,48268,5,0,0:0:0:0:
256,192,48375,5,8,0:0:0:0:
256,192,48482,5,8,0:0:0:0:
256,192,48589,5,0,0:0:0:0:
256,192,48697,5,8,0:0:0:0:
256,192,48804,5,0,0:0:0:0:
256,192,48911,5,0,0:0:0:0:
256,192,49018,5,8,0:0:0:0:
256,192,49125,5,8,0:0:0:0:
256,192,49232,5,0,0:0:0:0:
256,192,49339,5,8,0:0:0:0:
256,192,49447,5,8,0:0:0:0:
256,192,49554,5,0,0:0:0:0:
256,192,49661,5,0,0:0:0:0:
256,192,49768,5,8,0:0:0:0:
256,192,49875,5,0,0:0:0:0:
256,192,49982,5,8,0:0:0:0:
256,192,50089,5,0,0:0:0:0:
256,192,50197,5,0,0:0:0:0:
256,192,50304,5,8,0:0:0:0:
256,192,50411,5,8,0:0:0:0:
256,192,50518,5,0,0:0:0:0:
256,192,50625,5,0,0:0:0:0:
256,192,50732,5,8,0:0:0:0:
256,192,50839,5,8,0:0:0:0:
256,192,50946,5,0,0:0:0:0:
256,192,51054,5,8,0:0:0:0:
256,192,51161,5,0,0:0:0:0:
256,192,51268,5,8,0:0:0:0:
256,192,51375,5,4,0:0:0:0:
256,192,51589,5,12,0:0:0:0:
256,192,51804,5,4,0:0:0:0:
256,192,52018,5,12,0:0:0:0:
256,192,52232,5,4,0:0:0:0:
256,192,52446,5,8,0:0:0:0:
256,192,52554,5,8,0:0:0:0:
256,192,52661,5,0,0:0:0:0:
256,192,52768,5,0,0:0:0:0:
256,192,52875,5,8,0:0:0:0:
256,192,52982,5,8,0:0:0:0:
256,192,53089,5,0,0:0:0:0:
256,192,53196,5,8,0:0:0:0:
256,192,53304,5,0,0:0:0:0:
256,192,53411,5,0,0:0:0:0:
256,192,53518,5,8,0:0:0:0:
256,192,53625,5,0,0:0:0:0:
256,192,53732,5,8,0:0:0:0:
256,192,53839,5,0,0:0:0:0:
256,192,53946,5,8,0:0:0:0:
256,192,54054,5,8,0:0:0:0:
256,192,54162,5,0,0:0:0:0:
256,192,54379,5,8,0:0:0:0:
256,192,54487,5,0,0:0:0:0:
256,192,54595,5,0,0:0:0:0:
256,192,54812,5,8,0:0:0:0:
256,192,54884,5,8,0:0:0:0:
256,192,54956,5,8,0:0:0:0:
256,192,55029,5,0,0:0:0:0:
256,192,55101,5,0,0:0:0:0:
256,192,55173,5,0,0:0:0:0:
256,192,55245,5,8,0:0:0:0:
256,192,55691,5,0,0:0:0:0:
256,192,55762,5,0,0:0:0:0:
256,192,55833,5,0,0:0:0:0:
256,192,55904,5,8,0:0:0:0:
256,192,55976,5,0,0:0:0:0:
256,192,56047,5,0,0:0:0:0:
256,192,56118,5,8,0:0:0:0:
256,192,56190,5,0,0:0:0:0:
256,192,56261,5,0,0:0:0:0:
256,192,56332,5,8,0:0:0:0:
256,192,56404,5,8,0:0:0:0:
256,192,56475,5,0,0:0:0:0:
256,192,56546,5,8,0:0:0:0:
256,192,56617,5,8,0:0:0:0:
256,192,56689,5,0,0:0:0:0:
256,192,56760,5,0,0:0:0:0:
256,192,56831,5,0,0:0:0:0:
256,192,56903,5,0,0:0:0:0:
256,192,56974,5,8,0:0:0:0:
256,192,57045,5,0,0:0:0:0:
256,192,57117,5,0,0:0:0:0:
256,192,57188,5,8,0:0:0:0:
256,192,57259,5,0,0:0:0:0:
256,192,57330,5,0,0:0:0:0:
256,192,57402,5,8,0:0:0:0:
256,192,57473,5,8,0:0:0:0:
256,192,57544,5,0,0:0:0:0:
256,192,57616,5,8,0:0:0:0:
256,192,57687,5,0,0:0:0:0:
256,192,57758,5,0,0:0:0:0:
256,192,57830,5,8,0:0:0:0:
256,192,57901,5,8,0:0:0:0:
256,192,57972,5,8,0:0:0:0:
256,192,58043,5,0,0:0:0:0:
256,192,58115,5,0,0:0:0:0:
256,192,58186,5,0,0:0:0:0:
256,192,58257,5,8,0:0:0:0:
256,192,58328,5,8,0:0:0:0:
256,192,58399,5,0,0:0:0:0:
256,192,58471,5,0,0:0:0:0:
256,192,58542,5,0,0:0:0:0:
256,192,58614,5,0,0:0:0:0:
256,192,58685,5,8,0:0:0:0:
256,192,58757,5,0,0:0:0:0:
256,192,58828,5,0,0:0:0:0:
256,192,58899,5,8,0:0:0:0:
256,192,58971,5,0,0:0:0:0:
256,192,59042,5,0,0:0:0:0:
256,192,59114,5,8,0:0:0:0:
256,192,59185,5,8,0:0:0:0:
256,192,59257,5,0,0:0:0:0:
256,192,59328,5,0,0:0:0:0:
256,192,59399,5,0,0:0:0:0:
256,192,59471,5,0,0:0:0:0:
256,192,59542,5,8,0:0:0:0:
256,192,59614,5,0,0:0:0:0:
256,192,59685,5,0,0:0:0:0:
256,192,59757,5,0,0:0:0:0:
256,192,59828,5,0,0:0:0:0:
256,192,59899,5,0,0:0:0:0:
256,192,59971,5,8,0:0:0:0:
256,192,60042,5,8,0:0:0:0:
256,192,60114,5,0,0:0:0:0:
256,192,60185,5,8,0:0:0:0:
256,192,60257,5,0,0:0:0:0:
256,192,60328,5,0,0:0:0:0:
256,192,60399,5,8,0:0:0:0:
256,192,60471,5,8,0:0:0:0:
256,192,60542,5,0,0:0:0:0:
256,192,60614,5,0,0:0:0:0:
256,192,60685,5,0,0:0:0:0:
256,192,60757,5,0,0:0:0:0:
256,192,60828,5,8,0:0:0:0:
256,192,60899,5,0,0:0:0:0:
256,192,60971,5,0,0:0:0:0:
256,192,61042,5,8,0:0:0:0:
256,192,61114,5,0,0:0:0:0:
256,192,61185,5,0,0:0:0:0:
256,192,61256,5,8,0:0:0:0:
256,192,61328,5,8,0:0:0:0:
256,192,61399,5,8,0:0:0:0:
256,192,61471,5,0,0:0:0:0:
256,192,61542,5,0,0:0:0:0:
256,192,61614,5,0,0:0:0:0:
256,192,61685,5,8,0:0:0:0:
256,192,61899,5,0,0:0:0:0:
256,192,62114,5,8,0:0:0:0:
256,192,62185,5,8,0:0:0:0:
256,192,62256,5,8,0:0:0:0:
256,192,62328,5,8,0:0:0:0:
256,192,62399,5,8,0:0:0:0:
256,192,62471,5,8,0:0:0:0:
256,192,62542,5,0,0:0:0:0:
256,192,62756,5,8,0:0:0:0:
256,192,62828,5,0,0:0:0:0:
256,192,62899,5,0,0:0:0:0:
256,192,62971,5,8,0:0:0:0:
256,192,63042,5,8,0:0:0:0:
256,192,63114,5,0,0:0:0:0:
256,192,63185,5,8,0:0:0:0:
256,192,63256,5,0,0:0:0:0:
256,192,63328,5,0,0:0:0:0:
256,192,63399,5,8,0:0:0:0:
256,192,63614,5,0,0:0:0:0:
256,192,63828,5,8,0:0:0:0:
256,192,63881,5,8,0:0:0:0:
256,192,63935,5,8,0:0:0:0:
256,192,63989,5,8,0:0:0:0:
256,192,64042,5,0,0:0:0:0:
256,192,64096,5,0,0:0:0:0:
256,192,64149,5,0,0:0:0:0:
256,192,64203,5,0,0:0:0:0:
256,192,64256,5,8,0:0:0:0:
256,192,64471,5,0,0:0:0:0:
256,192,64542,5,8,0:0:0:0:
256,192,64614,5,8,0:0:0:0:
256,192,64685,5,8,0:0:0:0:
256,192,64756,5,0,0:0:0:0:
256,192,64828,5,0,0:0:0:0:
256,192,64899,5,8,0:0:0:0:
256,192,64971,5,0,0:0:0:0:
256,192,65042,5,0,0:0:0:0:
256,192,65114,5,8,0:0:0:0:
256,192,65328,5,0,0:0:0:0:
256,192,65542,5,8,0:0:0:0:
256,192,65685,5,8,0:0:0:0:
256,192,65828,5,8,0:0:0:0:
256,192,65971,5,0,0:0:0:0:
256,192,66185,5,8,0:0:0:0:
256,192,66292,5,0,0:0:0:0:
256,192,66399,5,8,0:0:0:0:
256,192,66506,5,8,0:0:0:0:
256,192,66614,5,0,0:0:0:0:
256,192,66721,5,0,0:0:0:0:
256,192,66828,5,8,0:0:0:0:
256,192,66935,5,0,0:0:0:0:
256,192,67042,5,0,0:0:0:0:
256,192,67149,5,0,0:0:0:0:
256,192,67256,5,8,0:0:0:0:
256,192,67364,5,8,0:0:0:0:
256,192,67471,5,0,0:0:0:0:
256,192,67685,5,0,0:0:0:0:
256,192,67894,5,8,0:0:0:0:
256,192,67999,5,0,0:0:0:0:
256,192,68104,5,0,0:0:0:0:
256,192,68209,5,0,0:0:0:0:
256,192,68314,5,8,0:0:0:0:
256,192,68419,5,0,0:0:0:0:
256,192,68524,5,8,0:0:0:0:
256,192,68629,5,8,0:0:0:0:
256,192,68733,5,8,0:0:0:0:
256,192,68838,5,0,0:0:0:0:
256,192,68943,5,8,0:0:0:0:
256,192,69048,5,8,0:0:0:0:
256,192,69153,5,8,0:0:0:0:
256,192,69258,5,0,0:0:0:0:
256,192,69383,5,12,0:0:0:0:
256,192,69489,5,12,0:0:0:0:
256,192,69595,5,12,0:0:0:0:
256,192,70468,5,12,0:0:0:0:
256,192,70575,5,12,0:0:0:0:
256,192,70681,5,12,0:0:0:0:
256,192,70787,5,12,0:0:0:0:
256,192,70894,5,12,0:0:0:0:
256,192,71000,5,12,0:0:0:0:
256,192,71107,5,12,0:0:0:0:
256,192,71213,5,12,0:0:0:0:
256,192,71319,5,12,0:0:0:0:
256,192,72835,5,12,0:0:0:0:
256,192,72942,5,0,0:0:0:0:
256,192,73049,5,8,0:0:0:0:
256,192,73156,5,8,0:0:0:0:
256,192,73263,5,0,0:0:0:0:
256,192,73317,5,0,0:0:0:0:
256,192,73370,5,0,0:0:0:0:
256,192,73477,5,8,0:0:0:0:
256,192,73585,5,8,0:0:0:0:
256,192,73692,5,0,0:0:0:0:
256,192,73799,5,0,0:0:0:0:
256,192,73906,5,8,0:0:0:0:
256,192,74013,5,0,0:0:0:0:
256,192,74120,5,8,0:0:0:0:
256,192,74227,5,0,0:0:0:0:
256,192,74335,5,0,0:0:0:0:
256,192,74442,5,0,0:0:0:0:
256,192,74549,5,8,0:0:0:0:
256,192,74656,5,0,0:0:0:0:
256,192,74710,5,0,0:0:0:0:
256,192,74763,5,0,0:0:0:0:
256,192,74870,5,8,0:0:0:0:
256,192,74977,5,0,0:0:0:0:
256,192,75031,5,0,0:0:0:0:
256,192,75085,5,0,0:0:0:0:
256,192,75138,5,0,0:0:0:0:
256,192,75192,5,8,0:0:0:0:
256,192,75299,5,8,0:0:0:0:
256,192,75406,5,0,0:0:0:0:
256,192,75513,5,0,0:0:0:0:
256,192,75620,5,8,0:0:0:0:
256,192,75727,5,0,0:0:0:0:
256,192,75835,5,0,0:0:0:0:
256,192,75942,5,0,0:0:0:0:
256,192,76049,5,8,0:0:0:0:
256,192,76156,5,0,0:0:0:0:
256,192,76263,5,8,0:0:0:0:
256,192,76317,5,8,0:0:0:0:
256,192,76370,5,0,0:0:0:0:
256,192,76477,5,8,0:0:0:0:
256,192,76585,5,0,0:0:0:0:
256,192,76692,5,8,0:0:0:0:
256,192,76799,5,0,0:0:0:0:
256,192,76852,5,0,0:0:0:0:
256,192,76906,5,8,0:0:0:0:
256,192,76960,5,0,0:0:0:0:
256,192,77013,5,8,0:0:0:0:
256,192,77120,5,0,0:0:0:0:
256,192,77227,5,0,0:0:0:0:
256,192,77335,5,8,0:0:0:0:
256,192,77442,5,0,0:0:0:0:
256,192,77495,5,0,0:0:0:0:
256,192,77549,5,8,0:0:0:0:
256,192,77656,5,0,0:0:0:0:
256,192,77763,5,8,0:0:0:0:
256,192,77870,5,0,0:0:0:0:
256,192,77977,5,8,0:0:0:0:
256,192,78031,5,8,0:0:0:0:
256,192,78085,5,8,0:0:0:0:
256,192,78138,5,8,0:0:0:0:
256,192,78192,5,0,0:0:0:0:
256,192,78299,5,0,0:0:0:0:
256,192,78406,5,8,0:0:0:0:
256,192,78513,5,0,0:0:0:0:
256,192,78620,5,8,0:0:0:0:
256,192,78727,5,0,0:0:0:0:
256,192,78834,5,8,0:0:0:0:
256,192,78888,5,8,0:0:0:0:
256,192,78942,5,0,0:0:0:0:
256,192,78995,5,0,0:0:0:0:
256,192,79049,5,8,0:0:0:0:
256,192,79156,5,0,0:0:0:0:
256,192,79263,5,8,0:0:0:0:
256,192,79370,5,0,0:0:0:0:
256,192,79477,5,8,0:0:0:0:
256,192,79531,5,0,0:0:0:0:
256,192,79584,5,0,0:0:0:0:
256,192,79692,5,8,0:0:0:0:
256,192,79906,5,8,0:0:0:0:
256,192,80013,5,8,0:0:0:0:
256,192,80120,5,0,0:0:0:0:
256,192,80227,5,0,0:0:0:0:
256,192,80334,5,8,0:0:0:0:
256,192,80442,5,0,0:0:0:0:
256,192,80495,5,0,0:0:0:0:
256,192,80549,5,0,0:0:0:0:
256,192,80656,5,0,0:0:0:0:
256,192,80763,5,8,0:0:0:0:
256,192,80870,5,0,0:0:0:0:
256,192,80977,5,8,0:0:0:0:
256,192,81084,5,0,0:0:0:0:
256,192,81192,5,8,0:0:0:0:
256,192,81299,5,8,0:0:0:0:
256,192,81406,5,8,0:0:0:0:
256,192,81513,5,0,0:0:0:0:
256,192,81567,5,0,0:0:0:0:
256,192,81620,5,0,0:0:0:0:
256,192,81727,5,0,0:0:0:0:
256,192,81834,5,8,0:0:0:0:
256,192,81942,5,8,0:0:0:0:
256,192,82049,5,0,0:0:0:0:
256,192,82156,5,0,0:0:0:0:
256,192,82263,5,8,0:0:0:0:
256,192,82370,5,0,0:0:0:0:
256,192,82477,5,0,0:0:0:0:
256,192,82584,5,0,0:0:0:0:
256,192,82638,5,0,0:0:0:0:
256,192,82692,5,8,0:0:0:0:
256,192,82799,5,8,0:0:0:0:
256,192,82906,5,0,0:0:0:0:
256,192,83013,5,0,0:0:0:0:
256,192,83120,5,8,0:0:0:0:
256,192,83227,5,0,0:0:0:0:
256,192,83281,5,0,0:0:0:0:
256,192,83334,5,8,0:0:0:0:
256,192,83388,5,0,0:0:0:0:
256,192,83442,5,8,0:0:0:0:
256,192,83549,5,0,0:0:0:0:
256,192,83656,5,0,0:0:0:0:
256,192,83763,5,8,0:0:0:0:
256,192,83870,5,0,0:0:0:0:
256,192,83977,5,0,0:0:0:0:
256,192,84084,5,0,0:0:0:0:
256,192,84192,5,8,0:0:0:0:
256,192,84245,5,8,0:0:0:0:
256,192,84299,5,0,0:0:0:0:
256,192,84406,5,0,0:0:0:0:
256,192,84513,5,0,0:0:0:0:
256,192,84620,5,8,0:0:0:0:
256,192,84727,5,0,0:0:0:0:
256,192,84834,5,8,0:0:0:0:
256,192,84888,5,8,0:0:0:0:
256,192,84942,5,8,0:0:0:0:
256,192,85049,5,0,0:0:0:0:
256,192,85156,5,0,0:0:0:0:
256,192,85209,5,0,0:0:0:0:
256,192,85263,5,8,0:0:0:0:
256,192,85370,5,0,0:0:0:0:
256,192,85477,5,8,0:0:0:0:
256,192,85584,5,0,0:0:0:0:
256,192,85638,5,0,0:0:0:0:
256,192,85692,5,8,0:0:0:0:
256,192,85799,5,0,0:0:0:0:
256,192,85906,5,8,0:0:0:0:
256,192,86120,5,8,0:0:0:0:
256,192,86227,5,8,0:0:0:0:
256,192,86334,5,8,0:0:0:0:
256,192,86442,5,8,0:0:0:0:
256,192,86549,5,4,0:0:0:0:
256,192,86656,1,0,0:0:0:0:
256,192,86748,5,8,0:0:0:0:
256,192,86854,5,8,0:0:0:0:
256,192,86961,5,0,0:0:0:0:
256,192,87175,5,8,0:0:0:0:
256,192,87282,5,0,0:0:0:0:
256,192,87496,5,0,0:0:0:0:
256,192,87603,5,8,0:0:0:0:
256,192,87710,1,0,0:0:0:0:
256,192,87817,5,0,0:0:0:0:
256,192,87924,5,0,0:0:0:0:
256,192,88031,5,8,0:0:0:0:
256,192,88138,1,8,0:0:0:0:
256,192,88245,5,0,0:0:0:0:
256,192,88459,5,8,0:0:0:0:
256,192,88566,5,0,0:0:0:0:
256,192,88780,5,0,0:0:0:0:
256,192,88887,5,8,0:0:0:0:
256,192,89101,5,0,0:0:0:0:
256,192,89208,5,0,0:0:0:0:
256,192,89315,5,8,0:0:0:0:
256,192,89422,5,0,0:0:0:0:
256,192,89529,5,0,0:0:0:0:
256,192,89635,5,0,0:0:0:0:
256,192,89742,5,8,0:0:0:0:
256,192,89849,5,8,0:0:0:0:
256,192,89956,5,0,0:0:0:0:
256,192,90170,5,8,0:0:0:0:
256,192,90277,5,0,0:0:0:0:
256,192,90491,5,0,0:0:0:0:
256,192,90598,5,8,0:0:0:0:
256,192,90705,5,0,0:0:0:0:
256,192,90812,5,0,0:0:0:0:
256,192,91026,5,8,0:0:0:0:
256,192,91133,5,0,0:0:0:0:
256,192,91240,1,0,0:0:0:0:
256,192,91347,5,0,0:0:0:0:
256,192,91454,5,8,0:0:0:0:
256,192,91561,5,8,0:0:0:0:
256,192,91668,5,0,0:0:0:0:
256,192,91881,5,8,0:0:0:0:
256,192,92095,5,0,0:0:0:0:
256,192,92202,5,0,0:0:0:0:
256,192,92309,5,8,0:0:0:0:
256,192,92523,5,0,0:0:0:0:
256,192,92630,5,0,0:0:0:0:
256,192,92737,5,8,0:0:0:0:
256,192,92844,5,0,0:0:0:0:
256,192,92951,5,8,0:0:0:0:
256,192,93058,5,8,0:0:0:0:
256,192,93165,5,0,0:0:0:0:
256,192,93379,5,0,0:0:0:0:
256,192,93593,5,8,0:0:0:0:
256,192,93700,5,0,0:0:0:0:
256,192,93807,5,0,0:0:0:0:
256,192,93914,5,8,0:0:0:0:
256,192,94021,5,0,0:0:0:0:
256,192,94127,5,0,0:0:0:0:
256,192,94234,5,8,0:0:0:0:
256,192,94341,5,0,0:0:0:0:
256,192,94448,5,8,0:0:0:0:
256,192,94555,5,0,0:0:0:0:
256,192,94662,5,8,0:0:0:0:
256,192,94769,5,0,0:0:0:0:
256,192,94876,5,8,0:0:0:0:
256,192,94983,5,0,0:0:0:0:
256,192,95090,5,8,0:0:0:0:
256,192,95195,5,8,0:0:0:0:
256,192,95300,5,8,0:0:0:0:
256,192,95405,5,0,0:0:0:0:
256,192,95511,5,8,0:0:0:0:
256,192,95616,5,8,0:0:0:0:
256,192,95721,5,8,0:0:0:0:
256,192,95826,5,0,0:0:0:0:
256,192,95932,5,8,0:0:0:0:
256,192,96037,5,0,0:0:0:0:
256,192,96142,5,0,0:0:0:0:
256,192,96204,5,0,0:0:0:0:
256,192,96266,5,0,0:0:0:0:
256,192,96390,5,8,0:0:0:0:
256,192,96820,5,4,0:0:0:0:
256,192,98552,5,4,0:0:0:0:
256,192,100273,5,4,0:0:0:0:
256,192,100483,5,8,0:0:0:0:
256,192,100589,5,8,0:0:0:0:
256,192,100694,5,0,0:0:0:0:
256,192,100800,5,0,0:0:0:0:
256,192,100905,5,8,0:0:0:0:
256,192,101011,5,0,0:0:0:0:
256,192,101116,5,8,0:0:0:0:
256,192,101222,5,0,0:0:0:0:
256,192,101327,5,8,0:0:0:0:
256,192,101432,5,0,0:0:0:0:
256,192,101538,5,8,0:0:0:0:
256,192,101643,5,0,0:0:0:0:
256,192,101749,5,8,0:0:0:0:
256,192,101854,5,8,0:0:0:0:
256,192,101960,5,0,0:0:0:0:
256,192,102065,5,0,0:0:0:0:
256,192,102171,5,8,0:0:0:0:
256,192,102276,5,0,0:0:0:0:
256,192,102381,5,8,0:0:0:0:
256,192,102487,5,8,0:0:0:0:
256,192,102592,5,0,0:0:0:0:
256,192,102698,5,8,0:0:0:0:
256,192,102803,5,0,0:0:0:0:
256,192,102910,5,8,0:0:0:0:
256,192,103017,5,8,0:0:0:0:
256,192,103124,5,8,0:0:0:0:
256,192,103231,5,0,0:0:0:0:
256,192,103338,5,0,0:0:0:0:
256,192,103445,5,8,0:0:0:0:
256,192,103553,5,8,0:0:0:0:
256,192,103660,5,0,0:0:0:0:
256,192,103874,5,8,0:0:0:0:
256,192,103981,5,0,0:0:0:0:
256,192,104088,5,8,0:0:0:0:
256,192,104195,5,8,0:0:0:0:
256,192,104303,5,0,0:0:0:0:
256,192,104410,5,0,0:0:0:0:
256,192,104517,5,8,0:0:0:0:
256,192,104624,5,8,0:0:0:0:
256,192,104731,5,8,0:0:0:0:
256,192,104838,5,0,0:0:0:0:
256,192,104945,5,8,0:0:0:0:
256,192,105053,5,8,0:0:0:0:
256,192,105160,5,8,0:0:0:0:
256,192,105267,5,0,0:0:0:0:
256,192,105374,5,8,0:0:0:0:
256,192,105481,5,0,0:0:0:0:
256,192,105588,5,8,0:0:0:0:
256,192,105695,5,8,0:0:0:0:
256,192,105803,5,0,0:0:0:0:
256,192,105910,5,8,0:0:0:0:
256,192,106017,5,8,0:0:0:0:
256,192,106124,5,0,0:0:0:0:
256,192,106231,5,8,0:0:0:0:
256,192,106338,5,8,0:0:0:0:
256,192,106445,5,0,0:0:0:0:
256,192,106553,5,0,0:0:0:0:
256,192,106660,5,8,0:0:0:0:
256,192,106767,5,0,0:0:0:0:
256,192,106874,5,12,0:0:0:0:
256,192,107088,5,4,0:0:0:0:
256,192,107303,5,8,0:0:0:0:
256,192,107410,5,8,0:0:0:0:
256,192,107517,5,8,0:0:0:0:
256,192,107624,5,0,0:0:0:0:
256,192,107731,5,0,0:0:0:0:
256,192,107838,5,0,0:0:0:0:
256,192,107945,5,8,0:0:0:0:
256,192,108053,5,0,0:0:0:0:
256,192,108160,5,8,0:0:0:0:
256,192,108267,5,8,0:0:0:0:
256,192,108374,5,0,0:0:0:0:
256,192,108481,5,0,0:0:0:0:
256,192,108588,5,8,0:0:0:0:
256,192,108695,5,8,0:0:0:0:
256,192,108802,5,0,0:0:0:0:
256,192,109017,5,8,0:0:0:0:
256,192,109088,5,0,0:0:0:0:
256,192,109160,5,0,0:0:0:0:
256,192,109231,5,8,0:0:0:0:
256,192,109445,5,0,0:0:0:0:
256,192,109517,5,0,0:0:0:0:
256,192,109588,5,0,0:0:0:0:
256,192,109660,5,8,0:0:0:0:
256,192,109731,5,0,0:0:0:0:
256,192,109802,5,8,0:0:0:0:
256,192,109874,5,8,0:0:0:0:
256,192,109945,5,0,0:0:0:0:
256,192,110017,5,0,0:0:0:0:
256,192,110088,5,8,0:0:0:0:
256,192,110538,5,4,0:0:0:0:
256,192,110752,5,0,0:0:0:0:
256,192,110859,5,8,0:0:0:0:
256,192,110966,5,0,0:0:0:0:
256,192,111073,5,0,0:0:0:0:
256,192,111180,5,8,0:0:0:0:
256,192,111288,5,8,0:0:0:0:
256,192,111395,5,0,0:0:0:0:
256,192,111502,5,8,0:0:0:0:
256,192,111609,5,0,0:0:0:0:
256,192,111716,5,8,0:0:0:0:
256,192,111823,5,0,0:0:0:0:
256,192,111930,5,8,0:0:0:0:
256,192,112038,5,8,0:0:0:0:
256,192,112145,5,8,0:0:0:0:
256,192,112252,5,0,0:0:0:0:
256,192,112359,5,0,0:0:0:0:
256,192,112466,5,8,0:0:0:0:
256,192,112573,5,8,0:0:0:0:
256,192,112680,5,0,0:0:0:0:
256,192,112788,5,0,0:0:0:0:
256,192,112895,5,8,0:0:0:0:
256,192,113002,5,8,0:0:0:0:
256,192,113109,5,4,0:0:0:0:
256,192,113323,5,12,0:0:0:0:
256,192,113538,5,4,0:0:0:0:
256,192,113752,5,12,0:0:0:0:
256,192,113966,5,4,0:0:0:0:
256,192,114180,5,0,0:0:0:0:
256,192,114288,5,0,0:0:0:0:
256,192,114395,5,8,0:0:0:0:
256,192,114502,5,0,0:0:0:0:
256,192,114609,5,8,0:0:0:0:
256,192,114716,5,8,0:0:0:0:
256,192,114823,5,0,0:0:0:0:
256,192,114930,5,8,0:0:0:0:
256,192,115038,5,0,0:0:0:0:
256,192,115145,5,0,0:0:0:0:
256,192,115252,5,8,0:0:0:0:
256,192,115359,5,8,0:0:0:0:
256,192,115466,5,0,0:0:0:0:
256,192,115573,5,8,0:0:0:0:
256,192,115680,5,0,0:0:0:0:
256,192,115788,5,0,0:0:0:0:
256,192,115895,5,8,0:0:0:0:
256,192,116002,5,8,0:0:0:0:
256,192,116109,5,0,0:0:0:0:
256,192,116216,5,8,0:0:0:0:
256,192,116323,5,8,0:0:0:0:
256,192,116430,5,0,0:0:0:0:
256,192,116537,5,8,0:0:0:0:
256,192,116643,5,0,0:0:0:0:
256,192,116749,5,8,0:0:0:0:
256,192,116856,5,0,0:0:0:0:
256,192,116962,5,8,0:0:0:0:
256,192,117068,5,8,0:0:0:0:
256,192,117175,5,0,0:0:0:0:
256,192,117281,5,8,0:0:0:0:
256,192,117388,5,0,0:0:0:0:
256,192,117494,5,0,0:0:0:0:
256,192,117600,5,8,0:0:0:0:
256,192,117707,5,8,0:0:0:0:
256,192,117813,5,0,0:0:0:0:
256,192,117919,5,8,0:0:0:0:
256,192,118026,5,8,0:0:0:0:
256,192,118132,5,0,0:0:0:0:
256,192,118239,5,0,0:0:0:0:
256,192,118345,5,8,0:0:0:0:
256,192,118451,5,0,0:0:0:0:
256,192,118558,5,8,0:0:0:0:
256,192,118664,5,0,0:0:0:0:
256,192,118771,5,0,0:0:0:0:
256,192,118877,5,8,0:0:0:0:
256,192,118983,5,8,0:0:0:0:
256,192,119090,5,0,0:0:0:0:
256,192,119196,5,0,0:0:0:0:
256,192,119302,5,8,0:0:0:0:
256,192,119409,5,8,0:0:0:0:
256,192,119515,5,0,0:0:0:0:
256,192,119622,5,8,0:0:0:0:
256,192,119728,5,0,0:0:0:0:
256,192,119834,5,8,0:0:0:0:
256,192,119956,5,4,0:0:0:0:
256,192,120170,5,12,0:0:0:0:
256,192,120384,5,4,0:0:0:0:
256,192,120598,5,12,0:0:0:0:
256,192,120813,5,4,0:0:0:0:
256,192,121027,5,8,0:0:0:0:
256,192,121134,5,8,0:0:0:0:
256,192,121241,5,0,0:0:0:0:
256,192,121348,5,0,0:0:0:0:
256,192,121456,5,8,0:0:0:0:
256,192,121563,5,8,0:0:0:0:
256,192,121670,5,0,0:0:0:0:
256,192,121777,5,8,0:0:0:0:
256,192,121884,5,0,0:0:0:0:
256,192,121991,5,0,0:0:0:0:
256,192,122098,5,8,0:0:0:0:
256,192,122206,5,0,0:0:0:0:
256,192,122313,5,8,0:0:0:0:
256,192,122420,5,8,0:0:0:0:
256,192,122527,5,0,0:0:0:0:
256,192,122741,5,8,0:0:0:0:
256,192,122956,5,8,0:0:0:0:
256,192,123027,5,0,0:0:0:0:
256,192,123098,5,0,0:0:0:0:
256,192,123170,5,8,0:0:0:0:
256,192,123241,5,0,0:0:0:0:
256,192,123313,5,0,0:0:0:0:
256,192,123384,5,8,0:0:0:0:
256,192,123456,5,8,0:0:0:0:
256,192,123527,5,8,0:0:0:0:
256,192,123598,5,0,0:0:0:0:
256,192,123670,5,0,0:0:0:0:
256,192,123741,5,0,0:0:0:0:
256,192,123813,5,8,0:0:0:0:
256,192,124241,5,0,0:0:0:0:
256,192,124313,5,0,0:0:0:0:
256,192,124384,5,0,0:0:0:0:
256,192,124456,5,8,0:0:0:0:
256,192,124527,5,0,0:0:0:0:
256,192,124598,5,0,0:0:0:0:
256,192,124670,5,8,0:0:0:0:
256,192,124741,5,0,0:0:0:0:
256,192,124813,5,0,0:0:0:0:
256,192,124884,5,8,0:0:0:0:
256,192,124956,5,8,0:0:0:0:
256,192,125027,5,0,0:0:0:0:
256,192,125098,5,8,0:0:0:0:
256,192,125170,5,8,0:0:0:0:
256,192,125241,5,0,0:0:0:0:
256,192,125313,5,0,0:0:0:0:
256,192,125384,5,0,0:0:0:0:
256,192,125456,5,0,0:0:0:0:
256,192,125527,5,8,0:0:0:0:
256,192,125598,5,0,0:0:0:0:
256,192,125670,5,0,0:0:0:0:
256,192,125741,5,8,0:0:0:0:
256,192,125813,5,0,0:0:0:0:
256,192,125884,5,0,0:0:0:0:
256,192,125955,5,8,0:0:0:0:
256,192,126027,5,8,0:0:0:0:
256,192,126098,5,0,0:0:0:0:
256,192,126170,5,8,0:0:0:0:
256,192,126241,5,0,0:0:0:0:
256,192,126313,5,0,0:0:0:0:
256,192,126384,5,8,0:0:0:0:
256,192,126455,5,8,0:0:0:0:
256,192,126527,5,8,0:0:0:0:
256,192,126598,5,0,0:0:0:0:
256,192,126670,5,0,0:0:0:0:
256,192,126741,5,0,0:0:0:0:
256,192,126813,5,8,0:0:0:0:
256,192,126884,5,8,0:0:0:0:
256,192,126955,5,0,0:0:0:0:
256,192,127027,5,0,0:0:0:0:
256,192,127098,5,0,0:0:0:0:
256,192,127170,5,0,0:0:0:0:
256,192,127241,5,8,0:0:0:0:
256,192,127313,5,0,0:0:0:0:
256,192,127384,5,0,0:0:0:0:
256,192,127455,5,8,0:0:0:0:
256,192,127527,5,0,0:0:0:0:
256,192,127598,5,0,0:0:0:0:
256,192,127670,5,8,0:0:0:0:
256,192,127741,5,8,0:0:0:0:
256,192,127813,5,0,0:0:0:0:
256,192,127884,5,0,0:0:0:0:
256,192,127955,5,0,0:0:0:0:
256,192,128027,5,0,0:0:0:0:
256,192,128098,5,8,0:0:0:0:
256,192,128170,5,0,0:0:0:0:
256,192,128241,5,0,0:0:0:0:
256,192,128313,5,0,0:0:0:0:
256,192,128384,5,0,0:0:0:0:
256,192,128455,5,0,0:0:0:0:
256,192,128527,5,8,0:0:0:0:
256,192,128598,5,8,0:0:0:0:
256,192,128670,5,0,0:0:0:0:
256,192,128741,5,8,0:0:0:0:
256,192,128813,5,0,0:0:0:0:
256,192,128884,5,0,0:0:0:0:
256,192,128955,5,8,0:0:0:0:
256,192,129027,5,8,0:0:0:0:
256,192,129098,5,0,0:0:0:0:
256,192,129170,5,0,0:0:0:0:
256,192,129241,5,0,0:0:0:0:
256,192,129313,5,0,0:0:0:0:
256,192,129384,5,8,0:0:0:0:
256,192,129455,5,0,0:0:0:0:
256,192,129527,5,0,0:0:0:0:
256,192,129598,5,8,0:0:0:0:
256,192,129670,5,0,0:0:0:0:
256,192,129741,5,0,0:0:0:0:
256,192,129813,5,8,0:0:0:0:
256,192,129884,5,8,0:0:0:0:
256,192,129955,5,8,0:0:0:0:
256,192,130027,5,0,0:0:0:0:
256,192,130098,5,0,0:0:0:0:
256,192,130170,5,0,0:0:0:0:
256,192,130241,5,8,0:0:0:0:
256,192,130455,5,0,0:0:0:0:
256,192,130509,5,0,0:0:0:0:
256,192,130563,5,0,0:0:0:0:
256,192,130670,5,8,0:0:0:0:
256,192,130884,5,8,0:0:0:0:
256,192,131098,5,0,0:0:0:0:
256,192,131206,5,0,0:0:0:0:
256,192,131313,5,8,0:0:0:0:
256,192,131527,5,8,0:0:0:0:
256,192,132170,5,8,0:0:0:0:
256,192,132277,5,8,0:0:0:0:
256,192,132384,5,0,0:0:0:0:
256,192,132491,5,0,0:0:0:0:
256,192,132598,5,8,0:0:0:0:
256,192,132705,5,8,0:0:0:0:
256,192,132813,5,0,0:0:0:0:
256,192,132920,5,0,0:0:0:0:
256,192,133027,5,8,0:0:0:0:
256,192,133241,5,8,0:0:0:0:
256,192,133884,5,0,0:0:0:0:
256,192,133991,5,8,0:0:0:0:
256,192,134098,5,0,0:0:0:0:
256,192,134313,5,8,0:0:0:0:
256,192,134420,5,8,0:0:0:0:
256,192,134527,5,0,0:0:0:0:
256,192,134634,5,0,0:0:0:0:
256,192,134741,5,0,0:0:0:0:
256,192,134955,5,8,0:0:0:0:
256,192,135598,5,8,0:0:0:0:
256,192,135705,5,8,0:0:0:0:
256,192,135813,5,0,0:0:0:0:
256,192,136027,5,8,0:0:0:0:
256,192,136134,5,0,0:0:0:0:
256,192,136241,5,12,0:0:0:0:
256,192,136563,5,4,0:0:0:0:
256,192,136884,5,12,0:0:0:0:
256,192,137313,5,0,0:0:0:0:
256,192,137527,5,8,0:0:0:0:
256,192,137634,5,8,0:0:0:0:
256,192,137741,5,0,0:0:0:0:
256,192,137955,5,0,0:0:0:0:
256,192,138064,5,0,0:0:0:0:
256,192,138173,5,8,0:0:0:0:
256,192,138391,5,8,0:0:0:0:
256,192,139045,5,8,0:0:0:0:
256,192,139155,5,0,0:0:0:0:
256,192,139264,5,8,0:0:0:0:
256,192,139482,5,8,0:0:0:0:
256,192,139591,5,8,0:0:0:0:
256,192,139700,5,0,0:0:0:0:
256,192,139809,5,8,0:0:0:0:
256,192,139918,5,0,0:0:0:0:
256,192,140136,5,8,0:0:0:0:
256,192,140741,5,8,0:0:0:0:
256,192,140848,5,8,0:0:0:0:
256,192,140955,5,0,0:0:0:0:
256,192,141169,5,0,0:0:0:0:
256,192,141277,5,8,0:0:0:0:
256,192,141384,5,0,0:0:0:0:
256,192,141491,5,0,0:0:0:0:
256,192,141598,5,0,0:0:0:0:
256,192,141812,5,8,0:0:0:0:
256,192,142455,5,8,0:0:0:0:
256,192,142562,5,0,0:0:0:0:
256,192,142669,5,12,0:0:0:0:
256,192,142777,5,12,0:0:0:0:
256,192,142884,5,12,0:0:0:0:
256,192,142991,5,12,0:0:0:0:
256,192,144818,5,12,0:0:0:0:
256,192,144925,5,0,0:0:0:0:
256,192,145032,5,8,0:0:0:0:
256,192,145139,5,8,0:0:0:0:
256,192,145246,5,0,0:0:0:0:
256,192,145300,5,0,0:0:0:0:
256,192,145353,5,0,0:0:0:0:
256,192,145460,5,8,0:0:0:0:
256,192,145568,5,8,0:0:0:0:
256,192,145675,5,0,0:0:0:0:
256,192,145782,5,0,0:0:0:0:
256,192,145889,5,8,0:0:0:0:
256,192,145996,5,0,0:0:0:0:
256,192,146103,5,8,0:0:0:0:
256,192,146210,5,0,0:0:0:0:
256,192,146318,5,0,0:0:0:0:
256,192,146425,5,0,0:0:0:0:
256,192,146532,5,8,0:0:0:0:
256,192,146639,5,0,0:0:0:0:
256,192,146693,5,0,0:0:0:0:
256,192,146746,5,0,0:0:0:0:
256,192,146853,5,8,0:0:0:0:
256,192,146960,5,0,0:0:0:0:
256,192,147014,5,0,0:0:0:0:
256,192,147068,5,0,0:0:0:0:
256,192,147121,5,0,0:0:0:0:
256,192,147175,5,8,0:0:0:0:
256,192,147282,5,8,0:0:0:0:
256,192,147389,5,0,0:0:0:0:
256,192,147496,5,0,0:0:0:0:
256,192,147603,5,8,0:0:0:0:
256,192,147710,5,0,0:0:0:0:
256,192,147818,5,0,0:0:0:0:
256,192,147925,5,0,0:0:0:0:
256,192,148032,5,8,0:0:0:0:
256,192,148139,5,0,0:0:0:0:
256,192,148246,5,8,0:0:0:0:
256,192,148300,5,8,0:0:0:0:
256,192,148353,5,0,0:0:0:0:
256,192,148460,5,8,0:0:0:0:
256,192,148568,5,0,0:0:0:0:
256,192,148675,5,8,0:0:0:0:
256,192,148782,5,0,0:0:0:0:
256,192,148835,5,0,0:0:0:0:
256,192,148889,5,8,0:0:0:0:
256,192,148943,5,0,0:0:0:0:
256,192,148996,5,8,0:0:0:0:
256,192,149103,5,0,0:0:0:0:
256,192,149210,5,0,0:0:0:0:
256,192,149318,5,8,0:0:0:0:
256,192,149425,5,0,0:0:0:0:
256,192,149478,5,0,0:0:0:0:
256,192,149532,5,8,0:0:0:0:
256,192,149639,5,0,0:0:0:0:
256,192,149746,5,8,0:0:0:0:
256,192,149853,5,0,0:0:0:0:
256,192,149960,5,8,0:0:0:0:
256,192,150014,5,8,0:0:0:0:
256,192,150068,5,8,0:0:0:0:
256,192,150121,5,8,0:0:0:0:
256,192,150175,5,0,0:0:0:0:
256,192,150282,5,0,0:0:0:0:
256,192,150389,5,8,0:0:0:0:
256,192,150496,5,0,0:0:0:0:
256,192,150603,5,8,0:0:0:0:
256,192,150710,5,0,0:0:0:0:
256,192,150818,5,8,0:0:0:0:
256,192,150871,5,8,0:0:0:0:
256,192,150925,5,0,0:0:0:0:
256,192,150978,5,0,0:0:0:0:
256,192,151032,5,8,0:0:0:0:
256,192,151139,5,0,0:0:0:0:
256,192,151246,5,8,0:0:0:0:
256,192,151353,5,0,0:0:0:0:
256,192,151460,5,8,0:0:0:0:
256,192,151514,5,0,0:0:0:0:
256,192,151568,5,0,0:0:0:0:
256,192,151675,5,8,0:0:0:0:
256,192,151889,5,8,0:0:0:0:
256,192,151996,5,8,0:0:0:0:
256,192,152103,5,0,0:0:0:0:
256,192,152210,5,0,0:0:0:0:
256,192,152318,5,8,0:0:0:0:
256,192,152425,5,0,0:0:0:0:
256,192,152478,5,0,0:0:0:0:
256,192,152532,5,0,0:0:0:0:
256,192,152639,5,0,0:0:0:0:
256,192,152746,5,8,0:0:0:0:
256,192,152853,5,0,0:0:0:0:
256,192,152960,5,8,0:0:0:0:
256,192,153068,5,0,0:0:0:0:
256,192,153175,5,8,0:0:0:0:
256,192,153282,5,8,0:0:0:0:
256,192,153389,5,8,0:0:0:0:
256,192,153496,5,0,0:0:0:0:
256,192,153550,5,0,0:0:0:0:
256,192,153603,5,0,0:0:0:0:
256,192,153710,5,0,0:0:0:0:
256,192,153818,5,8,0:0:0:0:
256,192,153925,5,8,0:0:0:0:
256,192,154032,5,0,0:0:0:0:
256,192,154139,5,0,0:0:0:0:
256,192,154246,5,8,0:0:0:0:
256,192,154353,5,0,0:0:0:0:
256,192,154460,5,0,0:0:0:0:
256,192,154568,5,0,0:0:0:0:
256,192,154621,5,0,0:0:0:0:
256,192,154675,5,8,0:0:0:0:
256,192,154782,5,8,0:0:0:0:
256,192,154889,5,0,0:0:0:0:
256,192,154996,5,0,0:0:0:0:
256,192,155103,5,8,0:0:0:0:
256,192,155210,5,0,0:0:0:0:
256,192,155264,5,0,0:0:0:0:
256,192,155318,5,8,0:0:0:0:
256,192,155371,5,0,0:0:0:0:
256,192,155425,5,8,0:0:0:0:
256,192,155532,5,0,0:0:0:0:
256,192,155639,5,0,0:0:0:0:
256,192,155746,5,8,0:0:0:0:
256,192,155853,5,0,0:0:0:0:
256,192,155960,5,0,0:0:0:0:
256,192,156068,5,0,0:0:0:0:
256,192,156175,5,8,0:0:0:0:
256,192,156228,5,8,0:0:0:0:
256,192,156282,5,0,0:0:0:0:
256,192,156389,5,0,0:0:0:0:
256,192,156496,5,0,0:0:0:0:
256,192,156603,5,8,0:0:0:0:
256,192,156710,5,0,0:0:0:0:
256,192,156817,5,8,0:0:0:0:
256,192,156871,5,8,0:0:0:0:
256,192,156925,5,8,0:0:0:0:
256,192,157032,5,0,0:0:0:0:
256,192,157139,5,0,0:0:0:0:
256,192,157192,5,0,0:0:0:0:
256,192,157246,5,8,0:0:0:0:
256,192,157353,5,0,0:0:0:0:
256,192,157460,5,8,0:0:0:0:
256,192,157567,5,0,0:0:0:0:
256,192,157621,5,0,0:0:0:0:
256,192,157675,5,8,0:0:0:0:
256,192,157782,5,0,0:0:0:0:
256,192,157889,5,8,0:0:0:0:
256,192,158103,5,8,0:0:0:0:
256,192,158210,5,8,0:0:0:0:
256,192,158317,5,8,0:0:0:0:
256,192,158425,5,8,0:0:0:0:
256,192,158532,5,0,0:0:0:0:
256,192,158585,1,0,0:0:0:0:
256,192,158639,1,0,0:0:0:0:
256,192,158746,5,8,0:0:0:0:
256,192,158853,5,8,0:0:0:0:
256,192,158960,5,0,0:0:0:0:
256,192,159067,1,0,0:0:0:0:
256,192,159175,5,8,0:0:0:0:
256,192,159282,5,0,0:0:0:0:
256,192,159496,5,0,0:0:0:0:
256,192,159603,5,8,0:0:0:0:
256,192,159657,1,8,0:0:0:0:
256,192,159710,1,8,0:0:0:0:
256,192,159817,5,0,0:0:0:0:
256,192,159925,5,0,0:0:0:0:
256,192,160032,5,8,0:0:0:0:
256,192,160139,1,8,0:0:0:0:
256,192,160246,5,0,0:0:0:0:
256,192,160460,5,8,0:0:0:0:
256,192,160567,5,0,0:0:0:0:
256,192,160782,5,0,0:0:0:0:
256,192,160889,5,8,0:0:0:0:
256,192,161103,5,0,0:0:0:0:
256,192,161210,5,0,0:0:0:0:
256,192,161317,5,8,0:0:0:0:
256,192,161425,5,0,0:0:0:0:
256,192,161532,5,0,0:0:0:0:
256,192,161585,1,0,0:0:0:0:
256,192,161639,5,0,0:0:0:0:
256,192,161746,5,8,0:0:0:0:
256,192,161853,5,8,0:0:0:0:
256,192,161960,5,0,0:0:0:0:
256,192,162175,5,8,0:0:0:0:
256,192,162282,5,0,0:0:0:0:
256,192,162389,1,0,0:0:0:0:
256,192,162496,5,0,0:0:0:0:
256,192,162603,5,8,0:0:0:0:
256,192,162657,1,0,0:0:0:0:
256,192,162710,1,8,0:0:0:0:
256,192,162925,1,0,0:0:0:0:
256,192,163032,5,8,0:0:0:0:
256,192,163139,5,0,0:0:0:0:
256,192,163246,1,0,0:0:0:0:
256,192,163353,5,0,0:0:0:0:
256,192,163460,5,8,0:0:0:0:
256,192,163567,5,8,0:0:0:0:
256,192,163675,5,0,0:0:0:0:
256,192,163889,5,8,0:0:0:0:
256,192,164103,5,0,0:0:0:0:
256,192,164210,5,0,0:0:0:0:
256,192,164317,5,8,0:0:0:0:
256,192,164532,5,0,0:0:0:0:
256,192,164639,5,0,0:0:0:0:
256,192,164746,5,8,0:0:0:0:
256,192,164853,5,0,0:0:0:0:
256,192,164960,5,8,0:0:0:0:
256,192,165014,1,8,0:0:0:0:
256,192,165067,5,8,0:0:0:0:
256,192,165175,5,0,0:0:0:0:
256,192,165389,5,0,0:0:0:0:
256,192,165496,5,0,0:0:0:0:
256,192,165603,5,8,0:0:0:0:
256,192,165710,5,0,0:0:0:0:
256,192,165817,5,0,0:0:0:0:
256,192,165925,5,0,0:0:0:0:
256,192,166032,5,8,0:0:0:0:
256,192,166139,5,8,0:0:0:0:
256,192,166246,5,0,0:0:0:0:
256,192,166353,5,0,0:0:0:0:
256,192,166460,5,8,0:0:0:0:
256,192,166567,5,0,0:0:0:0:
256,192,166675,5,8,0:0:0:0:
256,192,166782,5,8,0:0:0:0:
256,192,166889,5,0,0:0:0:0:
256,192,166996,5,0,0:0:0:0:
256,192,167103,5,8,0:0:0:0:
256,192,167317,5,8,0:0:0:0:
256,192,167425,5,0,0:0:0:0:
256,192,167532,5,0,0:0:0:0:
256,192,167639,5,0,0:0:0:0:
256,192,167746,5,0,0:0:0:0:
256,192,167800,1,0,0:0:0:0:
256,192,167853,1,8,0:0:0:0:
256,192,167907,1,8,0:0:0:0:
256,192,167960,1,0,0:0:0:0:
256,192,168014,1,0,0:0:0:0:
256,192,168067,1,8,0:0:0:0:
256,192,168121,1,8,0:0:0:0:
256,192,168175,1,0,0:0:0:0:
256,192,168228,1,0,0:0:0:0:
256,192,168282,1,0,0:0:0:0:
256,192,168416,1,8,0:0:0:0:
256,192,168825,5,0,0:0:0:0:
256,192,168932,5,0,0:0:0:0:
256,192,169039,5,0,0:0:0:0:
256,192,169146,5,0,0:0:0:0:
256,192,169360,5,0,0:0:0:0:
256,192,169467,5,0,0:0:0:0:
256,192,169682,5,8,0:0:0:0:
256,192,169789,5,8,0:0:0:0:
256,192,169896,5,0,0:0:0:0:
256,192,170110,5,8,0:0:0:0:
256,192,170217,5,8,0:0:0:0:
256,192,170324,5,0,0:0:0:0:
256,192,170431,5,0,0:0:0:0:
256,192,170645,5,8,0:0:0:0:
256,192,170752,5,0,0:0:0:0:
256,192,170967,5,8,0:0:0:0:
256,192,171074,5,8,0:0:0:0:
256,192,171181,5,0,0:0:0:0:
256,192,171395,5,8,0:0:0:0:
256,192,171502,5,0,0:0:0:0:
256,192,171610,5,8,0:0:0:0:
256,192,171824,5,0,0:0:0:0:
256,192,171931,5,8,0:0:0:0:
256,192,172038,5,8,0:0:0:0:
256,192,172145,5,0,0:0:0:0:
256,192,172359,5,8,0:0:0:0:
256,192,172466,5,0,0:0:0:0:
256,192,172681,5,8,0:0:0:0:
256,192,172788,5,0,0:0:0:0:
256,192,172895,5,0,0:0:0:0:
256,192,173109,5,8,0:0:0:0:
256,192,173216,5,8,0:0:0:0:
256,192,173323,5,8,0:0:0:0:
256,192,173430,5,0,0:0:0:0:
256,192,173644,5,8,0:0:0:0:
256,192,173751,5,0,0:0:0:0:
256,192,173966,5,0,0:0:0:0:
256,192,174073,5,8,0:0:0:0:
256,192,174180,5,8,0:0:0:0:
256,192,174394,5,8,0:0:0:0:
256,192,174501,5,0,0:0:0:0:
256,192,174609,5,8,0:0:0:0:
256,192,174823,5,8,0:0:0:0:
256,192,175037,5,0,0:0:0:0:
256,192,175144,5,8,0:0:0:0:
256,192,175359,5,8,0:0:0:0:
256,192,175466,5,8,0:0:0:0:
256,192,175573,5,8,0:0:0:0:
256,192,175680,5,0,0:0:0:0:
256,192,175787,5,0,0:0:0:0:
256,192,175894,5,0,0:0:0:0:
256,192,176001,5,8,0:0:0:0:
256,192,176215,5,0,0:0:0:0:
256,192,176322,5,8,0:0:0:0:
256,192,176537,5,8,0:0:0:0:
256,192,176644,5,0,0:0:0:0:
256,192,176751,5,8,0:0:0:0:
256,192,176965,5,0,0:0:0:0:
256,192,177072,5,8,0:0:0:0:
256,192,177179,5,8,0:0:0:0:
256,192,177286,5,0,0:0:0:0:
256,192,177500,5,8,0:0:0:0:
256,192,177607,5,0,0:0:0:0:
256,192,177822,5,8,0:0:0:0:
256,192,177929,5,8,0:0:0:0:
256,192,178036,5,0,0:0:0:0:
256,192,178250,5,8,0:0:0:0:
256,192,178357,5,0,0:0:0:0:
256,192,178465,5,0,0:0:0:0:
256,192,178679,5,0,0:0:0:0:
256,192,178786,5,0,0:0:0:0:
256,192,178893,5,0,0:0:0:0:
256,192,179000,5,0,0:0:0:0:
256,192,179214,5,0,0:0:0:0:
256,192,179321,5,0,0:0:0:0:
256,192,179536,5,0,0:0:0:0:
256,192,179643,5,0,0:0:0:0:
256,192,179750,5,0,0:0:0:0:
256,192,179964,5,8,0:0:0:0:
256,192,180071,5,8,0:0:0:0:
256,192,180178,5,8,0:0:0:0:
256,192,180285,5,8,0:0:0:0:
256,192,180499,5,8,0:0:0:0:
256,192,180606,5,8,0:0:0:0:
256,192,180821,5,8,0:0:0:0:
256,192,180928,5,8,0:0:0:0:
256,192,181035,5,8,0:0:0:0:
256,192,181249,5,12,0:0:0:0:
256,192,181356,5,12,0:0:0:0:
256,192,181464,5,12,0:0:0:0:
256,192,182535,5,8,0:0:0:0:
256,192,182642,5,0,0:0:0:0:
256,192,182749,5,0,0:0:0:0:
256,192,182856,5,8,0:0:0:0:
256,192,182964,5,0,0:0:0:0:
256,192,183071,5,0,0:0:0:0:
256,192,183178,5,8,0:0:0:0:
256,192,183392,5,0,0:0:0:0:
256,192,183499,5,8,0:0:0:0:
256,192,183606,5,8,0:0:0:0:
256,192,183714,5,0,0:0:0:0:
256,192,183821,5,8,0:0:0:0:
256,192,183928,5,0,0:0:0:0:
256,192,184035,5,8,0:0:0:0:
256,192,184142,5,0,0:0:0:0:
256,192,184249,5,8,0:0:0:0:
256,192,184464,5,0,0:0:0:0:
256,192,184571,5,8,0:0:0:0:
256,192,184678,5,8,0:0:0:0:
256,192,184785,5,0,0:0:0:0:
256,192,184892,5,8,0:0:0:0:
256,192,185106,5,0,0:0:0:0:
256,192,185321,5,8,0:0:0:0:
256,192,185428,5,0,0:0:0:0:
256,192,185535,5,8,0:0:0:0:
256,192,185642,5,8,0:0:0:0:
256,192,185749,5,0,0:0:0:0:
256,192,185856,5,0,0:0:0:0:
256,192,185964,5,8,0:0:0:0:
256,192,186178,5,0,0:0:0:0:
256,192,186285,5,8,0:0:0:0:
256,192,186392,5,0,0:0:0:0:
256,192,186499,5,0,0:0:0:0:
256,192,186606,5,8,0:0:0:0:
256,192,186714,5,0,0:0:0:0:
256,192,186821,5,8,0:0:0:0:
256,192,187035,5,0,0:0:0:0:
256,192,187142,5,8,0:0:0:0:
256,192,187356,5,0,0:0:0:0:
256,192,187464,5,8,0:0:0:0:
256,192,187678,5,8,0:0:0:0:
256,192,187892,5,0,0:0:0:0:
256,192,187999,5,8,0:0:0:0:
256,192,188214,5,8,0:0:0:0:
256,192,188321,5,8,0:0:0:0:
256,192,188535,5,8,0:0:0:0:
256,192,188749,5,8,0:0:0:0:
256,192,188856,5,0,0:0:0:0:
256,192,188964,5,8,0:0:0:0:
256,192,189071,5,8,0:0:0:0:
256,192,189178,5,0,0:0:0:0:
256,192,189285,5,0,0:0:0:0:
256,192,189392,5,0,0:0:0:0:
256,192,189606,5,8,0:0:0:0:
256,192,189714,5,8,0:0:0:0:
256,192,189821,5,0,0:0:0:0:
256,192,189928,5,8,0:0:0:0:
256,192,190142,5,0,0:0:0:0:
256,192,190249,5,8,0:0:0:0:
256,192,190356,5,8,0:0:0:0:
256,192,190464,5,0,0:0:0:0:
256,192,190571,5,8,0:0:0:0:
256,192,190678,5,8,0:0:0:0:
256,192,190785,5,0,0:0:0:0:
256,192,190892,5,8,0:0:0:0:
256,192,190999,5,0,0:0:0:0:
256,192,191106,5,8,0:0:0:0:
256,192,191214,5,8,0:0:0:0:
256,192,191321,5,8,0:0:0:0:
256,192,191428,5,0,0:0:0:0:
256,192,191535,5,8,0:0:0:0:
256,192,191642,5,8,0:0:0:0:
256,192,191749,5,0,0:0:0:0:
256,192,191856,5,0,0:0:0:0:
256,192,191963,5,8,0:0:0:0:
256,192,192071,5,0,0:0:0:0:
256,192,192178,5,8,0:0:0:0:
256,192,192285,5,8,0:0:0:0:
256,192,192392,5,0,0:0:0:0:
256,192,192499,5,0,0:0:0:0:
256,192,192606,5,8,0:0:0:0:
256,192,192713,5,8,0:0:0:0:
256,192,192821,5,4,0:0:0:0:
256,192,193142,5,0,0:0:0:0:
256,192,193463,5,0,0:0:0:0:
256,192,193678,5,4,0:0:0:0:
256,192,193999,5,0,0:0:0:0:
256,192,194321,5,0,0:0:0:0:
256,192,194535,5,4,0:0:0:0:
256,192,194749,5,0,0:0:0:0:
256,192,194856,5,8,0:0:0:0:
256,192,195071,5,8,0:0:0:0:
256,192,195178,5,0,0:0:0:0:
256,192,195285,5,0,0:0:0:0:
256,192,195392,5,8,0:0:0:0:
256,192,195606,5,0,0:0:0:0:
256,192,195713,5,8,0:0:0:0:
256,192,195928,5,0,0:0:0:0:
256,192,196035,5,8,0:0:0:0:
256,192,196249,5,0,0:0:0:0:
256,192,196463,5,0,0:0:0:0:
256,192,196678,5,0,0:0:0:0:
256,192,196892,5,0,0:0:0:0:
256,192,197106,5,8,0:0:0:0:
256,192,197321,5,0,0:0:0:0:
256,192,197749,5,0,0:0:0:0:
256,192,197963,5,8,0:0:0:0:
256,192,198178,5,0,0:0:0:0:
256,192,198606,5,0,0:0:0:0:
256,192,199035,5,0,0:0:0:0:
256,192,199463,5,0,0:0:0:0:
256,192,199571,5,0,0:0:0:0:
256,192,199678,5,4,0:0:0:0:
256,192,199892,5,0,0:0:0:0:
256,192,200106,5,0,0:0:0:0:
256,192,200321,5,0,0:0:0:0:
256,192,200535,5,8,0:0:0:0:
256,192,200749,5,0,0:0:0:0:
256,192,201178,5,0,0:0:0:0:
256,192,201392,5,8,0:0:0:0:
256,192,201606,5,0,0:0:0:0:
256,192,202035,5,8,0:0:0:0:
256,192,202249,5,0,0:0:0:0:
256,192,202463,5,8,0:0:0:0:
256,192,202490,5,8,0:0:0:0:
256,192,202678,5,0,0:0:0:0:
256,192,202892,5,8,0:0:0:0:
256,192,203106,5,4,0:0:0:0:
256,192,203321,1,0,0:0:0:0:
256,192,203535,5,0,0:0:0:0:
256,192,203749,5,0,0:0:0:0:
256,192,203963,5,8,0:0:0:0:
256,192,204178,5,0,0:0:0:0:
256,192,204606,5,0,0:0:0:0:
256,192,204821,5,8,0:0:0:0:
256,192,205035,5,0,0:0:0:0:
256,192,205463,5,0,0:0:0:0:
256,192,205892,5,0,0:0:0:0:
256,192,206321,5,0,0:0:0:0:
256,192,206428,5,0,0:0:0:0:
256,192,206535,5,12,0:0:0:0:
256,192,206749,5,0,0:0:0:0:
256,192,206963,5,0,0:0:0:0:
256,192,207178,5,0,0:0:0:0:
256,192,207392,5,8,0:0:0:0:
256,192,207606,5,0,0:0:0:0:
256,192,207821,5,8,0:0:0:0:
256,192,208035,5,0,0:0:0:0:
256,192,208249,5,12,0:0:0:0:
256,192,208678,5,0,0:0:0:0:
256,192,209106,5,0,0:0:0:0:
256,192,209213,5,0,0:0:0:0:
256,192,209321,5,8,0:0:0:0:
256,192,209428,5,8,0:0:0:0:
256,192,209535,5,8,0:0:0:0:
256,192,209642,5,8,0:0:0:0:
256,192,209749,5,0,0:0:0:0:
256,192,209856,5,0,0:0:0:0:
256,192,209963,5,8,0:0:0:0:
256,192,210017,5,8,0:0:0:0:
256,192,210071,5,0,0:0:0:0:
256,192,210178,5,0,0:0:0:0:
256,192,210285,5,0,0:0:0:0:
256,192,210392,5,8,0:0:0:0:
256,192,210446,5,8,0:0:0:0:
256,192,210499,5,0,0:0:0:0:
256,192,210606,5,8,0:0:0:0:
256,192,210713,5,8,0:0:0:0:
256,192,210821,5,0,0:0:0:0:
256,192,210928,5,8,0:0:0:0:
256,192,211035,5,0,0:0:0:0:
256,192,211142,5,0,0:0:0:0:
256,192,211249,5,8,0:0:0:0:
256,192,211303,5,8,0:0:0:0:
256,192,211356,5,0,0:0:0:0:
256,192,211463,5,0,0:0:0:0:
256,192,211571,5,0,0:0:0:0:
256,192,211678,5,8,0:0:0:0:
256,192,211731,5,8,0:0:0:0:
256,192,211785,5,8,0:0:0:0:
256,192,211892,5,0,0:0:0:0:
256,192,211999,5,0,0:0:0:0:
256,192,212106,5,8,0:0:0:0:
256,192,212160,5,8,0:0:0:0:
256,192,212213,5,0,0:0:0:0:
256,192,212267,5,0,0:0:0:0:
256,192,212321,5,8,0:0:0:0:
256,192,212428,5,0,0:0:0:0:
256,192,212535,5,8,0:0:0:0:
256,192,212642,5,8,0:0:0:0:
256,192,212749,5,0,0:0:0:0:
256,192,212803,5,0,0:0:0:0:
256,192,212856,5,0,0:0:0:0:
256,192,212910,5,0,0:0:0:0:
256,192,212963,5,8,0:0:0:0:
256,192,213071,5,8,0:0:0:0:
256,192,213178,5,0,0:0:0:0:
256,192,213285,5,0,0:0:0:0:
256,192,213392,5,8,0:0:0:0:
256,192,213446,5,8,0:0:0:0:
256,192,213499,5,0,0:0:0:0:
256,192,213606,5,0,0:0:0:0:
256,192,213713,5,0,0:0:0:0:
256,192,213821,5,8,0:0:0:0:
256,192,213874,5,8,0:0:0:0:
256,192,213928,5,8,0:0:0:0:
256,192,214035,5,0,0:0:0:0:
256,192,214142,5,0,0:0:0:0:
256,192,214249,5,8,0:0:0:0:
256,192,214356,5,0,0:0:0:0:
256,192,214463,5,0,0:0:0:0:
256,192,214571,5,0,0:0:0:0:
256,192,214678,5,8,0:0:0:0:
256,192,214731,5,0,0:0:0:0:
256,192,214785,5,0,0:0:0:0:
256,192,214892,5,8,0:0:0:0:
256,192,214999,5,0,0:0:0:0:
256,192,215106,5,8,0:0:0:0:
256,192,215160,5,8,0:0:0:0:
256,192,215213,5,0,0:0:0:0:
256,192,215321,5,8,0:0:0:0:
256,192,215428,5,0,0:0:0:0:
256,192,215535,5,8,0:0:0:0:
256,192,215588,5,8,0:0:0:0:
256,192,215642,5,8,0:0:0:0:
256,192,215749,5,0,0:0:0:0:
256,192,215856,5,0,0:0:0:0:
256,192,215963,5,8,0:0:0:0:
256,192,216017,5,8,0:0:0:0:
256,192,216071,5,8,0:0:0:0:
256,192,216124,5,8,0:0:0:0:
256,192,216178,5,8,0:0:0:0:
256,192,216285,5,0,0:0:0:0:
256,192,216392,5,8,0:0:0:0:
256,192,216446,5,8,0:0:0:0:
256,192,216499,5,0,0:0:0:0:
256,192,216606,5,0,0:0:0:0:
256,192,216713,5,0,0:0:0:0:
256,192,216821,5,8,0:0:0:0:
256,192,216874,5,8,0:0:0:0:
256,192,216928,5,0,0:0:0:0:
256,192,217035,5,0,0:0:0:0:
256,192,217142,5,0,0:0:0:0:
256,192,217249,5,8,0:0:0:0:
256,192,217303,5,8,0:0:0:0:
256,192,217356,5,0,0:0:0:0:
256,192,217463,5,8,0:0:0:0:
256,192,217571,5,8,0:0:0:0:
256,192,217678,5,0,0:0:0:0:
256,192,217785,5,8,0:0:0:0:
256,192,217892,5,0,0:0:0:0:
256,192,217999,5,0,0:0:0:0:
256,192,218106,5,8,0:0:0:0:
256,192,218160,5,8,0:0:0:0:
256,192,218213,5,0,0:0:0:0:
256,192,218321,5,0,0:0:0:0:
256,192,218428,5,0,0:0:0:0:
256,192,218535,5,8,0:0:0:0:
256,192,218588,5,8,0:0:0:0:
256,192,218642,5,8,0:0:0:0:
256,192,218749,5,0,0:0:0:0:
256,192,218856,5,0,0:0:0:0:
256,192,218963,5,8,0:0:0:0:
256,192,219017,5,8,0:0:0:0:
256,192,219071,5,0,0:0:0:0:
256,192,219124,5,0,0:0:0:0:
256,192,219178,5,8,0:0:0:0:
256,192,219285,5,0,0:0:0:0:
256,192,219392,5,8,0:0:0:0:
256,192,219499,5,8,0:0:0:0:
256,192,219606,5,0,0:0:0:0:
256,192,219660,5,0,0:0:0:0:
256,192,219713,5,0,0:0:0:0:
256,192,219767,5,0,0:0:0:0:
256,192,219821,5,8,0:0:0:0:
256,192,219928,5,8,0:0:0:0:
256,192,220035,5,0,0:0:0:0:
256,192,220142,5,0,0:0:0:0:
256,192,220249,5,8,0:0:0:0:
256,192,220303,5,8,0:0:0:0:
256,192,220356,5,0,0:0:0:0:
256,192,220463,5,0,0:0:0:0:
256,192,220571,5,0,0:0:0:0:
256,192,220678,5,8,0:0:0:0:
256,192,220731,5,8,0:0:0:0:
256,192,220785,5,8,0:0:0:0:
256,192,220892,5,0,0:0:0:0:
256,192,220999,5,0,0:0:0:0:
256,192,221106,5,8,0:0:0:0:
256,192,221213,5,0,0:0:0:0:
256,192,221267,5,0,0:0:0:0:
256,192,221321,5,0,0:0:0:0:
256,192,221428,5,0,0:0:0:0:
256,192,221535,5,8,0:0:0:0:
256,192,221588,5,0,0:0:0:0:
256,192,221642,5,0,0:0:0:0:
256,192,221749,5,8,0:0:0:0:
256,192,221856,5,0,0:0:0:0:
256,192,221963,5,8,0:0:0:0:
256,192,222017,5,8,0:0:0:0:
256,192,222071,5,0,0:0:0:0:
256,192,222178,5,8,0:0:0:0:
256,192,222285,5,0,0:0:0:0:
256,192,222392,5,8,0:0:0:0:
256,192,222446,5,8,0:0:0:0:
256,192,222499,5,8,0:0:0:0:
256,192,222606,5,0,0:0:0:0:
256,192,222713,5,0,0:0:0:0:
256,192,222821,5,8,0:0:0:0:
256,192,222874,5,8,0:0:0:0:
256,192,222928,5,0,0:0:0:0:
256,192,222981,5,0,0:0:0:0:
256,192,223035,5,8,0:0:0:0:
256,192,223142,5,0,0:0:0:0:
256,192,223249,5,8,0:0:0:0:
256,192,223303,5,8,0:0:0:0:
256,192,223356,5,8,0:0:0:0:
256,192,223463,5,0,0:0:0:0:
256,192,223571,5,8,0:0:0:0:
256,192,223678,5,4,0:0:0:0:
256,192,224535,5,4,0:0:0:0:
256,192,225392,5,4,0:0:0:0:
256,192,226249,5,4,0:0:0:0:
256,192,226463,5,4,0:0:0:0:
256,192,226678,5,8,0:0:0:0:
256,192,226731,5,8,0:0:0:0:
256,192,226785,5,8,0:0:0:0:
256,192,226838,5,8,0:0:0:0:
256,192,226892,5,8,0:0:0:0:
256,192,226946,5,8,0:0:0:0:
256,192,226999,5,8,0:0:0:0:
256,192,227053,5,8,0:0:0:0:
256,192,227106,5,4,0:0:0:0:
256,192,227321,5,8,0:0:0:0:
256,192,227428,5,8,0:0:0:0:
256,192,227535,5,0,0:0:0:0:
256,192,227642,5,0,0:0:0:0:
256,192,227749,5,8,0:0:0:0:
256,192,227856,5,0,0:0:0:0:
256,192,227963,5,8,0:0:0:0:
256,192,228071,5,0,0:0:0:0:
256,192,228178,5,8,0:0:0:0:
256,192,228285,5,0,0:0:0:0:
256,192,228392,5,8,0:0:0:0:
256,192,228499,5,0,0:0:0:0:
256,192,228606,5,8,0:0:0:0:
256,192,228713,5,8,0:0:0:0:
256,192,228821,5,0,0:0:0:0:
256,192,228928,5,0,0:0:0:0:
256,192,229035,5,8,0:0:0:0:
256,192,229142,5,0,0:0:0:0:
256,192,229249,5,8,0:0:0:0:
256,192,229356,5,8,0:0:0:0:
256,192,229463,5,0,0:0:0:0:
256,192,229571,5,8,0:0:0:0:
256,192,229678,5,0,0:0:0:0:
256,192,229785,5,8,0:0:0:0:
256,192,229892,5,8,0:0:0:0:
256,192,230106,5,8,0:0:0:0:
256,192,230213,1,8,0:0:0:0:
256,192,230267,1,8,0:0:0:0:
256,192,230321,1,0,0:0:0:0:
256,192,230374,1,0,0:0:0:0:
256,192,230428,5,8,0:0:0:0:
256,192,230481,1,8,0:0:0:0:
256,192,230535,5,0,0:0:0:0:
256,192,230642,5,8,0:0:0:0:
256,192,230749,5,0,0:0:0:0:
256,192,230856,5,8,0:0:0:0:
256,192,230963,5,8,0:0:0:0:
256,192,231071,5,0,0:0:0:0:
256,192,231178,5,0,0:0:0:0:
256,192,231285,5,8,0:0:0:0:
256,192,231392,5,8,0:0:0:0:
256,192,231499,5,8,0:0:0:0:
256,192,231606,5,0,0:0:0:0:
256,192,231713,5,0,0:0:0:0:
256,192,231821,5,8,0:0:0:0:
256,192,231928,5,8,0:0:0:0:
256,192,232035,5,8,0:0:0:0:
256,192,232142,5,8,0:0:0:0:
256,192,232249,5,0,0:0:0:0:
256,192,232356,5,0,0:0:0:0:
256,192,232463,5,8,0:0:0:0:
256,192,232571,5,0,0:0:0:0:
256,192,232678,5,8,0:0:0:0:
256,192,232785,5,8,0:0:0:0:
256,192,232892,5,0,0:0:0:0:
256,192,232999,5,0,0:0:0:0:
256,192,233106,5,8,0:0:0:0:
256,192,233213,5,8,0:0:0:0:
256,192,233321,5,0,0:0:0:0:
256,192,233428,5,0,0:0:0:0:
256,192,233535,5,8,0:0:0:0:
256,192,233642,5,0,0:0:0:0:
256,192,233749,5,8,0:0:0:0:
256,192,233856,5,8,0:0:0:0:
256,192,233963,5,0,0:0:0:0:
256,192,234071,5,0,0:0:0:0:
256,192,234178,5,8,0:0:0:0:
256,192,234285,5,0,0:0:0:0:
256,192,234392,5,0,0:0:0:0:
256,192,234499,5,0,0:0:0:0:
256,192,234606,5,8,0:0:0:0:
256,192,234713,5,0,0:0:0:0:
256,192,234821,5,8,0:0:0:0:
256,192,234928,5,8,0:0:0:0:
256,192,235035,5,0,0:0:0:0:
256,192,235142,5,0,0:0:0:0:
256,192,235249,5,8,0:0:0:0:
256,192,235356,5,0,0:0:0:0:
256,192,235463,5,8,0:0:0:0:
256,192,235571,5,8,0:0:0:0:
256,192,235678,5,0,0:0:0:0:
256,192,235785,5,0,0:0:0:0:
256,192,235892,5,8,0:0:0:0:
256,192,235999,5,0,0:0:0:0:
256,192,236106,5,8,0:0:0:0:
256,192,236213,5,8,0:0:0:0:
256,192,236321,5,0,0:0:0:0:
256,192,236428,5,0,0:0:0:0:
256,192,236535,5,8,0:0:0:0:
256,192,236642,5,8,0:0:0:0:
256,192,236749,5,0,0:0:0:0:
256,192,236856,5,0,0:0:0:0:
256,192,236963,5,8,0:0:0:0:
256,192,237071,5,0,0:0:0:0:
256,192,237178,5,8,0:0:0:0:
256,192,237285,5,8,0:0:0:0:
256,192,237392,5,0,0:0:0:0:
256,192,237499,5,0,0:0:0:0:
256,192,237606,5,0,0:0:0:0:
256,192,237713,5,8,0:0:0:0:
256,192,237821,5,8,0:0:0:0:
256,192,237928,5,0,0:0:0:0:
256,192,238035,5,0,0:0:0:0:
256,192,238142,5,8,0:0:0:0:
256,192,238249,5,8,0:0:0:0:
256,192,238356,5,8,0:0:0:0:
256,192,238463,5,0,0:0:0:0:
256,192,238571,5,0,0:0:0:0:
256,192,238678,5,8,0:0:0:0:
256,192,238785,5,8,0:0:0:0:
256,192,238892,5,8,0:0:0:0:
256,192,238999,5,8,0:0:0:0:
256,192,239106,5,0,0:0:0:0:
256,192,239213,5,8,0:0:0:0:
256,192,239321,5,0,0:0:0:0:
256,192,239428,5,0,0:0:0:0:
256,192,239535,5,8,0:0:0:0:
256,192,239642,5,0,0:0:0:0:
256,192,239749,5,0,0:0:0:0:
256,192,239856,5,8,0:0:0:0:
256,192,239963,5,8,0:0:0:0:
256,192,240071,5,8,0:0:0:0:
256,192,240178,5,0,0:0:0:0:
256,192,240285,5,0,0:0:0:0:
256,192,240392,5,8,0:0:0:0:
256,192,240499,5,0,0:0:0:0:
256,192,240606,5,8,0:0:0:0:
256,192,240713,5,0,0:0:0:0:
256,192,240821,5,8,0:0:0:0:
256,192,240928,5,8,0:0:0:0:
256,192,241035,5,0,0:0:0:0:
256,192,241142,5,0,0:0:0:0:
256,192,241249,5,8,0:0:0:0:
256,192,241356,5,8,0:0:0:0:
256,192,241463,5,8,0:0:0:0:
256,192,241571,5,0,0:0:0:0:
256,192,241678,5,8,0:0:0:0:
256,192,241785,1,0,0:0:0:0:
256,192,241892,1,0,0:0:0:0:
256,192,241999,1,0,0:0:0:0:
256,192,242106,1,8,0:0:0:0:
256,192,242213,1,8,0:0:0:0:
256,192,242321,1,0,0:0:0:0:
256,192,242428,1,0,0:0:0:0:
256,192,242525,5,8,0:0:0:0:
256,192,242667,5,0,0:0:0:0:
256,192,242739,5,0,0:0:0:0:
256,192,242953,5,8,0:0:0:0:
256,192,243096,5,0,0:0:0:0:
256,192,243167,5,0,0:0:0:0:
256,192,243382,5,8,0:0:0:0:
256,192,243453,5,8,0:0:0:0:
256,192,243525,5,8,0:0:0:0:
256,192,243596,5,0,0:0:0:0:
256,192,243703,5,0,0:0:0:0:
256,192,243757,5,0,0:0:0:0:
256,192,243810,5,0,0:0:0:0:
256,192,243864,5,0,0:0:0:0:
256,192,243917,5,8,0:0:0:0:
256,192,244025,5,8,0:0:0:0:
256,192,244248,5,0,0:0:0:0:
256,192,244355,5,8,0:0:0:0:
256,192,244462,5,8,0:0:0:0:
256,192,244569,5,8,0:0:0:0:
256,192,244676,5,0,0:0:0:0:
256,192,244783,5,0,0:0:0:0:
256,192,244890,5,8,0:0:0:0:
256,192,244997,5,8,0:0:0:0:
256,192,245104,5,0,0:0:0:0:
256,192,245211,5,8,0:0:0:0:
256,192,245319,5,0,0:0:0:0:
256,192,245426,5,8,0:0:0:0:
256,192,245533,5,8,0:0:0:0:
256,192,245640,5,0,0:0:0:0:
256,192,245747,5,0,0:0:0:0:
256,192,245854,5,8,0:0:0:0:
256,192,245961,5,8,0:0:0:0:
256,192,246069,5,8,0:0:0:0:
256,192,246176,5,0,0:0:0:0:
256,192,246283,5,0,0:0:0:0:
256,192,246390,5,8,0:0:0:0:
256,192,246497,5,0,0:0:0:0:
256,192,246604,5,8,0:0:0:0:
256,192,246711,5,8,0:0:0:0:
256,192,246819,5,0,0:0:0:0:
256,192,246926,5,0,0:0:0:0:
256,192,247033,5,8,0:0:0:0:
256,192,247140,5,0,0:0:0:0:
256,192,247247,5,8,0:0:0:0:
256,192,247354,5,8,0:0:0:0:
256,192,247461,5,0,0:0:0:0:
256,192,247569,5,8,0:0:0:0:
256,192,247676,5,8,0:0:0:0:
256,192,247783,5,0,0:0:0:0:
256,192,247890,5,0,0:0:0:0:
256,192,247997,5,0,0:0:0:0:
256,192,248104,5,8,0:0:0:0:
256,192,248211,5,0,0:0:0:0:
256,192,248319,5,8,0:0:0:0:
256,192,248426,5,8,0:0:0:0:
256,192,248533,5,0,0:0:0:0:
256,192,248640,5,8,0:0:0:0:
256,192,248748,5,8,0:0:0:0:
256,192,248854,5,0,0:0:0:0:
256,192,248961,5,8,0:0:0:0:
256,192,249069,5,0,0:0:0:0:
256,192,249176,5,8,0:0:0:0:
256,192,249283,5,0,0:0:0:0:
256,192,249390,5,8,0:0:0:0:
256,192,249498,5,8,0:0:0:0:
256,192,249605,5,0,0:0:0:0:
256,192,249712,5,0,0:0:0:0:
256,192,249820,5,8,0:0:0:0:
256,192,249927,5,0,0:0:0:0:
256,192,250034,5,8,0:0:0:0:
256,192,250141,5,8,0:0:0:0:
256,192,250248,5,0,0:0:0:0:
256,192,250355,5,8,0:0:0:0:
256,192,250462,5,8,0:0:0:0:
256,192,250570,5,0,0:0:0:0:
256,192,250677,5,8,0:0:0:0:
256,192,250784,5,8,0:0:0:0:
256,192,250891,5,0,0:0:0:0:
256,192,250998,5,0,0:0:0:0:
256,192,251105,5,8,0:0:0:0:
256,192,251212,5,8,0:0:0:0:
256,192,251320,5,0,0:0:0:0:
256,192,251427,5,0,0:0:0:0:
256,192,251534,5,8,0:0:0:0:
256,192,251641,5,0,0:0:0:0:
256,192,251748,5,8,0:0:0:0:
256,192,251855,5,8,0:0:0:0:
256,192,251962,5,0,0:0:0:0:
256,192,252070,5,8,0:0:0:0:
256,192,252177,5,8,0:0:0:0:
256,192,252284,5,0,0:0:0:0:
256,192,252391,5,8,0:0:0:0:
256,192,252498,5,0,0:0:0:0:
256,192,252605,5,8,0:0:0:0:
256,192,252712,5,0,0:0:0:0:
256,192,252820,5,8,0:0:0:0:
256,192,252927,5,8,0:0:0:0:
256,192,253034,5,0,0:0:0:0:
256,192,253141,5,0,0:0:0:0:
256,192,253248,5,8,0:0:0:0:
256,192,253355,5,0,0:0:0:0:
256,192,253462,5,8,0:0:0:0:
256,192,253570,5,8,0:0:0:0:
256,192,253677,5,0,0:0:0:0:
256,192,253784,5,8,0:0:0:0:
256,192,253891,5,8,0:0:0:0:
256,192,253998,5,0,0:0:0:0:
256,192,254105,5,8,0:0:0:0:
256,192,254212,5,8,0:0:0:0:
256,192,254320,5,8,0:0:0:0:
256,192,254427,5,0,0:0:0:0:
256,192,254534,5,8,0:0:0:0:
256,192,254641,5,8,0:0:0:0:
256,192,254748,5,0,0:0:0:0:
256,192,254855,5,0,0:0:0:0:
256,192,254962,5,8,0:0:0:0:
256,192,255070,5,0,0:0:0:0:
256,192,255177,5,8,0:0:0:0:
256,192,255284,5,8,0:0:0:0:
256,192,255391,5,0,0:0:0:0:
256,192,255498,5,8,0:0:0:0:
256,192,255605,5,0,0:0:0:0:
256,192,255712,5,0,0:0:0:0:
256,192,255820,5,8,0:0:0:0:
256,192,255927,5,0,0:0:0:0:
256,192,256034,5,8,0:0:0:0:
256,192,256141,5,8,0:0:0:0:
256,192,256248,5,8,0:0:0:0:
256,192,256302,5,8,0:0:0:0:
256,192,256355,5,8,0:0:0:0:
256,192,256409,5,8,0:0:0:0:
256,192,256462,5,0,0:0:0:0:
256,192,256516,5,0,0:0:0:0:
256,192,256570,5,8,0:0:0:0:
256,192,256677,5,0,0:0:0:0:
256,192,256784,5,0,0:0:0:0:
256,192,256891,5,8,0:0:0:0:
256,192,256945,5,8,0:0:0:0:
256,192,256998,5,0,0:0:0:0:
256,192,257052,5,8,0:0:0:0:
256,192,257105,5,0,0:0:0:0:
256,192,257159,5,0,0:0:0:0:
256,192,257212,5,8,0:0:0:0:
256,192,257320,5,0,0:0:0:0:
256,192,257427,5,0,0:0:0:0:
256,192,257534,5,8,0:0:0:0:
256,192,257587,5,8,0:0:0:0:
256,192,257641,5,0,0:0:0:0:
256,192,257748,5,8,0:0:0:0:
256,192,257855,5,8,0:0:0:0:
256,192,257962,5,4,0:0:0:0:
256,192,271676,5,4,0:0:0:0:
256,192,272319,5,0,0:0:0:0:
256,192,272533,5,8,0:0:0:0:
256,192,272854,5,0,0:0:0:0:
256,192,273176,5,0,0:0:0:0:
256,192,273390,5,4,0:0:0:0:
256,192,273604,5,0,0:0:0:0:
256,192,273711,5,0,0:0:0:0:
256,192,273926,5,0,0:0:0:0:
256,192,274033,5,0,0:0:0:0:
256,192,274247,5,8,0:0:0:0:
256,192,274569,1,0,0:0:0:0:
256,192,274676,5,8,0:0:0:0:
256,192,274890,5,0,0:0:0:0:
256,192,275104,5,4,0:0:0:0:
256,192,275604,5,0,0:0:0:0:
256,192,275747,5,8,0:0:0:0:
256,192,275962,1,0,0:0:0:0:
256,192,276069,5,0,0:0:0:0:
256,192,276390,5,8,0:0:0:0:
256,192,276497,5,0,0:0:0:0:
256,192,276819,5,4,0:0:0:0:
256,192,277033,1,0,0:0:0:0:
256,192,277140,5,0,0:0:0:0:
256,192,277247,5,8,0:0:0:0:
256,192,277462,1,0,0:0:0:0:
256,192,277569,5,0,0:0:0:0:
256,192,277783,1,0,0:0:0:0:
256,192,277890,5,0,0:0:0:0:
256,192,277997,5,8,0:0:0:0:
256,192,278104,5,0,0:0:0:0:
256,192,278211,5,0,0:0:0:0:
256,192,278319,5,8,0:0:0:0:
256,192,278426,5,8,0:0:0:0:
256,192,278533,5,0,0:0:0:0:
256,192,278640,5,0,0:0:0:0:
256,192,278747,5,0,0:0:0:0:
256,192,278854,5,8,0:0:0:0:
256,192,279069,5,0,0:0:0:0:
256,192,279176,5,0,0:0:0:0:
256,192,279283,5,0,0:0:0:0:
256,192,279390,5,8,0:0:0:0:
256,192,279604,5,0,0:0:0:0:
256,192,279711,5,0,0:0:0:0:
256,192,279819,5,0,0:0:0:0:
256,192,279926,5,8,0:0:0:0:
256,192,280140,5,8,0:0:0:0:
256,192,280247,5,0,0:0:0:0:
256,192,280301,5,0,0:0:0:0:
256,192,280355,5,0,0:0:0:0:
256,192,280461,5,8,0:0:0:0:
256,192,280569,5,0,0:0:0:0:
256,192,280622,5,0,0:0:0:0:
256,192,280676,5,0,0:0:0:0:
256,192,280783,5,0,0:0:0:0:
256,192,280890,5,8,0:0:0:0:
256,192,280944,5,8,0:0:0:0:
256,192,280997,5,0,0:0:0:0:
256,192,281105,5,8,0:0:0:0:
256,192,281158,5,8,0:0:0:0:
256,192,281212,5,8,0:0:0:0:
256,192,281265,5,8,0:0:0:0:
256,192,281319,5,0,0:0:0:0:
256,192,281372,5,0,0:0:0:0:
256,192,281426,5,0,0:0:0:0:
256,192,281480,5,0,0:0:0:0:
256,192,281533,5,12,0:0:0:0:
256,192,281972,5,12,0:0:0:0:
256,192,282079,5,0,0:0:0:0:
256,192,282186,5,8,0:0:0:0:
256,192,282293,5,8,0:0:0:0:
256,192,282400,5,0,0:0:0:0:
256,192,282454,5,0,0:0:0:0:
256,192,282507,5,0,0:0:0:0:
256,192,282614,5,8,0:0:0:0:
256,192,282722,5,8,0:0:0:0:
256,192,282829,5,0,0:0:0:0:
256,192,282936,5,0,0:0:0:0:
256,192,282989,5,0,0:0:0:0:
256,192,283043,5,8,0:0:0:0:
256,192,283150,5,0,0:0:0:0:
256,192,283257,5,8,0:0:0:0:
256,192,283364,5,0,0:0:0:0:
256,192,283472,5,0,0:0:0:0:
256,192,283579,5,0,0:0:0:0:
256,192,283686,5,8,0:0:0:0:
256,192,283793,5,0,0:0:0:0:
256,192,283847,5,0,0:0:0:0:
256,192,283900,5,0,0:0:0:0:
256,192,284007,5,8,0:0:0:0:
256,192,284114,5,0,0:0:0:0:
256,192,284168,5,0,0:0:0:0:
256,192,284222,5,0,0:0:0:0:
256,192,284275,5,0,0:0:0:0:
256,192,284329,5,8,0:0:0:0:
256,192,284436,5,8,0:0:0:0:
256,192,284543,5,0,0:0:0:0:
256,192,284650,5,0,0:0:0:0:
256,192,284757,5,8,0:0:0:0:
256,192,284811,5,8,0:0:0:0:
256,192,284864,5,0,0:0:0:0:
256,192,284972,5,0,0:0:0:0:
256,192,285079,5,0,0:0:0:0:
256,192,285186,5,8,0:0:0:0:
256,192,285293,5,0,0:0:0:0:
256,192,285400,5,8,0:0:0:0:
256,192,285454,5,8,0:0:0:0:
256,192,285507,5,0,0:0:0:0:
256,192,285614,5,8,0:0:0:0:
256,192,285722,5,0,0:0:0:0:
256,192,285829,5,8,0:0:0:0:
256,192,285936,5,0,0:0:0:0:
256,192,285989,5,0,0:0:0:0:
256,192,286043,5,8,0:0:0:0:
256,192,286097,5,0,0:0:0:0:
256,192,286150,5,8,0:0:0:0:
256,192,286257,5,0,0:0:0:0:
256,192,286364,5,0,0:0:0:0:
256,192,286472,5,8,0:0:0:0:
256,192,286579,5,0,0:0:0:0:
256,192,286632,5,0,0:0:0:0:
256,192,286686,5,8,0:0:0:0:
256,192,286793,5,0,0:0:0:0:
256,192,286900,5,8,0:0:0:0:
256,192,287007,5,0,0:0:0:0:
256,192,287114,5,8,0:0:0:0:
256,192,287168,5,8,0:0:0:0:
256,192,287222,5,8,0:0:0:0:
256,192,287275,5,8,0:0:0:0:
256,192,287329,5,0,0:0:0:0:
256,192,287436,5,0,0:0:0:0:
256,192,287543,5,8,0:0:0:0:
256,192,287650,5,0,0:0:0:0:
256,192,287704,5,0,0:0:0:0:
256,192,287757,5,8,0:0:0:0:
256,192,287864,5,0,0:0:0:0:
256,192,287972,5,8,0:0:0:0:
256,192,288025,5,8,0:0:0:0:
256,192,288079,5,0,0:0:0:0:
256,192,288132,5,0,0:0:0:0:
256,192,288186,5,8,0:0:0:0:
256,192,288293,5,0,0:0:0:0:
256,192,288400,5,8,0:0:0:0:
256,192,288507,5,0,0:0:0:0:
256,192,288614,5,8,0:0:0:0:
256,192,288668,5,0,0:0:0:0:
256,192,288722,5,0,0:0:0:0:
256,192,288775,5,0,0:0:0:0:
256,192,288829,5,8,0:0:0:0:
256,192,288936,5,0,0:0:0:0:
256,192,289043,5,8,0:0:0:0:
256,192,289150,5,8,0:0:0:0:
256,192,289257,5,0,0:0:0:0:
256,192,289364,5,0,0:0:0:0:
256,192,289472,5,8,0:0:0:0:
256,192,289579,5,0,0:0:0:0:
256,192,289632,5,0,0:0:0:0:
256,192,289686,5,0,0:0:0:0:
256,192,289793,5,0,0:0:0:0:
256,192,289900,5,8,0:0:0:0:
256,192,290007,5,0,0:0:0:0:
256,192,290114,5,8,0:0:0:0:
256,192,290168,5,8,0:0:0:0:
256,192,290222,5,0,0:0:0:0:
256,192,290329,5,8,0:0:0:0:
256,192,290436,5,8,0:0:0:0:
256,192,290543,5,8,0:0:0:0:
256,192,290597,5,8,0:0:0:0:
256,192,290650,5,0,0:0:0:0:
256,192,290704,5,0,0:0:0:0:
256,192,290757,5,0,0:0:0:0:
256,192,290864,5,0,0:0:0:0:
256,192,290972,5,8,0:0:0:0:
256,192,291079,5,8,0:0:0:0:
256,192,291186,5,0,0:0:0:0:
256,192,291293,5,0,0:0:0:0:
256,192,291400,5,8,0:0:0:0:
256,192,291454,5,8,0:0:0:0:
256,192,291507,5,0,0:0:0:0:
256,192,291614,5,0,0:0:0:0:
256,192,291722,5,0,0:0:0:0:
256,192,291775,5,0,0:0:0:0:
256,192,291829,5,8,0:0:0:0:
256,192,291936,5,8,0:0:0:0:
256,192,292043,5,0,0:0:0:0:
256,192,292150,5,0,0:0:0:0:
256,192,292257,5,8,0:0:0:0:
256,192,292364,5,0,0:0:0:0:
256,192,292418,5,0,0:0:0:0:
256,192,292472,5,8,0:0:0:0:
256,192,292525,5,0,0:0:0:0:
256,192,292579,5,8,0:0:0:0:
256,192,292686,5,0,0:0:0:0:
256,192,292793,5,0,0:0:0:0:
256,192,292900,5,8,0:0:0:0:
256,192,293007,5,0,0:0:0:0:
256,192,293114,5,0,0:0:0:0:
256,192,293222,5,0,0:0:0:0:
256,192,293329,5,8,0:0:0:0:
256,192,293382,5,8,0:0:0:0:
256,192,293436,5,0,0:0:0:0:
256,192,293543,5,0,0:0:0:0:
256,192,293650,5,0,0:0:0:0:
256,192,293757,5,8,0:0:0:0:
256,192,293864,5,0,0:0:0:0:
256,192,293972,5,8,0:0:0:0:
256,192,294025,5,8,0:0:0:0:
256,192,294079,5,8,0:0:0:0:
256,192,294186,5,0,0:0:0:0:
256,192,294293,5,0,0:0:0:0:
256,192,294347,5,0,0:0:0:0:
256,192,294400,5,8,0:0:0:0:
256,192,294507,5,0,0:0:0:0:
256,192,294614,5,8,0:0:0:0:
256,192,294722,5,0,0:0:0:0:
256,192,294775,5,0,0:0:0:0:
256,192,294829,5,8,0:0:0:0:
256,192,294936,5,0,0:0:0:0:
256,192,295043,5,8,0:0:0:0:
256,192,295150,5,0,0:0:0:0:
256,192,295257,5,8,0:0:0:0:
256,192,295364,5,8,0:0:0:0:
256,192,295472,5,8,0:0:0:0:
256,192,295579,5,8,0:0:0:0:
256,192,295686,5,4,0:0:0:0:
256,192,295793,5,0,0:0:0:0:
256,192,295900,5,8,0:0:0:0:
256,192,295954,1,8,0:0:0:0:
256,192,296007,5,8,0:0:0:0:
256,192,296114,5,0,0:0:0:0:
256,192,296222,5,0,0:0:0:0:
256,192,296329,5,8,0:0:0:0:
256,192,296436,5,0,0:0:0:0:
256,192,296489,1,0,0:0:0:0:
256,192,296543,5,0,0:0:0:0:
256,192,296650,5,0,0:0:0:0:
256,192,296757,5,8,0:0:0:0:
256,192,296864,5,8,0:0:0:0:
256,192,296918,1,8,0:0:0:0:
256,192,296972,5,0,0:0:0:0:
256,192,297079,5,0,0:0:0:0:
256,192,297186,5,8,0:0:0:0:
256,192,297293,5,0,0:0:0:0:
256,192,297400,5,8,0:0:0:0:
256,192,297454,1,0,0:0:0:0:
256,192,297507,1,0,0:0:0:0:
256,192,297614,5,0,0:0:0:0:
256,192,297722,5,8,0:0:0:0:
256,192,297829,5,8,0:0:0:0:
256,192,297936,5,0,0:0:0:0:
256,192,298043,5,8,0:0:0:0:
256,192,298097,1,8,0:0:0:0:
256,192,298150,5,0,0:0:0:0:
256,192,298257,5,0,0:0:0:0:
256,192,298364,5,0,0:0:0:0:
256,192,298472,5,8,0:0:0:0:
256,192,298579,5,0,0:0:0:0:
256,192,298686,5,0,0:0:0:0:
256,192,298793,5,0,0:0:0:0:
256,192,298900,5,8,0:0:0:0:
256,192,299007,5,8,0:0:0:0:
256,192,299114,5,0,0:0:0:0:
256,192,299168,1,0,0:0:0:0:
256,192,299222,5,0,0:0:0:0:
256,192,299329,5,8,0:0:0:0:
256,192,299436,5,0,0:0:0:0:
256,192,299543,5,8,0:0:0:0:
256,192,299650,5,0,0:0:0:0:
256,192,299704,1,0,0:0:0:0:
256,192,299757,5,8,0:0:0:0:
256,192,299811,1,0,0:0:0:0:
256,192,299864,5,8,0:0:0:0:
256,192,299972,5,0,0:0:0:0:
256,192,300079,5,0,0:0:0:0:
256,192,300186,5,8,0:0:0:0:
256,192,300293,5,0,0:0:0:0:
256,192,300400,5,8,0:0:0:0:
256,192,300507,5,0,0:0:0:0:
256,192,300614,5,8,0:0:0:0:
256,192,300722,5,0,0:0:0:0:
256,192,300829,5,8,0:0:0:0:
256,192,300883,1,8,0:0:0:0:
256,192,300936,5,0,0:0:0:0:
256,192,301043,5,8,0:0:0:0:
256,192,301150,5,0,0:0:0:0:
256,192,301257,5,8,0:0:0:0:
256,192,301364,5,8,0:0:0:0:
256,192,301472,5,0,0:0:0:0:
256,192,301579,5,0,0:0:0:0:
256,192,301686,5,8,0:0:0:0:
256,192,301739,1,8,0:0:0:0:
256,192,301793,5,8,0:0:0:0:
256,192,301900,5,0,0:0:0:0:
256,192,302007,5,0,0:0:0:0:
256,192,302114,5,8,0:0:0:0:
256,192,302222,5,8,0:0:0:0:
256,192,302329,5,0,0:0:0:0:
256,192,302436,5,0,0:0:0:0:
256,192,302489,1,0,0:0:0:0:
256,192,302543,5,8,0:0:0:0:
256,192,302650,5,0,0:0:0:0:
256,192,302757,5,8,0:0:0:0:
256,192,302864,5,0,0:0:0:0:
256,192,302972,5,0,0:0:0:0:
256,192,303079,5,0,0:0:0:0:
256,192,303186,5,8,0:0:0:0:
256,192,303293,5,8,0:0:0:0:
256,192,303400,5,0,0:0:0:0:
256,192,303507,5,0,0:0:0:0:
256,192,303614,5,8,0:0:0:0:
256,192,303668,1,8,0:0:0:0:
256,192,303722,5,0,0:0:0:0:
256,192,303829,5,8,0:0:0:0:
256,192,303936,5,8,0:0:0:0:
256,192,304043,5,8,0:0:0:0:
256,192,304150,5,0,0:0:0:0:
256,192,304257,5,8,0:0:0:0:
256,192,304311,5,0,0:0:0:0:
256,192,304364,5,0,0:0:0:0:
256,192,304418,5,0,0:0:0:0:
256,192,304472,5,8,0:0:0:0:
256,192,304579,5,0,0:0:0:0:
256,192,304686,5,8,0:0:0:0:
256,192,304793,5,0,0:0:0:0:
256,192,304900,5,0,0:0:0:0:
256,192,305007,5,8,0:0:0:0:
256,192,305114,5,8,0:0:0:0:
256,192,305221,5,0,0:0:0:0:
256,192,305329,5,8,0:0:0:0:
256,192,305436,5,0,0:0:0:0:
256,192,305543,5,8,0:0:0:0:
256,192,305650,5,8,0:0:0:0:
256,192,305757,5,8,0:0:0:0:
256,192,305864,5,8,0:0:0:0:
256,192,305971,5,0,0:0:0:0:
256,192,308976,5,12,0:0:0:0:
256,192,309083,5,12,0:0:0:0:
256,192,309190,5,12,0:0:0:0:
256,192,309297,5,12,0:0:0:0:
256,192,309511,5,12,0:0:0:0:
256,192,309618,5,12,0:0:0:0:
256,192,309833,5,12,0:0:0:0:
256,192,309940,5,12,0:0:0:0:
256,192,310047,5,12,0:0:0:0:
256,192,310261,5,12,0:0:0:0:
256,192,310368,5,12,0:0:0:0:
256,192,310475,5,12,0:0:0:0:
256,192,310582,5,12,0:0:0:0:
256,192,310796,5,12,0:0:0:0:
256,192,310903,5,12,0:0:0:0:
256,192,311118,5,12,0:0:0:0:
256,192,311225,5,12,0:0:0:0:
256,192,311332,5,12,0:0:0:0:
256,192,311546,5,12,0:0:0:0:
256,192,311653,5,12,0:0:0:0:
256,192,311761,5,12,0:0:0:0:
256,192,311975,5,0,0:0:0:0:
256,192,312082,5,0,0:0:0:0:
256,192,312189,5,0,0:0:0:0:
256,192,312296,5,0,0:0:0:0:
256,192,312510,5,0,0:0:0:0:
256,192,312617,5,0,0:0:0:0:
256,192,312832,5,0,0:0:0:0:
256,192,312939,5,0,0:0:0:0:
256,192,313046,5,0,0:0:0:0:
256,192,313260,5,0,0:0:0:0:
256,192,313367,5,0,0:0:0:0:
256,192,313474,5,0,0:0:0:0:
256,192,313581,5,0,0:0:0:0:
256,192,313795,5,0,0:0:0:0:
256,192,313902,5,0,0:0:0:0:
256,192,314117,5,0,0:0:0:0:
256,192,314224,5,0,0:0:0:0:
256,192,314331,5,0,0:0:0:0:
256,192,314545,5,0,0:0:0:0:
256,192,314652,5,0,0:0:0:0:
256,192,314760,5,0,0:0:0:0:
256,192,314974,5,8,0:0:0:0:
256,192,315081,5,8,0:0:0:0:
256,192,315188,5,8,0:0:0:0:
256,192,315295,5,4,0:0:0:0:
256,192,315509,5,8,0:0:0:0:
256,192,315616,5,4,0:0:0:0:
256,192,315831,5,8,0:0:0:0:
256,192,315938,5,8,0:0:0:0:
256,192,316045,5,4,0:0:0:0:
256,192,316259,5,8,0:0:0:0:
256,192,316366,5,8,0:0:0:0:
256,192,316473,5,0,0:0:0:0:
256,192,316580,5,4,0:0:0:0:
256,192,316794,5,8,0:0:0:0:
256,192,316901,5,4,0:0:0:0:
256,192,317116,5,8,0:0:0:0:
256,192,317223,5,8,0:0:0:0:
256,192,317330,5,4,0:0:0:0:
256,192,317544,5,8,0:0:0:0:
256,192,317651,5,0,0:0:0:0:
256,192,317759,5,4,0:0:0:0:
256,192,317973,5,8,0:0:0:0:
256,192,318026,5,8,0:0:0:0:
256,192,318080,5,8,0:0:0:0:
256,192,318133,5,8,0:0:0:0:
256,192,318187,5,0,0:0:0:0:
256,192,318240,5,0,0:0:0:0:
256,192,318294,5,8,0:0:0:0:
256,192,318508,5,8,0:0:0:0:
256,192,318615,5,4,0:0:0:0:
256,192,318830,5,8,0:0:0:0:
256,192,318937,5,8,0:0:0:0:
256,192,319044,5,4,0:0:0:0:
256,192,319258,5,8,0:0:0:0:
256,192,319365,5,8,0:0:0:0:
256,192,319472,5,0,0:0:0:0:
256,192,319579,5,4,0:0:0:0:
256,192,319793,5,8,0:0:0:0:
256,192,319900,5,4,0:0:0:0:
256,192,320115,5,8,0:0:0:0:
256,192,320222,5,0,0:0:0:0:
256,192,320329,5,4,0:0:0:0:
256,192,320543,5,8,0:0:0:0:
256,192,320650,5,8,0:0:0:0:
256,192,320758,5,12,0:0:0:0:
256,192,320972,5,0,0:0:0:0:
256,192,321079,5,8,0:0:0:0:
256,192,321186,5,8,0:0:0:0:
256,192,321293,5,4,0:0:0:0:
256,192,321507,5,8,0:0:0:0:
256,192,321614,5,4,0:0:0:0:
256,192,321829,5,8,0:0:0:0:
256,192,321936,5,8,0:0:0:0:
256,192,322043,5,4,0:0:0:0:
256,192,322257,5,8,0:0:0:0:
256,192,322364,5,8,0:0:0:0:
256,192,322471,5,8,0:0:0:0:
256,192,322578,5,4,0:0:0:0:
256,192,322792,5,8,0:0:0:0:
256,192,322899,5,4,0:0:0:0:
256,192,323114,5,8,0:0:0:0:
256,192,323221,5,0,0:0:0:0:
256,192,323328,5,12,0:0:0:0:
256,192,323542,5,8,0:0:0:0:
256,192,323649,5,8,0:0:0:0:
256,192,323757,5,4,0:0:0:0:
256,192,323971,5,12,0:0:0:0:
256,192,324078,5,12,0:0:0:0:
256,192,324185,5,12,0:0:0:0:
256,192,324292,5,12,0:0:0:0:
256,192,324506,5,12,0:0:0:0:
256,192,324613,5,12,0:0:0:0:
256,192,324828,5,12,0:0:0:0:
256,192,324935,5,12,0:0:0:0:
256,192,325042,5,12,0:0:0:0:
256,192,325256,5,12,0:0:0:0:
256,192,325363,5,12,0:0:0:0:
256,192,325471,5,12,0:0:0:0:
256,192,325578,5,12,0:0:0:0:
256,192,325792,5,12,0:0:0:0:
256,192,325899,5,12,0:0:0:0:
256,192,326113,5,12,0:0:0:0:
256,192,326221,5,12,0:0:0:0:
256,192,326328,5,12,0:0:0:0:
256,192,326542,5,12,0:0:0:0:
256,192,326649,5,12,0:0:0:0:
256,192,326756,5,12,0:0:0:0:
