osu file format v14

[General]
AudioFilename: audio.mp3
AudioLeadIn: 0
PreviewTime: -1
Countdown: 1
SampleSet: None
StackLeniency: 0.7
Mode: 0
LetterboxInBreaks: 0
WidescreenStoryboard: 0

[Editor]
DistanceSpacing: 0.4
BeatDivisor: 2
GridSize: 16
TimelineZoom: 2.4

[Metadata]
Title:Gekiai No Yobigoe Ga Dekiai No Sakebigoe Wo Kurau
TitleUnicode:Gekiai No Y劇愛の呼声が溺哀の叫声を喰らうobigoe Ga Dekiai No Sakebigoe Wo Kurau
Artist:Imperial Circus
ArtistUnicode:Imperial Circus
Creator:killerwolf741
Version:Insane
Source:
Tags:
BeatmapID:2103763
BeatmapSetID:1005195

[Difficulty]
HPDrainRate:6
CircleSize:4
OverallDifficulty:7
ApproachRate:9.5
SliderMultiplier:2.6
SliderTickRate:1

[Events]
//Background and Video events
//Break Periods
//Storyboard Layer 0 (Background)
//Storyboard Layer 1 (Fail)
//Storyboard Layer 2 (Pass)
//Storyboard Layer 3 (Foreground)
//Storyboard Sound Samples

[TimingPoints]
191,285.714285714286,4,3,0,100,1,0
18476,-133.333333333333,4,3,0,100,0,0
20476,-100,4,3,0,100,0,0

[Colours]
Combo1 : 144,144,144
Combo2 : 0,0,255
Combo3 : 128,0,255
Combo4 : 0,128,64

[HitObjects]
395,90,191,6,0,P|351:176|286:204,1,130
197,243,476,1,0,0:0:0:0:
227,32,619,5,0,0:0:0:0:
227,32,691,1,0,0:0:0:0:
227,32,762,2,0,P|268:99|330:103,1,130
434,57,1048,2,0,L|278:121,1,130
367,186,1333,5,0,0:0:0:0:
371,192,1404,1,0,0:0:0:0:
371,192,1475,1,0,0:0:0:0:
159,125,1618,1,0,0:0:0:0:
234,313,1761,1,0,0:0:0:0:
319,50,1905,2,0,L|293:205,1,130
90,166,2191,2,0,L|219:272,1,130
317,322,2476,5,0,0:0:0:0:
390,125,2619,1,0,0:0:0:0:
190,248,2762,1,0,0:0:0:0:
433,97,2905,1,0,0:0:0:0:
291,283,3048,6,0,L|324:125,1,130
348,42,3333,1,0,0:0:0:0:
417,267,3476,1,0,0:0:0:0:
201,163,3619,6,0,P|289:177|336:115,1,130
125,116,3905,1,0,0:0:0:0:
216,291,4048,1,0,0:0:0:0:
207,74,4191,5,0,0:0:0:0:
207,74,4262,1,0,0:0:0:0:
207,74,4333,1,0,0:0:0:0:
289,261,4476,2,0,B|346:219|335:146,1,130
305,63,4762,1,0,0:0:0:0:
408,290,4905,1,0,0:0:0:0:
219,293,5048,1,0,0:0:0:0:
305,63,5191,1,0,0:0:0:0:
404,218,5333,6,0,P|362:108|321:82,1,130
176,294,5619,1,0,0:0:0:0:
250,38,5762,1,0,0:0:0:0:
314,301,5905,2,0,P|300:220|356:153,1,130
416,69,6191,1,0,0:0:0:0:
276,41,6333,1,0,0:0:0:0:
347,321,6476,5,0,0:0:0:0:
347,321,6548,1,0,0:0:0:0:
347,321,6619,1,0,0:0:0:0:
223,90,6762,1,0,0:0:0:0:
157,319,6905,1,0,0:0:0:0:
320,91,7048,2,0,P|226:176|170:166,1,130
53,190,7333,6,0,L|104:262,1,65
147,300,7476,2,0,P|182:243|159:127,1,130
151,57,7762,5,0,0:3:0:0:
282,196,7905,1,0,0:3:0:0:
318,29,8048,1,0,0:3:0:0:
258,105,8191,5,0,0:3:0:0:
401,141,8334,1,0,0:3:0:0:
277,267,8477,1,0,0:3:0:0:
258,105,8619,1,0,0:0:0:0:
303,95,8691,1,0,0:0:0:0:
343,101,8762,2,0,P|427:167|444:215,1,130
405,322,9048,2,0,L|310:217,1,130
207,98,9333,5,0,0:0:0:0:
161,303,9476,1,0,0:0:0:0:
386,103,9619,6,0,L|277:202,1,130
468,29,9905,1,0,0:0:0:0:
467,222,10048,1,0,0:0:0:0:
343,65,10191,1,0,0:0:0:0:
268,264,10333,1,0,0:0:0:0:
343,65,10476,6,0,L|219:160,1,130
91,241,10762,1,0,0:0:0:0:
78,39,10905,1,0,0:0:0:0:
178,244,11048,6,0,P|107:322|16:323,1,130
59,116,11333,2,0,L|101:250,1,130
161,36,11619,1,0,0:0:0:0:
230,277,11762,1,0,0:0:0:0:
41,102,11905,5,0,0:0:0:0:
41,102,11976,1,0,0:0:0:0:
41,102,12048,1,0,0:0:0:0:
273,159,12191,2,0,P|200:194|179:285,1,130
344,0,12476,2,0,P|408:109|394:137,1,130
343,333,12762,1,0,0:0:0:0:
470,93,12905,1,0,0:0:0:0:
227,262,13048,1,0,0:0:0:0:
301,31,13191,5,0,0:0:0:0:
346,304,13333,1,0,0:0:0:0:
386,32,13476,1,0,0:0:0:0:
278,226,13619,5,0,0:0:0:0:
464,60,13762,1,0,0:0:0:0:
182,216,13905,5,0,0:0:0:0:
182,216,14048,1,0,0:0:0:0:
316,32,14191,2,0,L|368:216,1,130
402,337,14476,1,0,0:0:0:0:
447,72,14619,1,0,0:0:0:0:
196,264,14762,2,0,L|319:163,1,130
162,144,15048,6,0,P|214:62|319:62,1,130
259,313,15333,6,0,P|315:186|304:152,1,130
310,7,15619,1,0,0:0:0:0:
465,163,15762,1,0,0:0:0:0:
222,98,15905,2,0,P|199:172|250:233,1,130
395,349,16191,5,0,0:0:0:0:
395,349,16333,1,0,0:0:0:0:
273,159,16476,1,0,0:0:0:0:
463,181,16619,1,0,0:0:0:0:
362,10,16762,2,0,L|340:168,1,130
320,336,17048,1,0,0:0:0:0:
209,67,17191,1,0,0:0:0:0:
443,223,17333,1,0,0:0:0:0:
163,221,17476,1,0,0:0:0:0:
307,27,17619,6,0,L|228:144,1,130
436,31,17905,1,0,0:0:0:0:
273,258,18048,1,0,0:0:0:0:
172,30,18191,1,0,0:0:0:0:
176,308,18333,1,0,0:0:0:0:
273,29,18476,6,0,B|257:145|183:198|93:162|87:64|191:77,1,292.50001115799,0|2,0:0|0:0,0:0:0:0:
266,325,19619,6,0,B|290:259|369:120|427:74|431:214|464:282|370:281|370:281|355:320|316:329,1,390
346,25,20476,5,4,0:0:0:0:
210,265,20762,5,4,0:0:0:0:
210,265,20905,1,4,0:0:0:0:
240,27,21048,2,0,L|329:170,1,130
164,83,21333,5,4,0:0:0:0:
358,228,21476,1,0,0:0:0:0:
164,229,21619,1,0,0:0:0:0:
323,68,21762,5,0,0:0:0:0:
358,228,21905,1,4,0:0:0:0:
465,98,22048,1,0,0:0:0:0:
247,39,22191,6,0,P|186:133|190:179,1,130,0|4,0:0|0:0,0:0:0:0:
201,298,22476,2,4,P|114:252|108:211,1,130,0|0,0:0|0:0,0:0:0:0:
106,47,22762,1,4,0:0:0:0:
246,200,22905,1,0,0:0:0:0:
240,41,23048,5,4,0:0:0:0:
346,266,23191,1,0,0:0:0:0:
341,38,23333,5,4,0:0:0:0:
244,268,23476,1,0,0:0:0:0:
408,106,23619,5,4,0:0:0:0:
154,222,23762,1,0,0:0:0:0:
273,27,23905,5,4,0:0:0:0:
334,245,24048,1,0,0:0:0:0:
162,82,24191,1,4,0:0:0:0:
383,108,24333,5,0,0:0:0:0:
196,260,24476,1,4,0:0:0:0:
276,39,24619,1,0,0:0:0:0:
344,278,24762,1,4,0:0:0:0:
437,42,24905,1,0,0:0:0:0:
200,233,25048,2,0,L|311:136,1,130,4|0,0:0|0:0,0:0:0:0:
419,49,25333,5,4,0:0:0:0:
419,49,25405,1,0,0:0:0:0:
419,49,25476,1,0,0:0:0:0:
406,256,25619,2,0,P|346:275|266:249,1,130
136,154,25905,6,0,P|189:95|260:109,1,130
408,147,26191,1,0,0:0:0:0:
202,242,26333,1,0,0:0:0:0:
