osu file format v14

[General]
AudioFilename: audio.ogg
AudioLeadIn: 0
PreviewTime: 84304
Countdown: 0
SampleSet: Normal
StackLeniency: 0.7
Mode: 1
LetterboxInBreaks: 0
WidescreenStoryboard: 0

[Editor]
Bookmarks: 13582,14988,17332,18738,21082,22488,24832,26238,28113,44519,48738,49675,49704,67004,294410,317367
DistanceSpacing: 1
BeatDivisor: 4
GridSize: 32
TimelineZoom: 4.099998

[Metadata]
Title:There Is No Light
TitleUnicode:There Is No Light
Artist:Immortal Disfigurement
ArtistUnicode:Immortal Disfigurement
Creator:HomieLove
Version:The Monstrosity
Source:
Tags:greenshell blackened symphonic deathcore death metal english screamo id lorna shore signs of the swarm harry tadayon josh freeman coop co-op tag2
BeatmapID:4188813
BeatmapSetID:2012893

[Difficulty]
HPDrainRate:4.4
CircleSize:3
OverallDifficulty:8.8
ApproachRate:10
SliderMultiplier:1.4
SliderTickRate:1

[Events]
//Background and Video events
0,0,"maxresdefault-2aOUXCrff-transformed-min.jpeg",0,0
//Break Periods
2,165118,169369
2,189610,194585
2,309610,311690
//Storyboard Layer 0 (Background)
//Storyboard Layer 1 (Fail)
//Storyboard Layer 2 (Pass)
//Storyboard Layer 3 (Foreground)
//Storyboard Layer 4 (Overlay)
//Storyboard Sound Samples

[TimingPoints]
-11,234.375,4,1,0,5,1,8
867,-500,4,1,0,5,0,8
1805,-400,4,1,0,10,0,8
2742,-333.333333333333,4,1,0,15,0,8
3680,-285.714285714286,4,1,0,20,0,8
4617,-250,4,1,0,25,0,8
5555,-222.222222222222,4,1,0,30,0,8
5672,-222.222222222222,4,1,0,30,0,8
5789,-222.222222222222,4,1,0,31,0,8
5906,-222.222222222222,4,1,0,31,0,8
6024,-222.222222222222,4,1,0,32,0,8
6141,-222.222222222222,4,1,0,33,0,8
6258,-222.222222222222,4,1,0,33,0,8
6375,-222.222222222222,4,1,0,33,0,8
6492,-200,4,1,0,34,0,8
6610,-200,4,1,0,35,0,8
6727,-200,4,1,0,35,0,8
6844,-200,4,1,0,36,0,8
6961,-200,4,1,0,36,0,8
7078,-200,4,1,0,36,0,8
7196,-200,4,1,0,37,0,8
7313,-200,4,1,0,38,0,8
7430,-181.818181818182,4,1,0,38,0,8
7547,-181.818181818182,4,1,0,39,0,8
7664,-181.818181818182,4,1,0,39,0,8
7781,-181.818181818182,4,1,0,39,0,8
7899,-181.818181818182,4,1,0,40,0,8
8016,-181.818181818182,4,1,0,41,0,8
8133,-181.818181818182,4,1,0,41,0,8
8250,-181.818181818182,4,1,0,42,0,8
8367,-166.666666666667,4,1,0,42,0,8
8426,234.375,4,1,0,45,1,0
8426,-166.666666666667,4,1,0,42,0,0
8484,-166.666666666667,4,1,0,42,0,0
8601,-166.666666666667,4,1,0,43,0,0
8718,-166.666666666667,4,1,0,43,0,0
8836,-166.666666666667,4,1,0,44,0,0
8953,-166.666666666667,4,1,0,45,0,0
9070,-166.666666666667,4,1,0,45,0,0
9334,-153.213054936144,4,1,0,45,0,0
9393,-151.940976619826,4,1,0,46,0,0
9451,-150.710881572913,4,1,0,46,0,0
9510,-149.479846525058,4,1,0,47,0,0
9568,-148.289122586721,4,1,0,47,0,0
9686,-145.924238328764,4,1,0,48,0,0
9744,-144.789272030651,4,1,0,49,0,0
9803,-143.652709406421,4,1,0,49,0,0
9861,-142.55266979762,4,1,0,50,0,0
9920,-141.450815990418,4,1,0,50,0,0
9979,-140.365864982821,4,1,0,51,0,0
10037,-139.315404324344,4,1,0,52,0,0
10096,-138.262842089858,4,1,0,52,0,0
10154,-137.243508262212,4,1,0,53,0,0
10213,-136.221905808986,4,1,0,53,0,0
10272,-135.215400028625,4,1,0,54,0,0
10330,-134.240346701716,4,1,0,54,0,0
10389,-133.262805254342,4,1,0,55,0,0
10447,-132.315610721101,4,1,0,55,0,0
10506,-131.365801091529,4,1,0,56,0,0
10623,-129.522046852775,4,1,0,57,0,0
10682,-128.611782323112,4,1,0,58,0,0
10740,-127.729331440546,4,1,0,58,0,0
10857,-125.985564501342,4,1,0,59,0,0
10916,-125.124163962651,4,1,0,60,0,0
10975,-124.27446273246,4,1,0,60,0,0
11033,-123.450337291541,4,1,0,61,0,0
11092,-122.623142319424,4,1,0,61,0,0
11150,-121.820702105026,4,1,0,62,0,0
11209,-121.015130894244,4,1,0,63,0,0
11268,-120.220143793345,4,1,0,63,0,0
11326,-119.448746720612,4,1,0,64,0,0
11385,-118.674140719456,4,1,0,64,0,0
11443,-117.922394021188,4,1,0,65,0,0
11502,-117.167395281059,4,1,0,65,0,0
11561,-116.422002803494,4,1,0,66,0,0
11619,-115.698430922312,4,1,0,66,0,0
11678,-114.971553743649,4,1,0,67,0,0
11736,-114.265844218674,4,1,0,67,0,0
11795,-113.556800937542,4,1,0,68,0,0
11854,-112.856502911752,4,1,0,69,0,0
11912,-112.176442650202,4,1,0,69,0,0
11971,-111.493015090944,4,1,0,70,0,0
12029,-110.829239680328,4,1,0,70,0,0
12088,-110.162080223881,4,1,0,71,0,0
12147,-109.502904912997,4,1,0,71,0,0
12205,-108.862546271623,4,1,0,72,0,0
12264,-108.218785796105,4,1,0,72,0,0
12322,-107.593314921846,4,1,0,73,0,0
12381,-106.964434820759,4,1,0,73,0,0
12439,-106.353338492929,4,1,0,74,0,0
12498,-105.738828730519,4,1,0,75,0,0
12557,-105.131379449444,4,1,0,75,0,0
12615,-104.540990635849,4,1,0,76,0,0
12732,-103.369987417255,4,1,0,77,0,0
12791,-102.789375620504,4,1,0,77,0,0
12850,-102.215249790376,4,1,0,78,0,0
12908,-101.6570721472,4,1,0,78,0,0
12967,-101.09549096454,4,1,0,79,0,0
13025,-100.54944323972,4,1,0,79,0,0
13084,-76.9230769230769,4,1,0,100,0,0
13113,234.375,4,1,0,100,1,8
13113,-76.9230769230769,4,1,0,100,0,0
13581,234.375,4,1,0,90,1,8
13582,234.375,6,1,0,90,1,0
13582,-86.9565217391304,4,1,0,100,0,1
13670,-91.7268897377266,4,1,0,90,0,1
13747,-92.6902483900035,4,1,0,90,0,1
13806,-93.691202496469,4,1,0,90,0,1
13864,-94.6964892967602,4,1,0,90,0,1
13923,-95.7414870430994,4,1,0,90,0,1
13982,-96.8098057269224,4,1,0,90,0,1
14040,-97.8835137244922,4,1,0,90,0,1
14099,-99.000449037751,4,1,0,90,0,1
14157,-100.123581105822,4,1,0,90,0,1
14216,-101.292528843952,4,1,0,90,0,1
14275,-102.489094062294,4,1,0,90,0,1
14333,-103.693257568126,4,1,0,90,0,1
14392,-104.947565572551,4,1,0,90,0,1
14450,-106.210547997116,4,1,0,90,0,1
14519,-107.52688172043,4,1,0,90,0,0
14988,234.375,10,1,0,90,1,0
14988,-90.9090909090909,10,1,0,90,0,1
15036,-91.4232775854503,10,1,0,90,0,1
15095,-91.9523319111373,10,1,0,90,0,1
15153,-92.4784217016029,10,1,0,90,0,1
15212,-93.0197946122935,10,1,0,90,0,1
15270,-93.5582056783594,10,1,0,90,0,1
15329,-94.1123324800482,10,1,0,90,0,1
15388,-94.6730623579904,10,1,0,90,0,1
15446,-95.2308395550815,10,1,0,90,0,1
15505,-95.8050176281233,10,1,0,90,0,1
15563,-96.3762528912876,10,1,0,90,0,1
15622,-96.9643688266018,10,1,0,90,0,1
15681,-97.5597065404027,10,1,0,90,0,1
15739,-98.1521227032403,10,1,0,90,0,1
15798,-98.7621806689492,10,1,0,90,0,1
15856,-99.369335947851,10,1,0,90,0,1
15915,-99.9946669510959,10,1,0,90,0,1
15974,-100.627918209628,10,1,0,90,0,1
16032,-101.258303180861,10,1,0,90,0,1
16091,-101.907712375673,10,1,0,90,0,1
16149,-102.554285401739,10,1,0,90,0,1
16208,-103.220478943022,10,1,0,90,0,1
16267,-103.895384274395,10,1,0,90,0,1
16325,-104.567508783671,10,1,0,90,0,1
16384,-105.260203222366,10,1,0,90,0,1
16442,-105.950161044245,10,1,0,90,0,1
16501,-106.661357301325,10,1,0,90,0,1
16560,-107.382165969876,10,1,0,90,0,1
16618,-108.100317094264,10,1,0,90,0,1
16677,-108.840773204853,10,1,0,90,0,1
16735,-109.578633627491,10,1,0,90,0,1
16794,-110.339551580062,10,1,0,90,0,1
16863,-83.3333333333333,10,1,0,90,0,0
17331,234.375,6,1,0,90,1,8
17332,234.375,6,1,0,90,1,0
17332,-90.9090909090909,6,1,0,90,0,1
17380,-91.787155675718,6,1,0,90,0,1
17439,-92.6979353191994,6,1,0,90,0,1
17497,-93.6110694839902,6,1,0,90,0,1
17556,-94.5585920155007,6,1,0,90,0,1
17614,-95.5089393105416,6,1,0,90,0,1
17673,-96.495473878253,6,1,0,90,0,1
17732,-97.5026014568158,6,1,0,90,0,1
17790,-98.5133629118742,6,1,0,90,0,1
17849,-99.563281656767,6,1,0,90,0,1
17907,-100.61744966443,6,1,0,90,0,1
17966,-101.712945876121,6,1,0,90,0,1
18025,-102.832559619838,6,1,0,90,0,1
18083,-103.957485049871,6,1,0,90,0,1
18142,-105.127342084595,6,1,0,90,0,1
18200,-106.303321836994,6,1,0,90,0,1
18269,-107.52688172043,6,1,0,90,0,0
18738,234.375,10,1,0,90,1,0
18738,-90.9090909090909,10,1,0,90,0,1
18795,-91.4750163435362,10,1,0,90,0,1
18854,-92.057974429977,10,1,0,90,0,1
18912,-92.6383399209486,10,1,0,90,0,1
18971,-93.236268162425,10,1,0,90,0,1
19029,-93.8316335211634,10,1,0,90,0,1
19088,-94.4451160541586,10,1,0,90,0,1
19147,-95.0666734269634,10,1,0,90,0,1
19205,-95.6857221592823,10,1,0,90,0,1
19264,-96.3237711655433,10,1,0,90,0,1
19322,-96.9593546385355,10,1,0,90,0,1
19381,-97.6145604481419,10,1,0,90,0,1
19440,-98.2786816504529,10,1,0,90,0,1
19498,-98.9404141249973,10,1,0,90,0,1
19557,-99.622761808618,10,1,0,90,0,1
19615,-100.302780660554,10,1,0,90,0,1
19674,-101.004115581029,10,1,0,90,0,1
19733,-101.715327279237,10,1,0,90,0,1
19791,-102.424315259311,10,1,0,90,0,1
19850,-103.155740410642,10,1,0,90,0,1
19908,-103.885022827002,10,1,0,90,0,1
19967,-104.637535576762,10,1,0,90,0,1
20026,-105.401029838329,10,1,0,90,0,1
20084,-106.162522081805,10,1,0,90,0,1
20143,-106.94851641018,10,1,0,90,0,1
20201,-107.732616265039,10,1,0,90,0,1
20260,-108.542120131524,10,1,0,90,0,1
20319,-109.363881338731,10,1,0,90,0,1
20377,-110.183933713345,10,1,0,90,0,1
20494,-111.876178429079,10,1,0,90,0,1
20613,-76.9230769230769,10,1,0,90,0,0
21081,234.375,6,1,0,90,1,8
21082,234.375,6,1,0,90,1,0
21082,-86.9565217391304,6,1,0,90,0,1
21179,-91.2448403215294,6,1,0,90,0,1
21247,-92.2326899005205,6,1,0,90,0,1
21306,-93.2597617435135,6,1,0,90,0,1
21364,-94.2919683448392,6,1,0,90,0,1
21423,-95.3656819781567,6,1,0,90,0,1
21482,-96.4641302725112,6,1,0,90,0,1
21540,-97.5689080413042,6,1,0,90,0,1
21599,-98.7190034081561,6,1,0,90,0,1
21657,-99.8763435746219,6,1,0,90,0,1
21716,-101.081816103296,6,1,0,90,0,1
21775,-102.316743404224,6,1,0,90,0,1
21833,-103.56050892593,6,1,0,90,0,1
21892,-104.857132157436,6,1,0,90,0,1
21950,-106.163820886468,6,1,0,90,0,1
22019,-107.52688172043,6,1,0,90,0,0
22488,234.375,10,1,0,90,1,0
22488,-90.9090909090909,10,1,0,90,0,1
22545,-91.6046198041859,10,1,0,90,0,1
22604,-92.3231457819401,10,1,0,90,0,1
22662,-93.0405656866394,10,1,0,90,0,1
22721,-93.781885841186,10,1,0,90,0,1
22779,-94.5222467559965,10,1,0,90,0,1
22838,-95.2874632190392,10,1,0,90,0,1
22897,-96.065170611743,10,1,0,90,0,1
22955,-96.8421705041991,10,1,0,90,0,1
23014,-97.6455700157795,10,1,0,90,0,1
23072,-98.4484523903284,10,1,0,90,0,1
23131,-99.2788385170124,10,1,0,90,0,1
23190,-100.123351969627,10,1,0,90,0,1
23248,-100.967674189432,10,1,0,90,0,1
23307,-101.841290532834,10,1,0,90,0,1
23365,-102.714961872206,10,1,0,90,0,1
23424,-103.619211830827,10,1,0,90,0,1
23483,-104.539524303349,10,1,0,90,0,1
23541,-105.460313174946,10,1,0,90,0,1
23600,-106.413770793251,10,1,0,90,0,1
23658,-107.368023225851,10,1,0,90,0,1
23717,-108.356449375867,10,1,0,90,0,1
23776,-109.363243451329,10,1,0,90,0,1
23834,-110.371377611387,10,1,0,90,0,1
23893,-111.416143753565,10,1,0,90,0,1
23951,-112.462662396084,10,1,0,90,0,1
24010,-113.547590065948,10,1,0,90,0,1
24069,-114.653654241268,10,1,0,90,0,1
24127,-115.762178181145,10,1,0,90,0,1
24186,-116.912026038646,10,1,0,90,0,1
24244,-118.064869561932,10,1,0,90,0,1
24303,-119.261153303057,10,1,0,90,0,1
24363,-83.3333333333333,10,1,0,90,0,0
24831,234.375,6,1,0,90,1,8
24832,234.375,6,1,0,90,1,0
24832,-90.9090909090909,6,1,0,90,0,1
24880,-91.787155675718,6,1,0,90,0,1
24939,-92.6979353191994,6,1,0,90,0,1
24997,-93.6110694839902,6,1,0,90,0,1
25056,-94.5585920155007,6,1,0,90,0,1
25114,-95.5089393105416,6,1,0,90,0,1
25173,-96.495473878253,6,1,0,90,0,1
25232,-97.5026014568158,6,1,0,90,0,1
25290,-98.5133629118742,6,1,0,90,0,1
25349,-99.563281656767,6,1,0,90,0,1
25407,-100.61744966443,6,1,0,90,0,1
25466,-101.712945876121,6,1,0,90,0,1
25525,-102.832559619838,6,1,0,90,0,1
25583,-103.957485049871,6,1,0,90,0,1
25642,-105.127342084595,6,1,0,90,0,1
25700,-106.303321836994,6,1,0,90,0,1
25769,-107.52688172043,6,1,0,90,0,0
26238,234.375,8,1,0,90,1,0
26238,-90.9090909090909,8,1,0,90,0,1
26295,-91.4750163435362,8,1,0,90,0,1
26354,-92.057974429977,8,1,0,90,0,1
26412,-92.6383399209486,8,1,0,90,0,1
26471,-93.236268162425,8,1,0,90,0,1
26529,-93.8316335211634,8,1,0,90,0,1
26588,-94.4451160541586,8,1,0,90,0,1
26647,-95.0666734269634,8,1,0,90,0,1
26705,-95.6857221592823,8,1,0,90,0,1
26764,-96.3237711655433,8,1,0,90,0,1
26822,-96.9593546385355,8,1,0,90,0,1
26881,-97.6145604481419,8,1,0,90,0,1
26940,-98.2786816504529,8,1,0,90,0,1
26998,-98.9404141249973,8,1,0,90,0,1
27057,-99.622761808618,8,1,0,90,0,1
27115,-100.302780660554,8,1,0,90,0,1
27174,-101.004115581029,8,1,0,90,0,1
27233,-101.715327279237,8,1,0,90,0,1
27291,-102.424315259311,8,1,0,90,0,1
27350,-103.155740410642,8,1,0,90,0,1
27408,-103.885022827002,8,1,0,90,0,1
27467,-104.637535576762,8,1,0,90,0,1
27526,-105.401029838329,8,1,0,90,0,1
27584,-106.162522081805,8,1,0,90,0,1
27644,-106.94851641018,8,1,0,90,0,0
27701,-107.732616265039,8,1,0,90,0,0
27760,-108.542120131524,8,1,0,90,0,0
27819,-109.363881338731,8,1,0,90,0,0
27877,-110.183933713345,8,1,0,90,0,0
27936,-111.030839926098,8,1,0,90,0,0
27994,-111.876178429079,8,1,0,90,0,0
28053,-112.749401676508,8,1,0,90,0,0
28113,234.375,4,1,0,90,1,0
28113,-95.2380952380952,4,1,0,90,0,1
34665,-95.2380952380952,4,1,0,90,0,1
34724,-96.3929709176857,4,1,0,90,0,1
34782,-97.5559022360895,4,1,0,90,0,1
34841,-98.7680320101085,4,1,0,90,0,1
34899,-99.9893401556337,4,1,0,90,0,1
34958,-101.263089711757,4,1,0,90,0,1
35017,-102.569710224166,4,1,0,90,0,1
35075,-103.887473695869,4,1,0,90,0,1
35134,-105.263157894737,4,1,0,90,0,1
35192,-106.651506537806,4,1,0,90,0,1
35251,-108.101878529446,4,1,0,90,0,1
35310,-109.592242084356,4,1,0,90,0,1
35368,-111.097950965297,4,1,0,90,0,1
35427,-112.672672672673,4,1,0,90,0,1
35485,-114.264831282738,4,1,0,90,0,1
35544,-115.931281670993,4,1,0,90,0,1
35603,-117.647058823529,4,1,0,90,0,1
41228,-117.647058823529,4,1,0,90,0,1
41286,-117.008330993167,4,1,0,90,0,1
41345,-116.365667473469,4,1,0,90,0,1
41462,-115.111888755871,4,1,0,90,0,1
41579,-113.884839650146,4,1,0,90,0,1
41638,-113.275940190304,4,1,0,90,0,1
41696,-112.683674389255,4,1,0,90,0,1
41813,-111.507582515611,4,1,0,90,0,1
41931,-110.34604519774,4,1,0,90,0,1
42048,-109.217999126256,4,1,0,90,0,1
42165,-108.112783255492,4,1,0,90,0,1
42224,-107.563892952414,4,1,0,90,0,1
42282,-107.029711447898,4,1,0,90,0,1
42399,-105.968124788064,4,1,0,90,0,1
42517,-104.918583179453,4,1,0,90,0,1
42575,-104.410290678249,4,1,0,90,0,1
42634,-103.898262821046,4,1,0,90,0,1
42692,-103.399784928447,4,1,0,90,0,1
42751,-102.89759631215,4,1,0,90,0,1
42810,-102.400262144671,4,1,0,90,0,1
42868,-101.916021198532,4,1,0,90,0,1
42927,-101.428107757222,4,1,0,90,0,1
42985,-100.95299628493,4,1,0,90,0,1
43044,-100.474238405273,4,1,0,90,0,1
43113,468.75,4,1,0,90,1,0
43113,-50,4,1,0,90,0,0
43337,-52.7905867387502,4,1,0,90,0,0
43571,-55.9110811721118,4,1,0,90,0,0
43777,-58.8235294117647,4,1,0,90,0,0
46823,-50.4297994269341,4,1,0,90,0,0
47087,-53.1000150852316,4,1,0,90,0,0
47321,-56.0695262125035,4,1,0,90,0,0
47468,-56.9045617074766,4,1,0,90,0,0
47566,-57.7589052162819,4,1,0,90,0,0
47790,-58.8235294117647,4,1,0,90,0,0
50613,234.375,4,1,0,90,1,0
50613,-93.0232558139535,4,1,0,90,0,1
64665,-93.0232558139535,4,1,0,90,0,1
64724,-92.3478303674715,4,1,0,90,0,1
64782,-91.6933453896723,4,1,0,90,0,1
64841,-91.0370262532149,4,1,0,90,0,1
64899,-90.4009252120278,4,1,0,90,0,1
65017,-89.1338433030836,4,1,0,90,0,1
65134,-87.9120879120879,4,1,0,90,0,1
65251,-86.7233727810651,4,1,0,90,0,1
65368,-85.5663755159753,4,1,0,90,0,1
65485,-84.4398433631903,4,1,0,90,0,1
65613,-71.4285714285714,4,1,0,90,0,0
65730,-142.857142857143,4,1,0,90,0,0
67468,-105.263157894737,4,1,0,90,0,0
70290,-105.263157894737,4,1,0,90,0,0
70349,-105.964753727971,4,1,0,90,0,0
70407,-106.663634296111,4,1,0,90,0,0
70466,-107.384087006296,4,1,0,90,0,0
70524,-108.101878529446,4,1,0,90,0,0
70583,-108.841958691112,4,1,0,90,0,0
70642,-109.592242084356,4,1,0,90,0,0
70700,-110.339960004705,4,1,0,90,0,0
70759,-111.111111111111,4,1,0,90,0,0
70876,-112.672672672673,4,1,0,90,0,0
70993,-114.278752436647,4,1,0,90,0,0
71110,-115.931281670993,4,1,0,90,0,0
71228,-117.647058823529,4,1,0,90,0,0
73103,-117.647058823529,4,1,0,90,0,0
73220,-115.944717558668,4,1,0,90,0,0
73337,-114.290939014355,4,1,0,90,0,0
73454,-112.683674389255,4,1,0,90,0,0
73571,-111.120988532314,4,1,0,90,0,0
73688,-109.601052170101,4,1,0,90,0,0
73806,-108.109666445643,4,1,0,90,0,0
73923,-106.670459394112,4,1,0,90,0,0
74040,-105.269067737136,4,1,0,90,0,0
74157,-103.904020392896,4,1,0,90,0,0
74274,-102.573921606171,4,1,0,90,0,0
74392,-101.26650644055,4,1,0,90,0,0
74509,-100.00266673778,4,1,0,90,0,0
74626,-98.7699844601891,4,1,0,90,0,0
74685,-98.1598303798131,4,1,0,90,0,0
74743,-97.5673214518017,4,1,0,90,0,0
74860,-96.3935943243452,4,1,0,90,0,0
74988,-95.2380952380952,4,1,0,90,0,1
80603,-95.2380952380952,4,1,0,90,0,1
80661,-94.8190851854661,4,1,0,90,0,1
80720,-94.396616825253,4,1,0,90,0,1
80778,-93.984962406015,4,1,0,90,0,1
80837,-93.5698779848791,4,1,0,90,0,1
80895,-93.1653871953492,4,1,0,90,0,1
80954,-92.7574948055803,4,1,0,90,0,1
81013,-92.3531584780199,4,1,0,90,0,1
81071,-91.9590965938351,4,1,0,90,0,1
81130,-91.5616759449165,4,1,0,90,0,1
81188,-91.1743253099927,4,1,0,90,0,1
81247,-90.7836444186215,4,1,0,90,0,1
81306,-90.3962973676598,4,1,0,90,0,1
81364,-90.0187238945701,4,1,0,90,0,1
81423,-89.6378630333453,4,1,0,90,0,1
81481,-89.266585731629,4,1,0,90,0,1
81540,-88.8920494950932,4,1,0,90,0,1
81599,-88.5206430139508,4,1,0,90,0,1
81657,-88.1585443261161,4,1,0,90,0,1
81716,-87.7932293861497,4,1,0,90,0,1
81774,-87.4370453273643,4,1,0,90,0,1
81833,-87.0776732845698,4,1,0,90,0,1
81892,-86.721243235743,4,1,0,90,0,1
81950,-86.3736871199558,4,1,0,90,0,1
82009,-86.0229853416833,4,1,0,90,0,1
82067,-85.6809925286175,4,1,0,90,0,1
82126,-85.3358820316767,4,1,0,90,0,1
82185,-84.9935404909227,4,1,0,90,0,1
82243,-84.6596681341009,4,1,0,90,0,1
82302,-84.3227199136535,4,1,0,90,0,1
82360,-83.9940868162881,4,1,0,90,0,1
82419,-83.6624054614818,4,1,0,90,0,1
82488,-83.3333333333333,4,1,0,90,0,0
82595,-85.1048366583088,4,1,0,90,0,0
82712,-86.953293235316,4,1,0,90,0,0
82770,-87.8997147575439,4,1,0,90,0,0
82829,-88.8838286082963,4,1,0,90,0,0
82888,-89.8902279880249,4,1,0,90,0,0
82946,-90.9020338456761,4,1,0,90,0,0
83005,-91.9549255958224,4,1,0,90,0,0
83063,-93.0140196195242,4,1,0,90,0,0
83122,-94.1167014949365,4,1,0,90,0,0
83181,-95.2458416365041,4,1,0,90,0,0
83298,-97.5670721546409,4,1,0,90,0,0
83356,-98.7602260268196,4,1,0,90,0,0
83415,-100.004270037149,4,1,0,90,0,0
83474,-101.280055353745,4,1,0,90,0,0
83532,-102.566348427783,4,1,0,90,0,0
83649,-105.263157894737,4,1,0,90,0,0
83708,-104.11505897142,4,1,0,90,0,0
83767,-102.99173432814,4,1,0,90,0,0
83825,-101.910828025478,4,1,0,90,0,0
83884,-100.834318043471,4,1,0,90,0,0
83942,-99.7979941170217,4,1,0,90,0,0
84001,-98.7654320987654,4,1,0,90,0,0
84060,-97.7540181205957,4,1,0,90,0,0
84118,-96.7797367426195,4,1,0,90,0,0
84177,-95.8083832335329,4,1,0,90,0,0
84235,-94.872313186443,4,1,0,90,0,0
84363,-93.0232558139535,4,1,0,90,0,1
87165,-93.0232558139535,4,1,0,90,0,1
87224,-93.4332743979879,4,1,0,90,0,1
87282,-93.8398819498287,4,1,0,90,0,1
87341,-94.2571471637442,4,1,0,90,0,1
87399,-94.6709729511506,4,1,0,90,0,1
87458,-95.095678621214,4,1,0,90,0,1
87517,-95.524212027089,4,1,0,90,0,1
87575,-95.949263502455,4,1,0,90,0,1
87634,-96.3855421686747,4,1,0,90,0,1
87692,-96.8183108404511,4,1,0,90,0,1
87751,-97.2625466611365,4,1,0,90,0,1
87810,-97.710877887445,4,1,0,90,0,1
87868,-98.1556572923479,4,1,0,90,0,1
87927,-98.6122792262405,4,1,0,90,0,1
87985,-99.0653218566827,4,1,0,90,0,1
88044,-99.5304666153805,4,1,0,90,0,1
88103,-100,4,1,0,90,0,1
88220,-98.7673830594184,4,1,0,90,0,1
88278,-98.1675392670157,4,1,0,90,0,1
88337,-97.5647830159226,4,1,0,90,0,1
88454,-96.3911165946946,4,1,0,90,0,1
88571,-95.2453520268211,4,1,0,90,0,1
88630,-94.6778428600283,4,1,0,90,0,1
88688,-94.1265060240964,4,1,0,90,0,1
88806,-93.0244096050804,4,1,0,90,0,1
88864,-92.4921073401736,4,1,0,90,0,1
88923,-91.9568415890142,4,1,0,90,0,1
88981,-91.4366526870184,4,1,0,90,0,1
89040,-90.9134988363072,4,1,0,90,0,1
89157,-89.8935660178349,4,1,0,90,0,1
89216,-89.3878718535469,4,1,0,90,0,1
89274,-88.8962639863455,4,1,0,90,0,1
89392,-87.9126031507877,4,1,0,90,0,1
89509,-86.958538169001,4,1,0,90,0,1
89567,-86.4932189316358,4,1,0,90,0,1
89626,-86.0249587080198,4,1,0,90,0,1
89685,-85.56174135256,4,1,0,90,0,1
89743,-85.1112119836586,4,1,0,90,0,1
89802,-84.657756908073,4,1,0,90,0,1
89860,-84.2166726554078,4,1,0,90,0,1
89978,-83.3333333333333,4,1,0,90,0,1
90036,-83.7943533002671,4,1,0,90,0,1
90095,-84.2685851318945,4,1,0,90,0,1
90153,-84.7400405131668,4,1,0,90,0,1
90212,-85.2250679084206,4,1,0,90,0,1
90270,-85.7073170731707,4,1,0,90,0,1
90329,-86.2035129035423,4,1,0,90,0,1
90388,-86.7054875641532,4,1,0,90,0,1
90446,-87.2046853285686,4,1,0,90,0,1
90505,-87.7184223664503,4,1,0,90,0,1
90563,-88.2293863613538,4,1,0,90,0,1
90622,-88.7553041018388,4,1,0,90,0,1
90681,-89.2875292204492,4,1,0,90,0,1
90739,-89.8169921275943,4,1,0,90,0,1
90798,-90.3620654186381,4,1,0,90,0,1
90856,-90.9043874172185,4,1,0,90,0,1
90915,-91.4627798021864,4,1,0,90,0,1
90974,-92.0280745862141,4,1,0,90,0,1
91032,-92.5906408094435,4,1,0,90,0,1
91091,-93.170007423905,4,1,0,90,0,1
91149,-93.7466652438374,4,1,0,90,0,1
91208,-94.3406357388316,4,1,0,90,0,1
91267,-94.9421809142981,4,1,0,90,0,1
91325,-95.5410549211528,4,1,0,90,0,1
91384,-96.1580560420315,4,1,0,90,0,1
91442,-96.7724168319013,4,1,0,90,0,1
91501,-97.4054773256458,4,1,0,90,0,1
91560,-98.046875,4,1,0,90,0,1
91618,-98.6856886093013,4,1,0,90,0,1
91677,-99.3441139884655,4,1,0,90,0,1
91735,-100,4,1,0,90,0,1
91843,-93.0232558139535,4,1,0,90,0,1
94665,-93.0232558139535,4,1,0,90,0,1
94724,-93.4332743979879,4,1,0,90,0,1
94782,-93.8398819498287,4,1,0,90,0,1
94841,-94.2571471637442,4,1,0,90,0,1
94899,-94.6709729511506,4,1,0,90,0,1
94958,-95.095678621214,4,1,0,90,0,1
95017,-95.524212027089,4,1,0,90,0,1
95075,-95.949263502455,4,1,0,90,0,1
95134,-96.3855421686747,4,1,0,90,0,1
95192,-96.8183108404511,4,1,0,90,0,1
95251,-97.2625466611365,4,1,0,90,0,1
95310,-97.710877887445,4,1,0,90,0,1
95368,-98.1556572923479,4,1,0,90,0,1
95427,-98.6122792262405,4,1,0,90,0,1
95485,-99.0653218566827,4,1,0,90,0,1
95544,-99.5304666153805,4,1,0,90,0,1
95603,-100,4,1,0,90,0,1
95720,-98.7673830594184,4,1,0,90,0,1
95778,-98.1675392670157,4,1,0,90,0,1
95837,-97.5647830159226,4,1,0,90,0,1
95954,-96.3911165946946,4,1,0,90,0,1
96071,-95.2453520268211,4,1,0,90,0,1
96130,-94.6778428600283,4,1,0,90,0,1
96188,-94.1265060240964,4,1,0,90,0,1
96306,-93.0244096050804,4,1,0,90,0,1
96364,-92.4921073401736,4,1,0,90,0,1
96423,-91.9568415890142,4,1,0,90,0,1
96481,-91.4366526870184,4,1,0,90,0,1
96540,-90.9134988363072,4,1,0,90,0,1
96657,-89.8935660178349,4,1,0,90,0,1
96716,-89.3878718535469,4,1,0,90,0,1
96774,-88.8962639863455,4,1,0,90,0,1
96892,-87.9126031507877,4,1,0,90,0,1
97009,-86.958538169001,4,1,0,90,0,1
97067,-86.4932189316358,4,1,0,90,0,1
97126,-86.0249587080198,4,1,0,90,0,1
97185,-85.56174135256,4,1,0,90,0,1
97243,-85.1112119836586,4,1,0,90,0,1
97302,-84.657756908073,4,1,0,90,0,1
97360,-84.2166726554078,4,1,0,90,0,1
97419,-83.7726744705567,4,1,0,90,0,1
97488,-83.3333333333333,4,1,0,90,0,0
98132,-114.285714285714,4,1,0,90,0,0
98835,-133.333333333333,4,1,0,90,0,0
99363,-95.2380952380952,4,1,0,90,0,1
105915,-95.2380952380952,4,1,0,90,0,1
105974,-96.3929709176857,4,1,0,90,0,1
106032,-97.5559022360895,4,1,0,90,0,1
106091,-98.7680320101085,4,1,0,90,0,1
106149,-99.9893401556337,4,1,0,90,0,1
106208,-101.263089711757,4,1,0,90,0,1
106267,-102.569710224166,4,1,0,90,0,1
106325,-103.887473695869,4,1,0,90,0,1
106384,-105.263157894737,4,1,0,90,0,1
106442,-106.651506537806,4,1,0,90,0,1
106501,-108.101878529446,4,1,0,90,0,1
106560,-109.592242084356,4,1,0,90,0,1
106618,-111.097950965297,4,1,0,90,0,1
106677,-112.672672672673,4,1,0,90,0,1
106735,-114.264831282738,4,1,0,90,0,1
106794,-115.931281670993,4,1,0,90,0,1
106853,-117.647058823529,4,1,0,90,0,1
112478,-117.647058823529,4,1,0,90,0,1
112536,-117.008330993167,4,1,0,90,0,1
112595,-116.365667473469,4,1,0,90,0,1
112712,-115.111888755871,4,1,0,90,0,1
112829,-113.884839650146,4,1,0,90,0,1
112888,-113.275940190304,4,1,0,90,0,1
112946,-112.683674389255,4,1,0,90,0,1
113063,-111.507582515611,4,1,0,90,0,1
113181,-110.34604519774,4,1,0,90,0,1
113298,-109.217999126256,4,1,0,90,0,1
113415,-108.112783255492,4,1,0,90,0,1
113474,-107.563892952414,4,1,0,90,0,1
113532,-107.029711447898,4,1,0,90,0,1
113591,-106.491736241268,4,1,0,90,0,1
113649,-105.968124788064,4,1,0,90,0,1
113708,-105.440742302826,4,1,0,90,0,1
113767,-104.918583179453,4,1,0,90,0,1
113825,-104.410290678249,4,1,0,90,0,1
113884,-103.898262821046,4,1,0,90,0,1
113942,-103.399784928447,4,1,0,90,0,1
114001,-102.89759631215,4,1,0,90,0,1
114060,-102.400262144671,4,1,0,90,0,1
114118,-101.916021198532,4,1,0,90,0,1
114128,-101.916021198532,4,1,0,90,0,0
114235,-100.95299628493,4,1,0,90,0,0
114353,-93.0232558139535,4,1,0,90,0,0
114363,-93.0232558139535,4,1,0,90,0,1
128424,-93.0232558139535,4,1,0,90,0,1
128483,-92.3478303674715,4,1,0,90,0,1
128541,-91.6933453896723,4,1,0,90,0,1
128600,-91.0370262532149,4,1,0,90,0,1
128658,-90.4009252120278,4,1,0,90,0,1
128776,-89.1338433030836,4,1,0,90,0,1
128893,-87.9120879120879,4,1,0,90,0,1
129010,-86.7233727810651,4,1,0,90,0,1
129127,-85.5663755159753,4,1,0,90,0,1
129244,-84.4398433631903,4,1,0,90,0,1
129363,555.555555555555,4,1,0,90,1,0
129363,-35.1567993249895,4,1,0,90,0,0
129630,-35.5959080746834,4,1,0,90,0,0
129908,-36.0477704664867,4,1,0,90,0,0
130186,-36.5112524437508,4,1,0,90,0,0
130464,-36.9868080384663,4,1,0,90,0,0
130741,-37.4731363821138,4,1,0,90,0,0
131019,-37.9742508829896,4,1,0,90,0,0
131089,-38.1025501614986,4,1,0,90,0,0
131158,-38.229867879733,4,1,0,90,0,0
131228,-38.3599031769803,4,1,0,90,0,0
131297,-38.4889494796336,4,1,0,90,0,0
131366,-38.6188669606799,4,1,0,90,0,0
131436,-38.751566601549,4,1,0,90,0,0
131505,-38.8832660655553,4,1,0,90,0,0
131575,-39.0177921132036,4,1,0,90,0,0
131853,-39.5613699282217,4,1,0,90,0,0
132130,-40.1182686077088,4,1,0,90,0,0
132408,-40.6931673888839,4,1,0,90,0,0
132478,-40.8405322174453,4,1,0,90,0,0
132547,-40.9868401376981,4,1,0,90,0,0
132616,-41.134200099507,4,1,0,90,0,0
132686,-41.2847824291966,4,1,0,90,0,0
132964,-41.8938535696065,4,1,0,90,0,0
133241,-42.5188747829471,4,1,0,90,0,0
133311,-42.6797854911164,4,1,0,90,0,0
133380,-42.8395938821924,4,1,0,90,0,0
133450,-43.002945901778,4,1,0,90,0,0
133519,-43.1651881111183,4,1,0,90,0,0
133589,-43.3310374253797,4,1,0,90,0,0
133658,-43.4957694785292,4,1,0,90,0,0
133728,-43.6641737956214,4,1,0,90,0,0
133797,-43.8314534509964,4,1,0,90,0,0
134075,-44.5186091793445,4,1,0,90,0,0
134353,-45.2276534547278,4,1,0,90,0,0
134630,-45.95697351778,4,1,0,90,0,0
134908,-46.7129644047211,4,1,0,90,0,0
135186,-47.4942433357654,4,1,0,90,0,0
135464,-48.3021007283574,4,1,0,90,0,0
135533,-48.5068872794246,4,1,0,90,0,0
135603,-48.7164238163415,4,1,0,90,0,0
135672,-48.9247462247138,4,1,0,90,0,0
135741,-49.1348579517596,4,1,0,90,0,0
135811,-49.3498669552462,4,1,0,90,0,0
135880,-49.5636539628364,4,1,0,90,0,0
135950,-49.7824404293281,4,1,0,90,0,0
136029,-50,4,1,0,90,0,0
136089,-49.6869409660107,4,1,0,90,0,0
136158,-49.3821673037603,4,1,0,90,0,0
136228,-49.0767735665695,4,1,0,90,0,0
136297,-48.7794169301019,4,1,0,90,0,0
136366,-48.4856419656105,4,1,0,90,0,0
136436,-48.1912032619068,4,1,0,90,0,0
136505,-47.9044498102794,4,1,0,90,0,0
136575,-47.6170066860963,4,1,0,90,0,0
136644,-47.3370259906263,4,1,0,90,0,0
136714,-47.0563320626853,4,1,0,90,0,0
136783,-46.7828869799562,4,1,0,90,0,0
136853,-46.5087073007368,4,1,0,90,0,0
136922,-46.2415716307334,4,1,0,90,0,0
136991,-45.9774871709982,4,1,0,90,0,0
137061,-45.7126398946675,4,1,0,90,0,0
137130,-45.4545454545455,4,1,0,90,0,0
137200,-45.1956716296477,4,1,0,90,0,0
137269,-44.9433656957929,4,1,0,90,0,0
137339,-44.6902654867257,4,1,0,90,0,0
137408,-44.4435554844388,4,1,0,90,0,0
137478,-44.1960378709523,4,1,0,90,0,0
137547,-43.9547396739991,4,1,0,90,0,0
137616,-43.7160620130637,4,1,0,90,0,0
137686,-43.4765594427487,4,1,0,90,0,0
137755,-43.2430328506928,4,1,0,90,0,0
137825,-43.0086714152989,4,1,0,90,0,0
137894,-42.7801309202926,4,1,0,90,0,0
137964,-42.5507468402911,4,1,0,90,0,0
138033,-42.3270344407193,4,1,0,90,0,0
138103,-42.1024708200697,4,1,0,90,0,0
138172,-41.8834351202594,4,1,0,90,0,0
138241,-41.6666666666667,4,1,0,90,0,0
144908,-41.6666666666667,4,1,0,90,0,0
144977,-41.9379801068267,4,1,0,90,0,0
145047,-42.2168601447761,4,1,0,90,0,0
145116,-42.4954100367197,4,1,0,90,0,0
145186,-42.781778274096,4,1,0,90,0,0
145255,-43.0678580427577,4,1,0,90,0,0
145325,-43.3620201783658,4,1,0,90,0,0
145394,-43.6559393296397,4,1,0,90,0,0
145464,-43.9582179314711,4,1,0,90,0,0
145556,-44.3619230154927,4,1,0,90,0,0
145649,-44.7776232795276,4,1,0,90,0,0
145741,-45.1965909322051,4,1,0,90,0,0
145834,-45.6281572138486,4,1,0,90,0,0
145927,-46.0680446996869,4,1,0,90,0,0
146019,-46.5116279069767,4,1,0,90,0,0
146204,-47.4299863387978,4,1,0,90,0,0
146390,-48.390609347097,4,1,0,90,0,0
146575,-49.3854599604383,4,1,0,90,0,0
147130,-83.3333333333333,4,1,0,90,0,0
150427,-133.333333333333,4,1,0,40,0,0
151515,-83.3333333333333,4,1,0,90,0,0
159270,-111.111111111111,4,1,0,80,0,0
159872,-133.333333333333,4,1,0,70,0,0
160427,-83.3333333333333,4,1,0,90,0,0
162686,-83.3333333333333,4,1,0,90,0,0
163519,-83.3333333333333,4,1,0,90,0,0
163589,-83.2030515188452,4,1,0,90,0,0
163658,-82.8227576752497,4,1,0,90,0,0
163727,-82.2015107604818,4,1,0,90,0,0
163797,-81.3399593341742,4,1,0,90,0,0
163866,-80.2821186141897,4,1,0,90,0,0
163936,-79.0208663484934,4,1,0,90,0,0
164005,-77.6178926471931,4,1,0,90,0,0
164075,-76.0601230511613,4,1,0,90,0,0
164144,-74.4194692805714,4,1,0,90,0,0
164214,-72.675691718725,4,1,0,90,0,0
164283,-70.9040350497205,4,1,0,90,0,0
164352,-69.1032802120721,4,1,0,90,0,0
164422,-67.26814944691,4,1,0,90,0,0
164491,-65.4696911338559,4,1,0,90,0,0
164561,-63.6720970666018,4,1,0,90,0,0
164630,-61.940186756358,4,1,0,90,0,0
164700,-60.2350232191709,4,1,0,90,0,0
164769,-58.6141629322363,4,1,0,90,0,0
164839,-57.0376163600081,4,1,0,90,0,0
164918,555.555555555556,9,1,0,80,1,0
164918,-55.5555555555556,9,1,0,80,0,0
164987,-55.5555555555556,9,1,0,20,0,0
169779,-55.5555555555556,9,1,0,90,0,0
169819,612.244897959183,4,1,0,90,1,0
169819,-86.9565217391304,4,1,0,90,0,0
189410,234.375,4,1,0,70,1,0
189410,-125,4,1,0,70,0,0
189474,-250,4,1,0,10,0,0
195005,-199.364069952305,4,1,0,10,0,0
195035,-200,4,1,0,10,0,0
195259,-194.939677866081,4,1,0,11,0,0
195376,-192.504342897976,4,1,0,12,0,0
195962,-181.168522476492,4,1,0,15,0,0
196196,-177.006355236178,4,1,0,16,0,0
196314,-174.979189141771,4,1,0,17,0,0
196548,-171.093501914422,4,1,0,18,0,0
196665,-169.214663465877,4,1,0,19,0,0
196724,-168.282779690467,4,1,0,19,0,0
196782,-167.376641183759,4,1,0,20,0,0
196900,-165.562913907285,4,1,0,20,0,0
197603,-155.522672302532,4,1,0,24,0,0
197837,-152.44546923935,4,1,0,26,0,0
198599,-143.217669470423,4,1,0,30,0,0
198657,-142.560833558896,4,1,0,30,0,0
198716,-141.898825758837,4,1,0,30,0,0
198775,-141.242937853107,4,1,0,31,0,0
199009,-138.700256539995,4,1,0,32,0,0
199126,-137.462939991378,4,1,0,33,0,0
199712,-131.583749021017,4,1,0,36,0,0
199946,-129.374228929596,4,1,0,37,0,0
200064,-128.287934229,4,1,0,38,0,0
200181,-127.228707682035,4,1,0,39,0,0
200298,-126.186829190816,4,1,0,39,0,0
200415,-125.161876026327,4,1,0,40,0,0
200636,-123.152709359606,4,1,0,70,0,0
200884,-121.215177303864,4,1,0,70,0,0
201118,-119.337666404442,4,1,0,70,0,0
201353,-117.509770545722,4,1,0,70,0,0
201574,-115.744455994884,4,1,0,75,0,0
201597,-115.744455994884,4,1,0,75,0,0
201646,-115.307696281373,4,1,0,75,0,0
201704,-114.881540282676,4,1,0,76,0,0
201763,-114.451256583236,4,1,0,76,0,0
201821,-114.031396036208,4,1,0,76,0,0
201939,-113.186635405021,4,1,0,77,0,0
202056,-112.361301209787,4,1,0,77,0,0
202173,-111.547916225433,4,1,0,78,0,0
202290,-110.746222815494,4,1,0,79,0,0
202407,-109.955970697174,4,1,0,79,0,0
202525,-109.170305676856,4,1,0,80,0,0
202642,-108.402306107299,4,1,0,81,0,0
202759,-107.645036616536,4,1,0,81,0,0
202876,-106.898273892192,4,1,0,82,0,0
202993,-106.161800775915,4,1,0,82,0,0
203052,-105.794252466276,4,1,0,83,0,0
203110,-105.435406052836,4,1,0,83,0,0
203169,-105.072861725235,4,1,0,83,0,0
203228,-104.712802103415,4,1,0,84,0,0
203286,-104.361242405285,4,1,0,84,0,0
203345,-104.006035123531,4,1,0,84,0,0
203403,-103.659197307404,4,1,0,85,0,0
203462,-103.308744933739,4,1,0,85,0,0
203521,-102.96065420376,4,1,0,85,0,0
203579,-102.620742196992,4,1,0,86,0,0
203638,-102.277264664105,4,1,0,86,0,0
203696,-101.941842586572,4,1,0,86,0,0
203814,-101.266178284643,4,1,0,87,0,0
203872,-100.937344556489,4,1,0,87,0,0
203931,-100.605025207595,4,1,0,87,0,0
203989,-100.280464402842,4,1,0,88,0,0
204048,-99.9524492881253,4,1,0,88,0,0
204107,-99.6265730371705,4,1,0,88,0,0
204165,-99.3082846943423,4,1,0,89,0,0
204224,-98.9865885050966,4,1,0,89,0,0
204282,-98.6723698419348,4,1,0,89,0,0
204341,-98.354773799757,4,1,0,90,0,0
204400,-98.0392156862745,4,1,0,90,0,0
204468,-106.382978723404,4,1,0,90,0,0
208101,-98.0392156862745,4,1,0,90,0,0
208218,-106.382978723404,4,1,0,90,0,0
211851,-98.0392156862745,4,1,0,90,0,0
211968,-106.382978723404,4,1,0,90,0,0
215601,-98.0392156862745,4,1,0,90,0,0
215718,-106.382978723404,4,1,0,90,0,0
217525,-106.382978723404,4,1,0,90,0,0
217583,-105.64121059117,4,1,0,90,0,0
217642,-104.897191799218,4,1,0,90,0,0
217700,-104.17592839572,4,1,0,90,0,0
217759,-103.452335403361,4,1,0,90,0,0
217817,-102.750738109854,4,1,0,90,0,0
217876,-102.046741181594,4,1,0,90,0,0
217935,-101.352325480811,4,1,0,90,0,0
217993,-100.678830235156,4,1,0,90,0,0
218052,-100.002845031153,4,1,0,90,0,0
218110,-99.3471072044318,4,1,0,90,0,0
218169,-98.6888283684757,4,1,0,90,0,0
218228,-98.0392156862745,4,1,0,90,0,0
218286,-97.4088956630179,4,1,0,90,0,0
218345,-96.7759698246194,4,1,0,90,0,0
218403,-96.1617377506634,4,1,0,90,0,0
218462,-95.5448639538993,4,1,0,90,0,0
218521,-94.9358541525996,4,1,0,90,0,0
218579,-94.3446869044743,4,1,0,90,0,0
218638,-93.7508334889179,4,1,0,90,0,0
218696,-93.1742876076872,4,1,0,90,0,0
218755,-92.5950317431048,4,1,0,90,0,0
218814,-92.0229337382517,4,1,0,90,0,0
218872,-91.4673814046683,4,1,0,90,0,0
218931,-90.9090909090909,4,1,0,90,0,0
219410,-100,4,1,0,90,0,1
233462,-100,4,1,0,90,0,1
233521,-99.5304666153805,4,1,0,90,0,1
233579,-99.0731694436376,4,1,0,90,0,1
233638,-98.6122792262405,4,1,0,90,0,1
233696,-98.163361414892,4,1,0,90,0,1
233755,-97.710877887445,4,1,0,90,0,1
233814,-97.2625466611365,4,1,0,90,0,1
233872,-96.8258064516129,4,1,0,90,0,1
233931,-96.3855421686747,4,1,0,90,0,1
233989,-95.9566251502519,4,1,0,90,0,1
234048,-95.524212027089,4,1,0,90,0,1
234107,-95.095678621214,4,1,0,90,0,1
234165,-94.6781397461455,4,1,0,90,0,1
234224,-94.2571471637442,4,1,0,90,0,1
234282,-93.8469234617309,4,1,0,90,0,1
234341,-93.4332743979879,4,1,0,90,0,1
234400,-93.0232558139535,4,1,0,90,0,1
237212,-93.0232558139535,4,1,0,90,0,1
237271,-93.8469234617309,4,1,0,90,0,1
237329,-94.6709729511506,4,1,0,90,0,1
237388,-95.524212027089,4,1,0,90,0,1
237446,-96.3781145646031,4,1,0,90,0,1
237505,-97.2625466611365,4,1,0,90,0,1
237564,-98.163361414892,4,1,0,90,0,1
237622,-99.0653218566827,4,1,0,90,0,1
237681,-100,4,1,0,90,0,1
237739,-100.936188529,4,1,0,90,0,1
237798,-101.906676082351,4,1,0,90,0,1
237857,-102.896007020623,4,1,0,90,0,1
237915,-103.887473695869,4,1,0,90,0,1
237974,-104.91583244785,4,1,0,90,0,1
238032,-105.946800700288,4,1,0,90,0,1
238091,-107.016543069024,4,1,0,90,0,1
238150,-108.108108108108,4,1,0,90,0,1
238160,-108.108108108108,4,1,0,90,0,0
238335,-93.0232558139535,4,1,0,90,0,0
238394,-93.0232558139535,4,1,0,90,0,1
240962,-93.0232558139535,4,1,0,90,0,1
241021,-93.8469234617309,4,1,0,90,0,1
241079,-94.6709729511506,4,1,0,90,0,1
241138,-95.524212027089,4,1,0,90,0,1
241196,-96.3781145646031,4,1,0,90,0,1
241255,-97.2625466611365,4,1,0,90,0,1
241314,-98.163361414892,4,1,0,90,0,1
241372,-99.0653218566827,4,1,0,90,0,1
241431,-100,4,1,0,90,0,1
241489,-100.936188529,4,1,0,90,0,1
241548,-101.906676082351,4,1,0,90,0,1
241607,-102.896007020623,4,1,0,90,0,1
241665,-103.887473695869,4,1,0,90,0,1
241724,-104.91583244785,4,1,0,90,0,1
241782,-105.946800700288,4,1,0,90,0,1
241841,-107.016543069024,4,1,0,90,0,1
241900,-108.108108108108,4,1,0,90,0,1
241910,-108.108108108108,4,1,0,90,0,0
242115,-93.0232558139535,4,1,0,90,0,0
242144,-93.0232558139535,4,1,0,90,0,1
247525,-93.0232558139535,4,1,0,90,0,1
247583,-92.6898597293456,4,1,0,90,0,1
247642,-92.3531584780199,4,1,0,90,0,1
247759,-91.6926462497708,4,1,0,90,0,1
247876,-91.0415149308084,4,1,0,90,0,1
247935,-90.7166616268521,4,1,0,90,0,1
247993,-90.3995660820828,4,1,0,90,0,1
248110,-89.7666068222621,4,1,0,90,0,1
248228,-89.1371523651058,4,1,0,90,0,1
248345,-88.5216878135143,4,1,0,90,0,1
248462,-87.9146641659829,4,1,0,90,0,1
248521,-87.6117049237778,4,1,0,90,0,1
248579,-87.3159089586123,4,1,0,90,0,1
248696,-86.7252543940796,4,1,0,90,0,1
248814,-86.13759044447,4,1,0,90,0,1
248872,-85.8516483516484,4,1,0,90,0,1
248931,-85.5627174719069,4,1,0,90,0,1
249048,-84.9954669084316,4,1,0,90,0,1
249165,-84.4356881508584,4,1,0,90,0,1
249282,-83.8832345375238,4,1,0,90,0,1
249410,-83.3333333333333,4,1,0,90,0,0
249497,-100,4,1,0,90,0,0
256910,-93.0232558139535,4,1,0,90,0,1
263462,-93.0232558139535,4,1,0,90,0,1
263521,-92.3478303674715,4,1,0,90,0,1
263579,-91.6933453896723,4,1,0,90,0,1
263638,-91.0370262532149,4,1,0,90,0,1
263696,-90.4009252120278,4,1,0,90,0,1
263755,-89.762912988349,4,1,0,90,0,1
263814,-89.1338433030836,4,1,0,90,0,1
263872,-88.5239713099283,4,1,0,90,0,1
263931,-87.9120879120879,4,1,0,90,0,1
263989,-87.3187646908236,4,1,0,90,0,1
264048,-86.7233727810651,4,1,0,90,0,1
264107,-86.1360453637595,4,1,0,90,0,1
264165,-85.5663755159753,4,1,0,90,0,1
264224,-84.9945632475535,4,1,0,90,0,1
264282,-84.4398433631903,4,1,0,90,0,1
264341,-83.8829394799794,4,1,0,90,0,1
264410,-83.3333333333333,4,1,0,90,0,0
264517,-94.6969696969697,4,1,0,90,0,0
264575,-95.5352420187296,4,1,0,90,0,0
264634,-96.4033327337516,4,1,0,90,0,0
264692,-97.2722258139135,4,1,0,90,0,0
264751,-98.1723187583357,4,1,0,90,0,0
264810,-99.0892250135039,4,1,0,90,0,0
264868,-100.007439577822,4,1,0,90,0,0
264927,-100.959111559818,4,1,0,90,0,0
264985,-101.912474584023,4,1,0,90,0,0
265044,-102.900927739706,4,1,0,90,0,0
265103,-103.908742780243,4,1,0,90,0,0
265161,-104.918905363147,4,1,0,90,0,0
265220,-105.966837548961,4,1,0,90,0,0
265278,-107.017614838384,4,1,0,90,0,0
265337,-108.108108108108,4,1,0,90,0,0
266275,-108.108108108108,4,1,0,90,0,0
266333,-107.568521147971,4,1,0,90,0,0
266392,-107.025129500407,4,1,0,90,0,0
266450,-106.496272630458,4,1,0,90,0,0
266509,-105.963633281058,4,1,0,90,0,0
266567,-105.445189590451,4,1,0,90,0,0
266626,-104.922986527888,4,1,0,90,0,0
266685,-104.405930256839,4,1,0,90,0,0
266743,-103.902580940111,4,1,0,90,0,0
266802,-103.395508499111,4,1,0,90,0,0
266860,-102.901831652603,4,1,0,90,0,0
266919,-102.404456641953,4,1,0,90,0,0
266978,-101.911866617749,4,1,0,90,0,0
267036,-101.432222988599,4,1,0,90,0,0
267095,-100.948919846558,4,1,0,90,0,0
267153,-100.4782765966,4,1,0,90,0,0
267212,-100.004000160006,4,1,0,90,0,0
267329,-99.0766060317838,4,1,0,90,0,0
267446,-98.1662543683983,4,1,0,90,0,0
267564,-97.264910710812,4,1,0,90,0,0
267681,-96.3874002390408,4,1,0,90,0,0
267739,-95.9582389743983,4,1,0,90,0,0
267798,-95.5255817507929,4,1,0,90,0,0
267857,-95.096808551105,4,1,0,90,0,0
267915,-94.6790380609733,4,1,0,90,0,0
268032,-93.847366642892,4,1,0,90,0,0
268150,-93.0232558139535,4,1,0,90,0,0
268208,-93.8337130410835,4,1,0,90,0,0
268267,-94.6727626360858,4,1,0,90,0,0
268325,-95.5123467801534,4,1,0,90,0,0
268384,-96.3818242600355,4,1,0,90,0,0
268442,-97.2521342017178,4,1,0,90,0,0
268501,-98.1537252847977,4,1,0,90,0,0
268560,-99.0721894742407,4,1,0,90,0,0
268618,-99.9919963716885,4,1,0,90,0,0
268677,-100.945352689272,4,1,0,90,0,0
268735,-101.900437726,4,1,0,90,0,0
268794,-102.890712932715,4,1,0,90,0,0
268853,-103.900424139938,4,1,0,90,0,0
268911,-104.912526242127,4,1,0,90,0,0
268970,-105.962511662096,4,1,0,90,0,0
269028,-107.015389886646,4,1,0,90,0,0
269087,-108.108108108108,4,1,0,90,0,0
270025,-108.108108108108,4,1,0,90,0,0
270083,-107.568521147971,4,1,0,90,0,0
270142,-107.025129500407,4,1,0,90,0,0
270200,-106.496272630458,4,1,0,90,0,0
270259,-105.963633281058,4,1,0,90,0,0
270317,-105.445189590451,4,1,0,90,0,0
270376,-104.922986527888,4,1,0,90,0,0
270435,-104.405930256839,4,1,0,90,0,0
270493,-103.902580940111,4,1,0,90,0,0
270552,-103.395508499111,4,1,0,90,0,0
270610,-102.901831652603,4,1,0,90,0,0
270669,-102.404456641953,4,1,0,90,0,0
270728,-101.911866617749,4,1,0,90,0,0
270786,-101.432222988599,4,1,0,90,0,0
270845,-100.948919846558,4,1,0,90,0,0
270903,-100.4782765966,4,1,0,90,0,0
270962,-100.004000160006,4,1,0,90,0,0
271021,-99.5341800374248,4,1,0,90,0,0
271079,-99.0766060317838,4,1,0,90,0,0
271138,-98.6154392331663,4,1,0,90,0,0
271196,-98.1662543683983,4,1,0,90,0,0
271255,-97.7135040062537,4,1,0,90,0,0
271314,-97.264910710812,4,1,0,90,0,0
271372,-96.827917425152,4,1,0,90,0,0
271431,-96.3874002390408,4,1,0,90,0,0
271489,-95.9582389743983,4,1,0,90,0,0
271548,-95.5255817507929,4,1,0,90,0,0
271607,-95.096808551105,4,1,0,90,0,0
271665,-94.6790380609733,4,1,0,90,0,0
271724,-94.2578139727784,4,1,0,90,0,0
271782,-93.847366642892,4,1,0,90,0,0
271841,-93.4334940389431,4,1,0,90,0,0
271910,-93.0232558139535,4,1,0,90,0,1
277525,-93.0232558139535,4,1,0,90,0,1
277583,-92.4909667155841,4,1,0,90,0,1
277642,-91.9557141280759,4,1,0,90,0,1
277700,-91.4355379457483,4,1,0,90,0,1
277759,-90.9123968144296,4,1,0,90,0,1
277817,-90.4039247357192,4,1,0,90,0,1
277876,-89.892488583654,4,1,0,90,0,1
277935,-89.3868065073595,4,1,0,90,0,1
277993,-88.8952103260676,4,1,0,90,0,1
278052,-88.400655343525,4,1,0,90,0,1
278110,-87.9198171267804,4,1,0,90,0,1
278169,-87.4360259743288,4,1,0,90,0,1
278228,-86.9575299423762,4,1,0,90,0,1
278286,-86.4922214662161,4,1,0,90,0,1
278345,-86.0239720135344,4,1,0,90,0,1
278403,-85.5685746557291,4,1,0,90,0,1
278462,-85.1102461388318,4,1,0,90,0,1
278521,-84.6568013274187,4,1,0,90,0,1
278579,-84.2157270062993,4,1,0,90,0,1
278638,-83.7717387662098,4,1,0,90,0,1
278696,-83.3398153189693,4,1,0,90,0,1
278755,-82.904990880451,4,1,0,90,0,1
278814,-82.4746802731562,4,1,0,90,0,1
278872,-82.0559950109955,4,1,0,90,0,1
278931,-81.6344301372547,4,1,0,90,0,1
278989,-81.2242113129082,4,1,0,90,0,1
279048,-80.8111282310983,4,1,0,90,0,1
279107,-80.4022255336028,4,1,0,90,0,1
279165,-80.0042668942344,4,1,0,90,0,1
279224,-79.6034685884713,4,1,0,90,0,1
279282,-79.2133585407843,4,1,0,90,0,1
279341,-78.8204260506763,4,1,0,90,0,1
279400,-78.4313725490196,4,1,0,90,0,1
279527,-95.2380952380952,4,1,0,90,0,1
285962,-95.2380952380952,4,1,0,90,0,1
286021,-96.3929709176857,4,1,0,90,0,1
286079,-97.5559022360895,4,1,0,90,0,1
286138,-98.7680320101085,4,1,0,90,0,1
286196,-99.9893401556337,4,1,0,90,0,1
286255,-101.263089711757,4,1,0,90,0,1
286314,-102.569710224166,4,1,0,90,0,1
286372,-103.887473695869,4,1,0,90,0,1
286431,-105.263157894737,4,1,0,90,0,1
286489,-106.651506537806,4,1,0,90,0,1
286548,-108.101878529446,4,1,0,90,0,1
286607,-109.592242084356,4,1,0,90,0,1
286665,-111.097950965297,4,1,0,90,0,1
286724,-112.672672672673,4,1,0,90,0,1
286782,-114.264831282738,4,1,0,90,0,1
286841,-115.931281670993,4,1,0,90,0,1
286900,-117.647058823529,4,1,0,90,0,1
292525,-117.647058823529,4,1,0,90,0,1
292583,-116.481331925204,4,1,0,90,0,1
292642,-115.318972277319,4,1,0,90,0,1
292700,-114.198705748002,4,1,0,90,0,1
292759,-113.081237561064,4,1,0,90,0,1
292817,-112.003823063827,4,1,0,90,0,1
292876,-110.928695034832,4,1,0,90,0,1
292935,-109.8740111339,4,1,0,90,0,1
292993,-108.8565705826,4,1,0,90,0,1
293052,-107.840740793995,4,1,0,90,0,1
293110,-106.860440265014,4,1,0,90,0,1
293169,-105.881356410763,4,1,0,90,0,1
293228,-104.920050921198,4,1,0,90,0,1
293286,-103.991902497192,4,1,0,90,0,1
293345,-103.064449635839,4,1,0,90,0,1
293403,-102.168700959023,4,1,0,90,0,1
293462,-101.273343505678,4,1,0,90,0,1
293521,-100.393542687334,4,1,0,90,0,1
293579,-99.543427479295,4,1,0,90,0,1
293696,-97.8716185355796,4,1,0,90,0,1
293814,-96.2414505511427,4,1,0,90,0,1
293872,-95.4599259230975,4,1,0,90,0,1
293931,-94.6778428600283,4,1,0,90,0,1
294048,-93.1642299044756,4,1,0,90,0,1
294107,-92.4191640378549,4,1,0,90,0,1
294165,-91.6982516200024,4,1,0,90,0,1
294175,-91.6982516200024,4,1,0,90,0,0
294224,-90.9763582770291,4,1,0,90,0,0
294282,-90.2776941873202,4,1,0,90,0,0
294341,-89.5779088932948,4,1,0,90,0,0
294400,-88.8888888888889,4,1,0,90,0,0
294410,-88.8888888888889,4,1,0,90,0,1
296255,-78.4313725490196,4,1,0,90,0,1
296724,-102.239674229203,4,1,0,90,0,1
296802,-101.585925363968,4,1,0,90,0,1
296860,-100.951355232454,4,1,0,90,0,1
296919,-100.313926940639,4,1,0,90,0,1
296978,-99.6844978552944,4,1,0,90,0,1
297036,-99.073389000458,4,1,0,90,0,1
297095,-98.4593837535014,4,1,0,90,0,1
297153,-97.86315862741,4,1,0,90,0,1
297212,-97.2640171560998,4,1,0,90,0,1
297271,-96.6721672167217,4,1,0,90,0,1
297329,-96.097327592099,4,1,0,90,0,1
297388,-95.5195488977207,4,1,0,90,0,1
297446,-94.9582953432614,4,1,0,90,0,1
297505,-94.3940919771735,4,1,0,90,0,1
297564,-93.8365535422298,4,1,0,90,0,1
297622,-93.294847549849,4,1,0,90,0,1
297681,-92.7501814103833,4,1,0,90,0,1
297739,-92.2209104027286,4,1,0,90,0,1
297798,-91.6886758616192,4,1,0,90,0,1
297857,-91.1625494391493,4,1,0,90,0,1
297915,-90.6511927788523,4,1,0,90,0,1
297974,-90.1368721351412,4,1,0,90,0,1
298032,-89.6369258232125,4,1,0,90,0,1
298091,-89.1340180043109,4,1,0,90,0,1
298130,-88.8888888888889,4,1,0,90,0,1
307525,-88.8888888888889,4,1,0,90,0,1
307583,-88.5237774866329,4,1,0,90,0,1
307642,-88.1554356641631,4,1,0,90,0,1
307759,-87.4339873395586,4,1,0,90,0,1
307876,-86.724251569709,4,1,0,90,0,1
307993,-86.0259454251402,4,1,0,90,0,1
308110,-85.3387950162144,4,1,0,90,0,1
308228,-84.6568013274186,4,1,0,90,0,1
308345,-83.9912649084495,4,1,0,90,0,1
308462,-83.3361112037068,4,1,0,90,0,1
308521,-83.0095959092871,4,1,0,90,0,1
308579,-82.6910991300896,4,1,0,90,0,1
308638,-82.3696089090969,4,1,0,90,0,1
308696,-82.0559950109955,4,1,0,90,0,1
308755,-81.7394147457904,4,1,0,90,0,1
308814,-81.4252678891314,4,1,0,90,0,1
308872,-81.1187903565982,4,1,0,90,0,1
308931,-80.8093868183728,4,1,0,90,0,1
308989,-80.5075194023122,4,1,0,90,0,1
309048,-80.2027525584678,4,1,0,90,0,1
309107,-79.9002844450126,4,1,0,90,0,1
309165,-79.6051584142652,4,1,0,90,0,1
309224,-79.3071725406846,4,1,0,90,0,1
309282,-79.01640380543,4,1,0,90,0,1
309341,-78.7228012721605,4,1,0,90,0,1
309410,234.375,12,1,0,90,1,8
309410,-70.1754385964912,4,1,0,90,0,0
309468,-70.1754385964912,4,1,0,10,0,0
312076,-70.1754385964912,4,1,0,90,0,0
312140,681.818181818182,4,1,0,90,1,0
312140,-74.0740740740741,4,1,0,90,0,0
323901,-83.3333333333333,4,1,0,90,0,0
325691,-166.666666666667,4,1,0,90,0,0
327054,-74.0740740740741,4,1,0,90,0,0
335037,-28.5714285714286,4,1,0,90,0,0

[Colours]
Combo1 : 106,19,0
Combo2 : 255,198,84

[HitObjects]
256,192,926,12,0,9129,0:0:0:0:
288,160,9363,5,8,0:0:0:0:
288,160,9422,1,8,0:0:0:0:
288,160,9480,1,8,0:0:0:0:
288,160,9539,1,8,0:0:0:0:
288,160,9597,1,8,0:0:0:0:
224,160,9715,1,0,0:0:0:0:
288,160,9773,1,8,0:0:0:0:
288,160,9832,1,8,0:0:0:0:
288,160,9890,1,8,0:0:0:0:
288,160,9949,1,8,0:0:0:0:
288,160,10008,1,8,0:0:0:0:
224,160,10066,1,0,0:0:0:0:
224,160,10125,1,0,0:0:0:0:
224,160,10183,1,0,0:0:0:0:
224,160,10242,1,0,0:0:0:0:
224,160,10301,1,0,0:0:0:0:
224,160,10359,1,0,0:0:0:0:
224,160,10418,1,0,0:0:0:0:
224,160,10476,1,0,0:0:0:0:
288,160,10535,1,8,0:0:0:0:
224,160,10652,1,0,0:0:0:0:
224,160,10711,1,0,0:0:0:0:
288,160,10769,1,8,0:0:0:0:
224,160,10886,1,0,0:0:0:0:
224,160,10945,1,0,0:0:0:0:
288,160,11004,1,8,0:0:0:0:
288,160,11062,1,8,0:0:0:0:
288,160,11121,1,8,0:0:0:0:
288,160,11179,1,8,0:0:0:0:
224,160,11238,1,0,0:0:0:0:
224,160,11297,1,0,0:0:0:0:
288,160,11355,1,8,0:0:0:0:
288,160,11414,1,8,0:0:0:0:
224,160,11472,1,0,0:0:0:0:
224,160,11531,1,0,0:0:0:0:
224,160,11590,1,0,0:0:0:0:
224,160,11648,1,0,0:0:0:0:
288,160,11707,1,8,0:0:0:0:
224,160,11765,1,0,0:0:0:0:
224,160,11824,1,0,0:0:0:0:
224,160,11883,1,0,0:0:0:0:
288,160,11941,1,8,0:0:0:0:
224,160,12000,1,0,0:0:0:0:
224,160,12058,1,0,0:0:0:0:
224,160,12117,1,0,0:0:0:0:
288,160,12176,1,8,0:0:0:0:
224,160,12234,1,0,0:0:0:0:
224,160,12293,1,0,0:0:0:0:
224,160,12351,1,0,0:0:0:0:
288,160,12410,1,8,0:0:0:0:
288,160,12468,1,8,0:0:0:0:
224,160,12527,1,0,0:0:0:0:
224,160,12586,1,0,0:0:0:0:
288,160,12644,1,8,0:0:0:0:
224,160,12761,1,0,0:0:0:0:
224,160,12820,1,0,0:0:0:0:
288,160,12879,1,8,0:0:0:0:
288,160,12937,1,8,0:0:0:0:
288,160,12996,1,8,0:0:0:0:
288,160,13054,1,8,0:0:0:0:
224,224,13113,1,4,0:0:0:0:
288,224,13582,5,12,0:0:0:0:
224,160,13699,1,0,0:0:0:0:
224,160,13757,1,0,0:0:0:0:
224,160,13816,1,0,0:0:0:0:
224,160,13874,1,0,0:0:0:0:
224,160,13933,1,0,0:0:0:0:
224,160,13992,1,0,0:0:0:0:
288,160,14050,1,8,0:0:0:0:
224,160,14109,1,0,0:0:0:0:
224,160,14167,1,0,0:0:0:0:
224,160,14226,1,0,0:0:0:0:
288,160,14285,1,8,0:0:0:0:
288,160,14343,1,8,0:0:0:0:
288,160,14402,1,8,0:0:0:0:
288,160,14460,1,8,0:0:0:0:
224,160,14519,1,0,0:0:0:0:
224,160,14753,1,0,0:0:0:0:
288,160,14988,1,8,0:0:0:0:
288,160,15046,1,8,0:0:0:0:
224,160,15105,1,0,0:0:0:0:
224,160,15163,1,0,0:0:0:0:
224,160,15222,1,0,0:0:0:0:
224,160,15280,1,0,0:0:0:0:
288,160,15339,1,8,0:0:0:0:
288,160,15398,1,8,0:0:0:0:
288,160,15456,1,8,0:0:0:0:
288,160,15515,1,8,0:0:0:0:
224,160,15573,1,0,0:0:0:0:
224,160,15632,1,0,0:0:0:0:
288,160,15691,1,8,0:0:0:0:
288,160,15749,1,8,0:0:0:0:
288,160,15808,1,8,0:0:0:0:
224,160,15866,1,0,0:0:0:0:
288,160,15925,1,8,0:0:0:0:
224,160,15984,1,0,0:0:0:0:
224,160,16042,1,0,0:0:0:0:
224,160,16101,1,0,0:0:0:0:
288,160,16159,1,8,0:0:0:0:
288,160,16218,1,8,0:0:0:0:
224,160,16277,1,0,0:0:0:0:
224,160,16335,1,0,0:0:0:0:
288,160,16394,1,8,0:0:0:0:
288,160,16452,1,8,0:0:0:0:
288,160,16511,1,8,0:0:0:0:
288,160,16570,1,8,0:0:0:0:
224,160,16628,1,0,0:0:0:0:
224,160,16687,1,0,0:0:0:0:
224,160,16745,1,0,0:0:0:0:
224,160,16804,1,0,0:0:0:0:
288,224,16863,1,12,0:0:0:0:
288,160,17332,1,8,0:0:0:0:
224,160,17390,1,0,0:0:0:0:
224,160,17449,1,0,0:0:0:0:
224,160,17507,1,0,0:0:0:0:
288,160,17566,1,8,0:0:0:0:
288,160,17624,1,8,0:0:0:0:
288,160,17683,1,8,0:0:0:0:
288,160,17742,1,8,0:0:0:0:
224,160,17800,1,0,0:0:0:0:
224,160,17859,1,0,0:0:0:0:
224,160,17917,1,0,0:0:0:0:
224,160,17976,1,0,0:0:0:0:
288,160,18035,1,8,0:0:0:0:
288,160,18093,1,8,0:0:0:0:
288,160,18152,1,8,0:0:0:0:
288,160,18210,1,8,0:0:0:0:
224,160,18269,1,0,0:0:0:0:
224,160,18503,1,0,0:0:0:0:
288,160,18738,1,8,0:0:0:0:
288,160,18796,1,8,0:0:0:0:
288,160,18855,1,8,0:0:0:0:
288,160,18913,1,8,0:0:0:0:
288,160,18972,1,8,0:0:0:0:
288,160,19030,1,8,0:0:0:0:
288,160,19089,1,8,0:0:0:0:
288,160,19148,1,8,0:0:0:0:
288,160,19206,1,8,0:0:0:0:
288,160,19265,1,8,0:0:0:0:
288,160,19323,1,8,0:0:0:0:
288,160,19382,1,8,0:0:0:0:
224,160,19441,1,0,0:0:0:0:
224,160,19499,1,0,0:0:0:0:
224,160,19558,1,0,0:0:0:0:
224,160,19616,1,0,0:0:0:0:
288,160,19675,1,8,0:0:0:0:
288,160,19734,1,8,0:0:0:0:
288,160,19792,1,8,0:0:0:0:
288,160,19851,1,8,0:0:0:0:
224,160,19909,1,0,0:0:0:0:
224,160,19968,1,0,0:0:0:0:
288,160,20027,1,8,0:0:0:0:
288,160,20085,1,8,0:0:0:0:
288,160,20144,1,8,0:0:0:0:
288,160,20202,1,8,0:0:0:0:
224,160,20261,1,0,0:0:0:0:
224,160,20320,1,0,0:0:0:0:
288,160,20378,1,8,0:0:0:0:
224,160,20495,1,0,0:0:0:0:
288,224,20613,1,12,0:0:0:0:
224,224,21082,5,4,0:0:0:0:
224,160,21199,1,0,0:0:0:0:
224,160,21257,1,0,0:0:0:0:
224,160,21316,1,0,0:0:0:0:
224,160,21374,1,0,0:0:0:0:
224,160,21433,1,0,0:0:0:0:
224,160,21492,1,0,0:0:0:0:
288,160,21550,1,8,0:0:0:0:
224,160,21609,1,0,0:0:0:0:
224,160,21667,1,0,0:0:0:0:
224,160,21726,1,0,0:0:0:0:
288,160,21785,1,8,0:0:0:0:
288,160,21843,1,8,0:0:0:0:
288,160,21902,1,8,0:0:0:0:
288,160,21960,1,8,0:0:0:0:
224,160,22019,1,0,0:0:0:0:
224,160,22253,1,0,0:0:0:0:
288,160,22488,1,8,0:0:0:0:
288,160,22546,1,8,0:0:0:0:
224,160,22605,1,0,0:0:0:0:
224,160,22663,1,0,0:0:0:0:
224,160,22722,1,0,0:0:0:0:
224,160,22780,1,0,0:0:0:0:
288,160,22839,1,8,0:0:0:0:
288,160,22898,1,8,0:0:0:0:
288,160,22956,1,8,0:0:0:0:
288,160,23015,1,8,0:0:0:0:
224,160,23073,1,0,0:0:0:0:
224,160,23132,1,0,0:0:0:0:
288,160,23191,1,8,0:0:0:0:
224,160,23249,1,0,0:0:0:0:
224,160,23308,1,0,0:0:0:0:
224,160,23366,1,0,0:0:0:0:
288,160,23425,1,8,0:0:0:0:
288,160,23484,1,8,0:0:0:0:
224,160,23542,1,0,0:0:0:0:
224,160,23601,1,0,0:0:0:0:
224,160,23659,1,0,0:0:0:0:
224,160,23718,1,0,0:0:0:0:
224,160,23777,1,0,0:0:0:0:
224,160,23835,1,0,0:0:0:0:
288,160,23894,1,8,0:0:0:0:
288,160,23952,1,8,0:0:0:0:
288,160,24011,1,8,0:0:0:0:
288,160,24070,1,8,0:0:0:0:
224,160,24128,1,0,0:0:0:0:
224,160,24187,1,0,0:0:0:0:
224,160,24245,1,0,0:0:0:0:
224,160,24304,1,0,0:0:0:0:
288,224,24363,1,12,0:0:0:0:
224,160,24832,1,0,0:0:0:0:
224,160,24890,1,0,0:0:0:0:
224,160,24949,1,0,0:0:0:0:
224,160,25007,1,0,0:0:0:0:
224,160,25066,1,0,0:0:0:0:
224,160,25124,1,0,0:0:0:0:
224,160,25183,1,0,0:0:0:0:
224,160,25242,1,0,0:0:0:0:
288,160,25300,1,8,0:0:0:0:
288,160,25359,1,8,0:0:0:0:
224,160,25417,1,0,0:0:0:0:
224,160,25476,1,0,0:0:0:0:
288,160,25535,1,8,0:0:0:0:
288,160,25593,1,8,0:0:0:0:
288,160,25652,1,8,0:0:0:0:
288,160,25710,1,8,0:0:0:0:
224,160,25769,1,0,0:0:0:0:
224,160,26003,1,0,0:0:0:0:
288,160,26238,1,8,0:0:0:0:
288,160,26296,1,8,0:0:0:0:
288,160,26355,1,8,0:0:0:0:
288,160,26413,1,8,0:0:0:0:
288,160,26472,1,8,0:0:0:0:
288,160,26530,1,8,0:0:0:0:
224,160,26589,1,0,0:0:0:0:
224,160,26648,1,0,0:0:0:0:
288,160,26706,1,8,0:0:0:0:
224,160,26765,1,0,0:0:0:0:
224,160,26823,1,0,0:0:0:0:
224,160,26882,1,0,0:0:0:0:
288,160,26941,1,8,0:0:0:0:
288,160,26999,1,8,0:0:0:0:
288,160,27058,1,8,0:0:0:0:
288,160,27116,1,8,0:0:0:0:
224,160,27175,1,0,0:0:0:0:
224,160,27234,1,0,0:0:0:0:
224,160,27292,1,0,0:0:0:0:
224,160,27351,1,0,0:0:0:0:
288,160,27409,1,8,0:0:0:0:
288,160,27468,1,8,0:0:0:0:
288,160,27527,1,8,0:0:0:0:
288,160,27585,1,8,0:0:0:0:
224,160,27644,1,0,0:0:0:0:
224,160,27702,1,0,0:0:0:0:
224,160,27761,1,0,0:0:0:0:
224,160,27820,1,0,0:0:0:0:
224,160,27878,1,0,0:0:0:0:
224,160,27937,1,0,0:0:0:0:
224,160,27995,1,0,0:0:0:0:
224,160,28054,1,0,0:0:0:0:
288,224,28113,1,12,0:0:0:0:
224,160,28269,5,0,0:0:0:0:
224,160,28347,1,0,0:0:0:0:
288,160,28425,1,8,0:0:0:0:
224,160,28503,1,0,0:0:0:0:
288,160,28581,1,8,0:0:0:0:
288,160,28659,1,8,0:0:0:0:
224,160,28738,1,0,0:0:0:0:
224,160,28816,1,0,0:0:0:0:
288,160,28894,1,8,0:0:0:0:
224,160,28972,1,0,0:0:0:0:
288,160,29050,1,8,0:0:0:0:
288,160,29128,1,8,0:0:0:0:
288,160,29206,1,8,0:0:0:0:
288,160,29284,1,8,0:0:0:0:
224,160,29363,1,0,0:0:0:0:
224,160,29441,1,0,0:0:0:0:
288,160,29519,1,8,0:0:0:0:
288,160,29597,1,8,0:0:0:0:
224,160,29675,1,0,0:0:0:0:
224,160,29753,1,0,0:0:0:0:
288,160,29831,1,8,0:0:0:0:
224,160,29909,1,0,0:0:0:0:
288,160,29988,1,8,0:0:0:0:
224,160,30066,1,0,0:0:0:0:
288,160,30144,1,8,0:0:0:0:
288,160,30222,1,8,0:0:0:0:
224,160,30300,1,0,0:0:0:0:
224,160,30378,1,0,0:0:0:0:
288,160,30456,1,8,0:0:0:0:
288,160,30534,1,8,0:0:0:0:
224,160,30613,1,0,0:0:0:0:
288,160,30691,1,8,0:0:0:0:
224,160,30769,1,0,0:0:0:0:
224,160,30847,1,0,0:0:0:0:
288,160,30925,1,8,0:0:0:0:
288,160,31003,1,8,0:0:0:0:
288,160,31081,1,8,0:0:0:0:
224,160,31159,1,0,0:0:0:0:
224,160,31238,1,0,0:0:0:0:
224,160,31316,1,0,0:0:0:0:
288,160,31394,1,8,0:0:0:0:
288,160,31472,1,8,0:0:0:0:
224,160,31550,1,0,0:0:0:0:
224,160,31628,1,0,0:0:0:0:
288,160,31706,1,8,0:0:0:0:
224,160,31784,1,0,0:0:0:0:
288,160,31863,1,8,0:0:0:0:
288,160,31941,1,8,0:0:0:0:
288,160,32019,1,8,0:0:0:0:
288,160,32097,1,8,0:0:0:0:
224,160,32175,1,0,0:0:0:0:
224,160,32253,1,0,0:0:0:0:
288,160,32331,1,8,0:0:0:0:
288,160,32409,1,8,0:0:0:0:
288,160,32488,1,8,0:0:0:0:
224,160,32566,1,0,0:0:0:0:
224,160,32644,1,0,0:0:0:0:
224,160,32722,1,0,0:0:0:0:
288,160,32800,1,8,0:0:0:0:
288,160,32878,1,8,0:0:0:0:
288,160,32956,1,8,0:0:0:0:
288,160,33034,1,8,0:0:0:0:
224,160,33113,1,0,0:0:0:0:
224,160,33191,1,0,0:0:0:0:
288,160,33269,1,8,0:0:0:0:
288,160,33347,1,8,0:0:0:0:
224,160,33425,1,0,0:0:0:0:
224,160,33503,1,0,0:0:0:0:
224,160,33581,1,0,0:0:0:0:
224,160,33659,1,0,0:0:0:0:
288,160,33738,1,8,0:0:0:0:
224,160,33816,1,0,0:0:0:0:
288,160,33894,1,8,0:0:0:0:
288,160,33972,1,8,0:0:0:0:
224,160,34050,1,0,0:0:0:0:
224,160,34128,1,0,0:0:0:0:
288,160,34206,1,8,0:0:0:0:
288,160,34284,1,8,0:0:0:0:
224,160,34363,1,0,0:0:0:0:
288,160,34441,1,8,0:0:0:0:
288,160,34519,1,8,0:0:0:0:
288,160,34597,1,8,0:0:0:0:
224,160,34675,1,0,0:0:0:0:
224,160,34734,1,0,0:0:0:0:
224,160,34792,1,0,0:0:0:0:
224,160,34851,1,0,0:0:0:0:
288,160,34909,1,8,0:0:0:0:
288,160,34968,1,8,0:0:0:0:
288,160,35027,1,8,0:0:0:0:
288,160,35085,1,8,0:0:0:0:
224,160,35144,1,0,0:0:0:0:
224,160,35202,1,0,0:0:0:0:
288,160,35261,1,8,0:0:0:0:
288,160,35320,1,8,0:0:0:0:
224,160,35378,1,0,0:0:0:0:
224,160,35437,1,0,0:0:0:0:
224,160,35495,1,0,0:0:0:0:
224,160,35554,1,0,0:0:0:0:
288,224,35613,1,12,0:0:0:0:
224,160,35730,5,0,0:0:0:0:
224,160,35847,1,0,0:0:0:0:
224,160,35964,1,0,0:0:0:0:
288,160,36081,1,8,0:0:0:0:
224,160,36198,1,0,0:0:0:0:
224,160,36316,1,0,0:0:0:0:
224,160,36433,1,0,0:0:0:0:
288,160,36550,1,8,0:0:0:0:
288,160,36609,1,8,0:0:0:0:
224,160,36667,1,0,0:0:0:0:
224,160,36784,1,0,0:0:0:0:
224,160,36902,1,0,0:0:0:0:
288,160,37019,1,8,0:0:0:0:
224,160,37136,1,0,0:0:0:0:
288,160,37253,1,8,0:0:0:0:
288,160,37370,1,8,0:0:0:0:
288,160,37488,1,8,0:0:0:0:
224,160,37605,1,0,0:0:0:0:
224,160,37722,1,0,0:0:0:0:
224,160,37839,1,0,0:0:0:0:
288,160,37956,1,8,0:0:0:0:
224,160,38073,1,0,0:0:0:0:
224,160,38191,1,0,0:0:0:0:
224,160,38308,1,0,0:0:0:0:
288,160,38425,1,8,0:0:0:0:
288,160,38484,1,8,0:0:0:0:
224,160,38542,1,0,0:0:0:0:
224,160,38601,1,0,0:0:0:0:
224,160,38659,1,0,0:0:0:0:
224,160,38718,1,0,0:0:0:0:
224,160,38777,1,0,0:0:0:0:
224,160,38835,1,0,0:0:0:0:
288,160,38894,1,8,0:0:0:0:
224,160,38952,1,0,0:0:0:0:
288,160,39011,1,8,0:0:0:0:
224,160,39070,1,0,0:0:0:0:
288,160,39128,1,8,0:0:0:0:
224,160,39187,1,0,0:0:0:0:
288,160,39245,1,8,0:0:0:0:
224,160,39304,1,0,0:0:0:0:
288,160,39363,1,8,0:0:0:0:
224,160,39480,1,0,0:0:0:0:
224,160,39597,1,0,0:0:0:0:
224,160,39714,1,0,0:0:0:0:
288,160,39831,1,8,0:0:0:0:
224,160,39948,1,0,0:0:0:0:
224,160,40066,1,0,0:0:0:0:
224,160,40183,1,0,0:0:0:0:
288,160,40300,1,8,0:0:0:0:
288,160,40359,1,8,0:0:0:0:
224,160,40417,1,0,0:0:0:0:
224,160,40534,1,0,0:0:0:0:
224,160,40652,1,0,0:0:0:0:
288,160,40769,1,8,0:0:0:0:
224,160,40886,1,0,0:0:0:0:
224,160,41003,1,0,0:0:0:0:
224,160,41120,1,0,0:0:0:0:
288,160,41238,1,8,0:0:0:0:
288,160,41296,1,8,0:0:0:0:
288,160,41355,1,8,0:0:0:0:
288,160,41472,1,8,0:0:0:0:
224,160,41589,1,0,0:0:0:0:
224,160,41648,1,0,0:0:0:0:
288,160,41706,1,8,0:0:0:0:
288,160,41823,1,8,0:0:0:0:
224,160,41941,1,0,0:0:0:0:
224,160,42058,1,0,0:0:0:0:
288,160,42175,1,8,0:0:0:0:
288,160,42234,1,8,0:0:0:0:
288,160,42292,1,8,0:0:0:0:
288,160,42409,1,8,0:0:0:0:
224,160,42527,1,0,0:0:0:0:
224,160,42585,1,0,0:0:0:0:
224,160,42644,1,0,0:0:0:0:
224,160,42702,1,0,0:0:0:0:
288,160,42761,1,8,0:0:0:0:
224,160,42820,1,0,0:0:0:0:
288,160,42878,1,8,0:0:0:0:
224,160,42937,1,0,0:0:0:0:
224,160,42995,1,0,0:0:0:0:
224,160,43054,1,0,0:0:0:0:
288,224,43113,1,12,0:0:0:0:
288,224,43347,5,12,0:0:0:0:
224,224,43581,1,4,0:0:0:0:
224,160,43816,1,0,0:0:0:0:
224,160,43874,1,0,0:0:0:0:
224,160,43933,1,0,0:0:0:0:
224,160,43991,1,0,0:0:0:0:
288,160,44050,1,8,0:0:0:0:
288,160,44089,1,8,0:0:0:0:
224,160,44284,1,0,0:0:0:0:
224,160,44323,1,0,0:0:0:0:
288,160,44519,1,8,0:0:0:0:
288,160,44558,1,8,0:0:0:0:
224,160,44616,1,0,0:0:0:0:
288,160,44675,1,8,0:0:0:0:
288,160,44714,1,8,0:0:0:0:
224,160,44773,1,0,0:0:0:0:
288,160,44831,1,8,0:0:0:0:
288,160,44870,1,8,0:0:0:0:
288,160,44929,1,8,0:0:0:0:
224,160,44988,1,0,0:0:0:0:
224,160,45105,1,0,0:0:0:0:
224,160,45163,1,0,0:0:0:0:
288,160,45222,1,8,0:0:0:0:
224,160,45339,1,0,0:0:0:0:
224,160,45456,1,0,0:0:0:0:
288,160,45573,1,8,0:0:0:0:
288,160,45691,1,8,0:0:0:0:
224,160,45808,1,0,0:0:0:0:
288,160,45925,1,8,0:0:0:0:
288,160,46003,1,8,0:0:0:0:
288,160,46081,1,8,0:0:0:0:
224,160,46159,1,0,0:0:0:0:
224,160,46238,1,0,0:0:0:0:
224,160,46316,1,0,0:0:0:0:
288,160,46394,1,8,0:0:0:0:
288,160,46550,1,8,0:0:0:0:
288,160,46706,1,8,0:0:0:0:
288,224,46863,5,12,0:0:0:0:
288,224,47097,1,12,0:0:0:0:
224,224,47331,1,4,0:0:0:0:
288,160,47478,1,8,0:0:0:0:
224,160,47624,1,0,0:0:0:0:
224,160,47800,1,0,0:0:0:0:
288,160,47917,1,8,0:0:0:0:
224,160,48034,1,0,0:0:0:0:
224,160,48113,1,0,0:0:0:0:
224,160,48191,1,0,0:0:0:0:
288,160,48269,1,8,0:0:0:0:
288,160,48308,1,8,0:0:0:0:
224,160,48503,1,0,0:0:0:0:
288,160,48738,1,8,0:0:0:0:
288,160,48796,1,8,0:0:0:0:
224,160,48855,1,0,0:0:0:0:
224,160,48913,1,0,0:0:0:0:
288,160,48972,1,8,0:0:0:0:
224,160,49089,1,0,0:0:0:0:
224,160,49148,1,0,0:0:0:0:
224,160,49206,1,0,0:0:0:0:
224,160,49323,1,0,0:0:0:0:
288,160,49441,1,8,0:0:0:0:
224,160,49558,1,0,0:0:0:0:
288,160,49675,1,8,0:0:0:0:
288,160,49704,1,8,0:0:0:0:
224,160,49909,1,0,0:0:0:0:
224,160,50027,1,0,0:0:0:0:
288,160,50144,1,8,0:0:0:0:
288,160,50183,1,8,0:0:0:0:
288,224,50613,5,12,0:0:0:0:
224,160,50730,1,0,0:0:0:0:
224,160,50788,1,0,0:0:0:0:
288,160,50847,1,8,0:0:0:0:
224,160,50905,1,0,0:0:0:0:
288,160,50964,1,8,0:0:0:0:
224,160,51023,1,0,0:0:0:0:
288,160,51081,1,8,0:0:0:0:
288,160,51140,1,8,0:0:0:0:
224,160,51198,1,0,0:0:0:0:
224,160,51257,1,0,0:0:0:0:
288,160,51316,1,8,0:0:0:0:
224,160,51374,1,0,0:0:0:0:
288,160,51433,1,8,0:0:0:0:
288,160,51491,1,8,0:0:0:0:
224,160,51550,1,0,0:0:0:0:
288,160,51609,1,8,0:0:0:0:
224,160,51667,1,0,0:0:0:0:
224,160,51726,1,0,0:0:0:0:
288,160,51784,1,8,0:0:0:0:
224,160,51843,1,0,0:0:0:0:
288,160,51902,1,8,0:0:0:0:
224,160,51960,1,0,0:0:0:0:
288,160,52019,1,8,0:0:0:0:
288,160,52077,1,8,0:0:0:0:
288,160,52136,1,8,0:0:0:0:
224,160,52195,1,0,0:0:0:0:
288,160,52253,1,8,0:0:0:0:
288,160,52312,1,8,0:0:0:0:
224,160,52370,1,0,0:0:0:0:
224,160,52429,1,0,0:0:0:0:
288,160,52488,1,8,0:0:0:0:
288,160,52546,1,8,0:0:0:0:
288,160,52605,1,8,0:0:0:0:
224,160,52663,1,0,0:0:0:0:
288,160,52722,1,8,0:0:0:0:
224,160,52780,1,0,0:0:0:0:
288,160,52839,1,8,0:0:0:0:
288,160,52898,1,8,0:0:0:0:
224,160,52956,1,0,0:0:0:0:
288,160,53015,1,8,0:0:0:0:
288,160,53073,1,8,0:0:0:0:
224,160,53132,1,0,0:0:0:0:
288,160,53191,1,8,0:0:0:0:
224,160,53249,1,0,0:0:0:0:
224,160,53308,1,0,0:0:0:0:
224,160,53366,1,0,0:0:0:0:
288,160,53425,1,8,0:0:0:0:
288,160,53484,1,8,0:0:0:0:
288,160,53542,1,8,0:0:0:0:
288,160,53601,1,8,0:0:0:0:
224,160,53659,1,0,0:0:0:0:
224,160,53718,1,0,0:0:0:0:
224,160,53777,1,0,0:0:0:0:
224,160,53835,1,0,0:0:0:0:
224,160,53894,1,0,0:0:0:0:
224,160,53952,1,0,0:0:0:0:
224,160,54011,1,0,0:0:0:0:
224,160,54070,1,0,0:0:0:0:
288,160,54128,1,8,0:0:0:0:
288,160,54245,1,8,0:0:0:0:
288,160,54363,5,8,0:0:0:0:
288,160,54421,1,8,0:0:0:0:
288,160,54480,1,8,0:0:0:0:
288,160,54538,1,8,0:0:0:0:
224,160,54597,1,0,0:0:0:0:
224,160,54655,1,0,0:0:0:0:
288,160,54714,1,8,0:0:0:0:
288,160,54773,1,8,0:0:0:0:
288,160,54831,1,8,0:0:0:0:
224,160,54890,1,0,0:0:0:0:
288,160,54948,1,8,0:0:0:0:
224,160,55007,1,0,0:0:0:0:
288,160,55066,1,8,0:0:0:0:
288,160,55124,1,8,0:0:0:0:
224,160,55183,1,0,0:0:0:0:
224,160,55241,1,0,0:0:0:0:
288,160,55300,1,8,0:0:0:0:
288,160,55359,1,8,0:0:0:0:
288,160,55417,1,8,0:0:0:0:
288,160,55476,1,8,0:0:0:0:
224,160,55534,1,0,0:0:0:0:
224,160,55593,1,0,0:0:0:0:
288,160,55652,1,8,0:0:0:0:
288,160,55710,1,8,0:0:0:0:
288,160,55769,1,8,0:0:0:0:
288,160,55827,1,8,0:0:0:0:
224,160,55886,1,0,0:0:0:0:
224,160,55945,1,0,0:0:0:0:
288,160,56003,1,8,0:0:0:0:
224,160,56062,1,0,0:0:0:0:
224,160,56120,1,0,0:0:0:0:
224,160,56179,1,0,0:0:0:0:
288,160,56238,1,8,0:0:0:0:
288,160,56296,1,8,0:0:0:0:
288,160,56355,1,8,0:0:0:0:
224,160,56413,1,0,0:0:0:0:
288,160,56472,1,8,0:0:0:0:
224,160,56530,1,0,0:0:0:0:
288,160,56589,1,8,0:0:0:0:
224,160,56648,1,0,0:0:0:0:
288,160,56706,1,8,0:0:0:0:
288,160,56765,1,8,0:0:0:0:
224,160,56823,1,0,0:0:0:0:
224,160,56882,1,0,0:0:0:0:
288,160,56941,1,8,0:0:0:0:
224,160,56999,1,0,0:0:0:0:
224,160,57058,1,0,0:0:0:0:
224,160,57116,1,0,0:0:0:0:
288,160,57175,1,8,0:0:0:0:
288,160,57234,1,8,0:0:0:0:
288,160,57292,1,8,0:0:0:0:
288,160,57351,1,8,0:0:0:0:
224,160,57409,1,0,0:0:0:0:
224,160,57468,1,0,0:0:0:0:
224,160,57527,1,0,0:0:0:0:
224,160,57585,1,0,0:0:0:0:
288,160,57644,1,8,0:0:0:0:
224,160,57702,1,0,0:0:0:0:
224,160,57761,1,0,0:0:0:0:
224,160,57820,1,0,0:0:0:0:
288,160,57878,1,8,0:0:0:0:
288,160,57937,1,8,0:0:0:0:
288,160,57995,1,8,0:0:0:0:
288,224,58113,5,12,0:0:0:0:
224,160,58230,1,0,0:0:0:0:
224,160,58288,1,0,0:0:0:0:
224,160,58347,1,0,0:0:0:0:
224,160,58405,1,0,0:0:0:0:
224,160,58464,1,0,0:0:0:0:
224,160,58523,1,0,0:0:0:0:
288,160,58581,1,8,0:0:0:0:
288,160,58640,1,8,0:0:0:0:
288,160,58698,1,8,0:0:0:0:
288,160,58757,1,8,0:0:0:0:
288,160,58816,1,8,0:0:0:0:
288,160,58874,1,8,0:0:0:0:
288,160,58933,1,8,0:0:0:0:
288,160,58992,1,8,0:0:0:0:
288,160,59051,1,8,0:0:0:0:
288,160,59109,1,8,0:0:0:0:
224,160,59167,1,0,0:0:0:0:
224,160,59226,1,0,0:0:0:0:
288,160,59284,1,8,0:0:0:0:
288,160,59343,1,8,0:0:0:0:
288,160,59402,1,8,0:0:0:0:
224,160,59460,1,0,0:0:0:0:
288,160,59519,1,8,0:0:0:0:
288,160,59577,1,8,0:0:0:0:
224,160,59636,1,0,0:0:0:0:
224,160,59695,1,0,0:0:0:0:
288,160,59753,1,8,0:0:0:0:
288,160,59812,1,8,0:0:0:0:
288,160,59870,1,8,0:0:0:0:
224,160,59929,1,0,0:0:0:0:
288,160,59988,1,8,0:0:0:0:
288,160,60046,1,8,0:0:0:0:
288,160,60105,1,8,0:0:0:0:
288,160,60163,1,8,0:0:0:0:
224,160,60222,1,0,0:0:0:0:
224,160,60280,1,0,0:0:0:0:
224,160,60339,1,0,0:0:0:0:
224,160,60398,1,0,0:0:0:0:
288,160,60456,1,8,0:0:0:0:
288,160,60515,1,8,0:0:0:0:
224,160,60573,1,0,0:0:0:0:
224,160,60632,1,0,0:0:0:0:
288,160,60691,1,8,0:0:0:0:
288,160,60749,1,8,0:0:0:0:
288,160,60808,1,8,0:0:0:0:
288,160,60866,1,8,0:0:0:0:
288,160,60925,1,8,0:0:0:0:
288,160,60984,1,8,0:0:0:0:
224,160,61042,1,0,0:0:0:0:
224,160,61101,1,0,0:0:0:0:
288,160,61159,1,8,0:0:0:0:
288,160,61218,1,8,0:0:0:0:
224,160,61277,1,0,0:0:0:0:
224,160,61335,1,0,0:0:0:0:
288,160,61394,1,8,0:0:0:0:
288,160,61452,1,8,0:0:0:0:
288,160,61511,1,8,0:0:0:0:
224,160,61570,1,0,0:0:0:0:
288,160,61628,1,8,0:0:0:0:
224,160,61687,1,0,0:0:0:0:
224,160,61745,1,0,0:0:0:0:
224,160,61804,1,0,0:0:0:0:
288,160,61863,1,8,0:0:0:0:
288,160,61921,1,8,0:0:0:0:
288,160,61980,1,8,0:0:0:0:
288,160,62038,1,8,0:0:0:0:
288,160,62097,1,8,0:0:0:0:
288,160,62155,1,8,0:0:0:0:
224,160,62214,1,0,0:0:0:0:
224,160,62273,1,0,0:0:0:0:
288,160,62331,1,8,0:0:0:0:
224,160,62390,1,0,0:0:0:0:
224,160,62448,1,0,0:0:0:0:
224,160,62507,1,0,0:0:0:0:
288,160,62566,1,8,0:0:0:0:
288,160,62624,1,8,0:0:0:0:
288,160,62683,1,8,0:0:0:0:
288,160,62741,1,8,0:0:0:0:
288,160,62800,1,8,0:0:0:0:
288,160,62859,1,8,0:0:0:0:
224,160,62917,1,0,0:0:0:0:
224,160,62976,1,0,0:0:0:0:
288,160,63034,1,8,0:0:0:0:
288,160,63093,1,8,0:0:0:0:
224,160,63152,1,0,0:0:0:0:
224,160,63210,1,0,0:0:0:0:
288,160,63269,1,8,0:0:0:0:
224,160,63327,1,0,0:0:0:0:
288,160,63386,1,8,0:0:0:0:
224,160,63445,1,0,0:0:0:0:
288,160,63503,1,8,0:0:0:0:
224,160,63562,1,0,0:0:0:0:
288,160,63620,1,8,0:0:0:0:
224,160,63679,1,0,0:0:0:0:
288,160,63738,1,8,0:0:0:0:
288,160,63796,1,8,0:0:0:0:
288,160,63855,1,8,0:0:0:0:
288,160,63913,1,8,0:0:0:0:
224,160,63972,1,0,0:0:0:0:
224,160,64030,1,0,0:0:0:0:
288,160,64089,1,8,0:0:0:0:
288,160,64148,1,8,0:0:0:0:
288,160,64206,1,8,0:0:0:0:
224,160,64265,1,0,0:0:0:0:
224,160,64323,1,0,0:0:0:0:
224,160,64382,1,0,0:0:0:0:
288,160,64441,1,8,0:0:0:0:
288,160,64499,1,8,0:0:0:0:
224,160,64558,1,0,0:0:0:0:
224,160,64616,1,0,0:0:0:0:
288,160,64675,1,8,0:0:0:0:
288,160,64734,1,8,0:0:0:0:
288,160,64792,1,8,0:0:0:0:
288,160,64851,1,8,0:0:0:0:
288,160,64909,1,8,0:0:0:0:
288,160,65027,1,8,0:0:0:0:
288,160,65144,1,8,0:0:0:0:
224,160,65261,1,0,0:0:0:0:
224,160,65378,1,0,0:0:0:0:
288,160,65495,1,8,0:0:0:0:
224,224,65613,1,4,0:0:0:0:
288,160,67004,1,8,0:0:0:0:
288,160,67058,1,8,0:0:0:0:
224,224,67488,5,4,0:0:0:0:
224,160,67644,1,0,0:0:0:0:
224,160,67722,1,0,0:0:0:0:
224,160,67800,1,0,0:0:0:0:
224,160,67878,1,0,0:0:0:0:
288,160,67956,1,8,0:0:0:0:
288,160,68034,1,8,0:0:0:0:
224,160,68113,1,0,0:0:0:0:
224,160,68191,1,0,0:0:0:0:
224,160,68269,1,0,0:0:0:0:
224,160,68347,1,0,0:0:0:0:
288,160,68425,1,8,0:0:0:0:
224,160,68503,1,0,0:0:0:0:
224,160,68581,1,0,0:0:0:0:
224,160,68659,1,0,0:0:0:0:
224,160,68738,1,0,0:0:0:0:
224,160,68816,1,0,0:0:0:0:
288,160,68894,1,8,0:0:0:0:
288,160,68972,1,8,0:0:0:0:
224,160,69050,1,0,0:0:0:0:
224,160,69128,1,0,0:0:0:0:
224,160,69206,1,0,0:0:0:0:
224,160,69284,1,0,0:0:0:0:
288,160,69363,1,8,0:0:0:0:
288,160,69441,1,8,0:0:0:0:
224,160,69519,1,0,0:0:0:0:
224,160,69597,1,0,0:0:0:0:
288,160,69675,1,8,0:0:0:0:
288,160,69753,1,8,0:0:0:0:
224,160,69831,1,0,0:0:0:0:
224,160,69909,1,0,0:0:0:0:
288,160,69988,1,8,0:0:0:0:
288,160,70066,1,8,0:0:0:0:
288,160,70144,1,8,0:0:0:0:
224,160,70222,1,0,0:0:0:0:
288,160,70300,1,8,0:0:0:0:
288,160,70359,1,8,0:0:0:0:
224,160,70417,1,0,0:0:0:0:
224,160,70476,1,0,0:0:0:0:
288,160,70534,1,8,0:0:0:0:
288,160,70593,1,8,0:0:0:0:
288,160,70652,1,8,0:0:0:0:
288,160,70710,1,8,0:0:0:0:
224,160,70769,1,0,0:0:0:0:
224,160,70886,1,0,0:0:0:0:
224,160,71003,1,0,0:0:0:0:
224,160,71120,1,0,0:0:0:0:
288,224,71238,1,12,0:0:0:0:
224,160,71355,1,0,0:0:0:0:
224,160,71472,1,0,0:0:0:0:
224,160,71589,1,0,0:0:0:0:
288,160,71706,1,8,0:0:0:0:
288,160,71823,1,8,0:0:0:0:
288,160,71941,1,8,0:0:0:0:
224,160,72058,1,0,0:0:0:0:
288,160,72175,1,8,0:0:0:0:
224,160,72292,1,0,0:0:0:0:
224,160,72409,1,0,0:0:0:0:
224,160,72527,1,0,0:0:0:0:
288,160,72644,1,8,0:0:0:0:
224,160,72761,1,0,0:0:0:0:
288,160,72878,1,8,0:0:0:0:
224,160,72995,1,0,0:0:0:0:
224,160,73113,1,0,0:0:0:0:
288,160,73230,1,8,0:0:0:0:
288,160,73347,1,8,0:0:0:0:
224,160,73464,1,0,0:0:0:0:
288,160,73581,1,8,0:0:0:0:
224,160,73698,1,0,0:0:0:0:
288,160,73816,1,8,0:0:0:0:
224,160,73933,1,0,0:0:0:0:
288,160,74050,1,8,0:0:0:0:
224,160,74167,1,0,0:0:0:0:
224,160,74284,1,0,0:0:0:0:
224,160,74402,1,0,0:0:0:0:
288,160,74519,1,8,0:0:0:0:
224,160,74636,1,0,0:0:0:0:
224,160,74695,1,0,0:0:0:0:
224,160,74753,1,0,0:0:0:0:
288,160,74870,1,8,0:0:0:0:
288,224,74988,1,12,0:0:0:0:
224,160,75144,5,0,0:0:0:0:
224,160,75222,1,0,0:0:0:0:
288,160,75300,1,8,0:0:0:0:
224,160,75378,1,0,0:0:0:0:
288,160,75456,1,8,0:0:0:0:
288,160,75534,1,8,0:0:0:0:
224,160,75613,1,0,0:0:0:0:
288,160,75691,1,8,0:0:0:0:
224,160,75769,1,0,0:0:0:0:
224,160,75847,1,0,0:0:0:0:
288,160,75925,1,8,0:0:0:0:
288,160,76003,1,8,0:0:0:0:
288,160,76081,1,8,0:0:0:0:
224,160,76159,1,0,0:0:0:0:
224,160,76238,1,0,0:0:0:0:
224,160,76316,1,0,0:0:0:0:
288,160,76394,1,8,0:0:0:0:
288,160,76472,1,8,0:0:0:0:
288,160,76550,1,8,0:0:0:0:
288,160,76628,1,8,0:0:0:0:
224,160,76706,1,0,0:0:0:0:
224,160,76784,1,0,0:0:0:0:
288,160,76863,1,8,0:0:0:0:
224,160,76941,1,0,0:0:0:0:
224,160,77019,1,0,0:0:0:0:
288,160,77097,1,8,0:0:0:0:
288,160,77175,1,8,0:0:0:0:
224,160,77253,1,0,0:0:0:0:
288,160,77331,1,8,0:0:0:0:
224,160,77409,1,0,0:0:0:0:
288,160,77488,1,8,0:0:0:0:
288,160,77566,1,8,0:0:0:0:
224,160,77644,1,0,0:0:0:0:
224,160,77722,1,0,0:0:0:0:
288,160,77800,1,8,0:0:0:0:
288,160,77878,1,8,0:0:0:0:
288,160,77956,1,8,0:0:0:0:
224,160,78034,1,0,0:0:0:0:
224,160,78113,1,0,0:0:0:0:
224,160,78191,1,0,0:0:0:0:
288,160,78269,1,8,0:0:0:0:
288,160,78347,1,8,0:0:0:0:
288,160,78425,1,8,0:0:0:0:
224,160,78503,1,0,0:0:0:0:
224,160,78581,1,0,0:0:0:0:
224,160,78659,1,0,0:0:0:0:
288,160,78738,1,8,0:0:0:0:
288,160,78816,1,8,0:0:0:0:
288,160,78894,1,8,0:0:0:0:
288,160,78972,1,8,0:0:0:0:
224,160,79050,1,0,0:0:0:0:
224,160,79128,1,0,0:0:0:0:
288,160,79206,1,8,0:0:0:0:
288,160,79284,1,8,0:0:0:0:
224,160,79363,1,0,0:0:0:0:
288,160,79441,1,8,0:0:0:0:
224,160,79519,1,0,0:0:0:0:
224,160,79597,1,0,0:0:0:0:
288,160,79675,1,8,0:0:0:0:
288,160,79753,1,8,0:0:0:0:
224,160,79831,1,0,0:0:0:0:
224,160,79909,1,0,0:0:0:0:
224,160,79988,1,0,0:0:0:0:
224,160,80066,1,0,0:0:0:0:
288,160,80144,1,8,0:0:0:0:
288,160,80222,1,8,0:0:0:0:
288,160,80300,1,8,0:0:0:0:
224,160,80378,1,0,0:0:0:0:
224,160,80456,1,0,0:0:0:0:
224,160,80534,1,0,0:0:0:0:
288,160,80613,1,8,0:0:0:0:
288,160,80671,1,8,0:0:0:0:
288,160,80730,1,8,0:0:0:0:
288,160,80788,1,8,0:0:0:0:
224,160,80847,1,0,0:0:0:0:
224,160,80905,1,0,0:0:0:0:
224,160,80964,1,0,0:0:0:0:
224,160,81023,1,0,0:0:0:0:
288,160,81081,1,8,0:0:0:0:
224,160,81140,1,0,0:0:0:0:
224,160,81198,1,0,0:0:0:0:
224,160,81257,1,0,0:0:0:0:
288,160,81316,1,8,0:0:0:0:
288,160,81374,1,8,0:0:0:0:
224,160,81433,1,0,0:0:0:0:
224,160,81491,1,0,0:0:0:0:
288,160,81550,1,8,0:0:0:0:
288,160,81609,1,8,0:0:0:0:
288,160,81667,1,8,0:0:0:0:
288,160,81726,1,8,0:0:0:0:
224,160,81784,1,0,0:0:0:0:
224,160,81843,1,0,0:0:0:0:
224,160,81902,1,0,0:0:0:0:
224,160,81960,1,0,0:0:0:0:
288,160,82019,1,8,0:0:0:0:
224,160,82077,1,0,0:0:0:0:
288,160,82136,1,8,0:0:0:0:
224,160,82195,1,0,0:0:0:0:
288,160,82253,1,8,0:0:0:0:
288,160,82312,1,8,0:0:0:0:
288,160,82370,1,8,0:0:0:0:
288,160,82429,1,8,0:0:0:0:
224,160,82488,1,0,0:0:0:0:
224,160,82605,1,0,0:0:0:0:
288,160,82722,1,8,0:0:0:0:
288,160,82780,1,8,0:0:0:0:
288,160,82839,1,8,0:0:0:0:
288,160,82898,1,8,0:0:0:0:
224,160,82956,1,0,0:0:0:0:
224,160,83015,1,0,0:0:0:0:
288,160,83073,1,8,0:0:0:0:
224,160,83132,1,0,0:0:0:0:
288,160,83191,1,8,0:0:0:0:
224,160,83308,1,0,0:0:0:0:
224,160,83366,1,0,0:0:0:0:
288,160,83425,1,8,0:0:0:0:
288,160,83484,1,8,0:0:0:0:
224,160,83542,1,0,0:0:0:0:
288,160,83659,1,8,0:0:0:0:
288,160,83718,1,8,0:0:0:0:
288,160,83777,1,8,0:0:0:0:
288,160,83835,1,8,0:0:0:0:
224,160,83894,1,0,0:0:0:0:
224,160,83952,1,0,0:0:0:0:
288,160,84011,1,8,0:0:0:0:
224,160,84070,1,0,0:0:0:0:
288,160,84128,1,8,0:0:0:0:
224,160,84187,1,0,0:0:0:0:
288,160,84245,1,8,0:0:0:0:
288,224,84363,1,12,0:0:0:0:
224,160,84480,5,0,0:0:0:0:
224,160,84538,1,0,0:0:0:0:
288,160,84597,1,8,0:0:0:0:
224,160,84655,1,0,0:0:0:0:
288,160,84714,1,8,0:0:0:0:
288,160,84773,1,8,0:0:0:0:
224,160,84831,1,0,0:0:0:0:
224,160,84890,1,0,0:0:0:0:
288,160,84948,1,8,0:0:0:0:
224,160,85007,1,0,0:0:0:0:
288,160,85066,1,8,0:0:0:0:
288,160,85124,1,8,0:0:0:0:
224,160,85183,1,0,0:0:0:0:
224,160,85241,1,0,0:0:0:0:
288,160,85300,1,8,0:0:0:0:
224,160,85359,1,0,0:0:0:0:
288,160,85417,1,8,0:0:0:0:
224,160,85476,1,0,0:0:0:0:
288,160,85534,1,8,0:0:0:0:
224,160,85593,1,0,0:0:0:0:
224,160,85652,1,0,0:0:0:0:
224,160,85710,1,0,0:0:0:0:
288,160,85769,1,8,0:0:0:0:
288,160,85827,1,8,0:0:0:0:
224,160,85886,1,0,0:0:0:0:
224,160,85945,1,0,0:0:0:0:
288,160,86003,1,8,0:0:0:0:
288,160,86062,1,8,0:0:0:0:
288,160,86120,1,8,0:0:0:0:
224,160,86179,1,0,0:0:0:0:
288,160,86238,1,8,0:0:0:0:
288,160,86296,1,8,0:0:0:0:
224,160,86355,1,0,0:0:0:0:
224,160,86413,1,0,0:0:0:0:
288,160,86472,1,8,0:0:0:0:
224,160,86530,1,0,0:0:0:0:
288,160,86589,1,8,0:0:0:0:
288,160,86648,1,8,0:0:0:0:
224,160,86706,1,0,0:0:0:0:
224,160,86765,1,0,0:0:0:0:
288,160,86823,1,8,0:0:0:0:
224,160,86882,1,0,0:0:0:0:
288,160,86941,1,8,0:0:0:0:
288,160,86999,1,8,0:0:0:0:
224,160,87058,1,0,0:0:0:0:
224,160,87116,1,0,0:0:0:0:
288,160,87175,1,8,0:0:0:0:
288,160,87234,1,8,0:0:0:0:
288,160,87292,1,8,0:0:0:0:
224,160,87351,1,0,0:0:0:0:
288,160,87409,1,8,0:0:0:0:
224,160,87468,1,0,0:0:0:0:
288,160,87527,1,8,0:0:0:0:
224,160,87585,1,0,0:0:0:0:
288,160,87644,1,8,0:0:0:0:
224,160,87702,1,0,0:0:0:0:
288,160,87761,1,8,0:0:0:0:
288,160,87820,1,8,0:0:0:0:
288,160,87878,1,8,0:0:0:0:
288,160,87937,1,8,0:0:0:0:
224,160,87995,1,0,0:0:0:0:
224,160,88054,1,0,0:0:0:0:
288,160,88113,1,8,0:0:0:0:
224,160,88230,1,0,0:0:0:0:
224,160,88288,1,0,0:0:0:0:
224,160,88347,1,0,0:0:0:0:
288,160,88464,1,8,0:0:0:0:
224,160,88581,1,0,0:0:0:0:
224,160,88640,1,0,0:0:0:0:
224,160,88698,1,0,0:0:0:0:
288,160,88816,1,8,0:0:0:0:
224,160,88874,1,0,0:0:0:0:
224,160,88933,1,0,0:0:0:0:
288,160,88991,1,8,0:0:0:0:
288,160,89050,1,8,0:0:0:0:
224,160,89167,1,0,0:0:0:0:
224,160,89226,1,0,0:0:0:0:
288,160,89284,1,8,0:0:0:0:
224,160,89402,1,0,0:0:0:0:
288,160,89519,1,8,0:0:0:0:
224,160,89577,1,0,0:0:0:0:
288,160,89636,1,8,0:0:0:0:
224,160,89695,1,0,0:0:0:0:
288,160,89753,1,8,0:0:0:0:
224,160,89812,1,0,0:0:0:0:
288,160,89870,1,8,0:0:0:0:
224,160,89988,1,0,0:0:0:0:
224,160,90046,1,0,0:0:0:0:
224,160,90105,1,0,0:0:0:0:
224,160,90163,1,0,0:0:0:0:
224,160,90222,1,0,0:0:0:0:
224,160,90280,1,0,0:0:0:0:
224,160,90339,1,0,0:0:0:0:
224,160,90398,1,0,0:0:0:0:
288,160,90456,1,8,0:0:0:0:
288,160,90515,1,8,0:0:0:0:
224,160,90573,1,0,0:0:0:0:
224,160,90632,1,0,0:0:0:0:
224,160,90691,1,0,0:0:0:0:
224,160,90749,1,0,0:0:0:0:
224,160,90808,1,0,0:0:0:0:
224,160,90866,1,0,0:0:0:0:
288,160,90925,1,8,0:0:0:0:
288,160,90984,1,8,0:0:0:0:
288,160,91042,1,8,0:0:0:0:
288,160,91101,1,8,0:0:0:0:
224,160,91159,1,0,0:0:0:0:
224,160,91218,1,0,0:0:0:0:
224,160,91277,1,0,0:0:0:0:
224,160,91335,1,0,0:0:0:0:
288,160,91394,1,8,0:0:0:0:
288,160,91452,1,8,0:0:0:0:
224,160,91511,1,0,0:0:0:0:
288,160,91570,1,8,0:0:0:0:
288,160,91628,1,8,0:0:0:0:
288,160,91687,1,8,0:0:0:0:
224,160,91745,1,0,0:0:0:0:
288,224,91863,1,12,0:0:0:0:
224,160,91980,5,0,0:0:0:0:
224,160,92038,1,0,0:0:0:0:
288,160,92097,1,8,0:0:0:0:
224,160,92155,1,0,0:0:0:0:
288,160,92214,1,8,0:0:0:0:
288,160,92273,1,8,0:0:0:0:
224,160,92331,1,0,0:0:0:0:
224,160,92390,1,0,0:0:0:0:
288,160,92448,1,8,0:0:0:0:
224,160,92507,1,0,0:0:0:0:
288,160,92566,1,8,0:0:0:0:
288,160,92624,1,8,0:0:0:0:
224,160,92683,1,0,0:0:0:0:
224,160,92741,1,0,0:0:0:0:
288,160,92800,1,8,0:0:0:0:
224,160,92859,1,0,0:0:0:0:
288,160,92917,1,8,0:0:0:0:
224,160,92976,1,0,0:0:0:0:
288,160,93034,1,8,0:0:0:0:
224,160,93093,1,0,0:0:0:0:
224,160,93152,1,0,0:0:0:0:
224,160,93210,1,0,0:0:0:0:
288,160,93269,1,8,0:0:0:0:
288,160,93327,1,8,0:0:0:0:
224,160,93386,1,0,0:0:0:0:
224,160,93445,1,0,0:0:0:0:
288,160,93503,1,8,0:0:0:0:
288,160,93562,1,8,0:0:0:0:
288,160,93620,1,8,0:0:0:0:
224,160,93679,1,0,0:0:0:0:
288,160,93738,1,8,0:0:0:0:
288,160,93796,1,8,0:0:0:0:
288,160,93855,1,8,0:0:0:0:
224,160,93913,1,0,0:0:0:0:
288,160,93972,1,8,0:0:0:0:
288,160,94030,1,8,0:0:0:0:
224,160,94089,1,0,0:0:0:0:
224,160,94148,1,0,0:0:0:0:
288,160,94206,1,8,0:0:0:0:
224,160,94265,1,0,0:0:0:0:
224,160,94323,1,0,0:0:0:0:
224,160,94382,1,0,0:0:0:0:
288,160,94441,1,8,0:0:0:0:
288,160,94499,1,8,0:0:0:0:
288,160,94558,1,8,0:0:0:0:
288,160,94616,1,8,0:0:0:0:
224,160,94675,1,0,0:0:0:0:
224,160,94734,1,0,0:0:0:0:
224,160,94792,1,0,0:0:0:0:
224,160,94851,1,0,0:0:0:0:
288,160,94909,1,8,0:0:0:0:
288,160,94968,1,8,0:0:0:0:
288,160,95027,1,8,0:0:0:0:
288,160,95085,1,8,0:0:0:0:
224,160,95144,1,0,0:0:0:0:
224,160,95202,1,0,0:0:0:0:
224,160,95261,1,0,0:0:0:0:
224,160,95320,1,0,0:0:0:0:
288,160,95378,1,8,0:0:0:0:
288,160,95437,1,8,0:0:0:0:
288,160,95495,1,8,0:0:0:0:
288,160,95554,1,8,0:0:0:0:
288,160,95613,1,8,0:0:0:0:
224,160,95730,1,0,0:0:0:0:
224,160,95788,1,0,0:0:0:0:
288,160,95847,1,8,0:0:0:0:
288,160,95964,1,8,0:0:0:0:
224,160,96081,1,0,0:0:0:0:
224,160,96140,1,0,0:0:0:0:
288,160,96198,1,8,0:0:0:0:
288,160,96316,1,8,0:0:0:0:
224,160,96374,1,0,0:0:0:0:
224,160,96433,1,0,0:0:0:0:
288,160,96491,1,8,0:0:0:0:
288,160,96550,1,8,0:0:0:0:
224,160,96667,1,0,0:0:0:0:
224,160,96726,1,0,0:0:0:0:
288,160,96784,1,8,0:0:0:0:
224,160,96902,1,0,0:0:0:0:
288,160,97019,1,8,0:0:0:0:
288,160,97077,1,8,0:0:0:0:
224,160,97136,1,0,0:0:0:0:
224,160,97195,1,0,0:0:0:0:
288,160,97253,1,8,0:0:0:0:
288,160,97312,1,8,0:0:0:0:
224,160,97370,1,0,0:0:0:0:
224,160,97429,1,0,0:0:0:0:
288,160,97488,1,8,0:0:0:0:
224,160,98191,5,0,0:0:0:0:
224,160,98249,1,0,0:0:0:0:
224,160,98308,1,0,0:0:0:0:
224,160,98366,1,0,0:0:0:0:
224,160,98425,1,0,0:0:0:0:
288,160,98894,5,8,0:0:0:0:
288,160,98952,1,8,0:0:0:0:
288,160,99011,1,8,0:0:0:0:
288,160,99070,1,8,0:0:0:0:
288,160,99128,1,8,0:0:0:0:
288,224,99363,5,12,0:0:0:0:
224,160,99519,1,0,0:0:0:0:
224,160,99597,1,0,0:0:0:0:
288,160,99675,1,8,0:0:0:0:
224,160,99753,1,0,0:0:0:0:
288,160,99831,1,8,0:0:0:0:
288,160,99909,1,8,0:0:0:0:
224,160,99988,1,0,0:0:0:0:
224,160,100066,1,0,0:0:0:0:
288,160,100144,1,8,0:0:0:0:
224,160,100222,1,0,0:0:0:0:
288,160,100300,1,8,0:0:0:0:
288,160,100378,1,8,0:0:0:0:
288,160,100456,1,8,0:0:0:0:
288,160,100534,1,8,0:0:0:0:
224,160,100613,1,0,0:0:0:0:
224,160,100691,1,0,0:0:0:0:
288,160,100769,1,8,0:0:0:0:
288,160,100847,1,8,0:0:0:0:
224,160,100925,1,0,0:0:0:0:
224,160,101003,1,0,0:0:0:0:
288,160,101081,1,8,0:0:0:0:
224,160,101159,1,0,0:0:0:0:
288,160,101238,1,8,0:0:0:0:
224,160,101316,1,0,0:0:0:0:
288,160,101394,1,8,0:0:0:0:
288,160,101472,1,8,0:0:0:0:
224,160,101550,1,0,0:0:0:0:
224,160,101628,1,0,0:0:0:0:
288,160,101706,1,8,0:0:0:0:
288,160,101784,1,8,0:0:0:0:
224,160,101863,1,0,0:0:0:0:
288,160,101941,1,8,0:0:0:0:
224,160,102019,1,0,0:0:0:0:
224,160,102097,1,0,0:0:0:0:
288,160,102175,1,8,0:0:0:0:
288,160,102253,1,8,0:0:0:0:
288,160,102331,1,8,0:0:0:0:
224,160,102409,1,0,0:0:0:0:
224,160,102488,1,0,0:0:0:0:
224,160,102566,1,0,0:0:0:0:
288,160,102644,1,8,0:0:0:0:
288,160,102722,1,8,0:0:0:0:
224,160,102800,1,0,0:0:0:0:
224,160,102878,1,0,0:0:0:0:
288,160,102956,1,8,0:0:0:0:
224,160,103034,1,0,0:0:0:0:
288,160,103113,1,8,0:0:0:0:
288,160,103191,1,8,0:0:0:0:
288,160,103269,1,8,0:0:0:0:
288,160,103347,1,8,0:0:0:0:
224,160,103425,1,0,0:0:0:0:
224,160,103503,1,0,0:0:0:0:
288,160,103581,1,8,0:0:0:0:
288,160,103659,1,8,0:0:0:0:
288,160,103738,1,8,0:0:0:0:
224,160,103816,1,0,0:0:0:0:
224,160,103894,1,0,0:0:0:0:
224,160,103972,1,0,0:0:0:0:
288,160,104050,1,8,0:0:0:0:
288,160,104128,1,8,0:0:0:0:
288,160,104206,1,8,0:0:0:0:
288,160,104284,1,8,0:0:0:0:
224,160,104363,1,0,0:0:0:0:
224,160,104441,1,0,0:0:0:0:
288,160,104519,1,8,0:0:0:0:
288,160,104597,1,8,0:0:0:0:
224,160,104675,1,0,0:0:0:0:
224,160,104753,1,0,0:0:0:0:
224,160,104831,1,0,0:0:0:0:
224,160,104909,1,0,0:0:0:0:
288,160,104988,1,8,0:0:0:0:
224,160,105066,1,0,0:0:0:0:
288,160,105144,1,8,0:0:0:0:
288,160,105222,1,8,0:0:0:0:
224,160,105300,1,0,0:0:0:0:
224,160,105378,1,0,0:0:0:0:
288,160,105456,1,8,0:0:0:0:
288,160,105534,1,8,0:0:0:0:
224,160,105613,1,0,0:0:0:0:
288,160,105691,1,8,0:0:0:0:
288,160,105769,1,8,0:0:0:0:
288,160,105847,1,8,0:0:0:0:
224,160,105925,1,0,0:0:0:0:
224,160,105984,1,0,0:0:0:0:
224,160,106042,1,0,0:0:0:0:
224,160,106101,1,0,0:0:0:0:
288,160,106159,1,8,0:0:0:0:
288,160,106218,1,8,0:0:0:0:
288,160,106277,1,8,0:0:0:0:
288,160,106335,1,8,0:0:0:0:
224,160,106394,1,0,0:0:0:0:
224,160,106452,1,0,0:0:0:0:
224,160,106511,1,0,0:0:0:0:
224,160,106570,1,0,0:0:0:0:
288,160,106628,1,8,0:0:0:0:
288,160,106687,1,8,0:0:0:0:
224,160,106745,1,0,0:0:0:0:
224,160,106804,1,0,0:0:0:0:
288,160,106863,1,8,0:0:0:0:
224,160,106980,5,0,0:0:0:0:
224,160,107097,1,0,0:0:0:0:
224,160,107214,1,0,0:0:0:0:
288,160,107331,1,8,0:0:0:0:
224,160,107448,1,0,0:0:0:0:
224,160,107566,1,0,0:0:0:0:
224,160,107683,1,0,0:0:0:0:
288,160,107800,1,8,0:0:0:0:
288,160,107859,1,8,0:0:0:0:
224,160,107917,1,0,0:0:0:0:
224,160,108034,1,0,0:0:0:0:
224,160,108152,1,0,0:0:0:0:
288,160,108269,1,8,0:0:0:0:
224,160,108386,1,0,0:0:0:0:
288,160,108503,1,8,0:0:0:0:
288,160,108620,1,8,0:0:0:0:
288,160,108738,1,8,0:0:0:0:
224,160,108855,1,0,0:0:0:0:
224,160,108972,1,0,0:0:0:0:
224,160,109089,1,0,0:0:0:0:
288,160,109206,1,8,0:0:0:0:
224,160,109323,1,0,0:0:0:0:
224,160,109441,1,0,0:0:0:0:
224,160,109558,1,0,0:0:0:0:
288,160,109675,1,8,0:0:0:0:
288,160,109734,1,8,0:0:0:0:
224,160,109792,1,0,0:0:0:0:
224,160,109851,1,0,0:0:0:0:
224,160,109909,1,0,0:0:0:0:
224,160,109968,1,0,0:0:0:0:
224,160,110027,1,0,0:0:0:0:
224,160,110085,1,0,0:0:0:0:
288,160,110144,1,8,0:0:0:0:
224,160,110202,1,0,0:0:0:0:
288,160,110261,1,8,0:0:0:0:
224,160,110320,1,0,0:0:0:0:
288,160,110378,1,8,0:0:0:0:
224,160,110437,1,0,0:0:0:0:
288,160,110495,1,8,0:0:0:0:
224,160,110554,1,0,0:0:0:0:
288,160,110613,1,8,0:0:0:0:
224,160,110730,1,0,0:0:0:0:
224,160,110847,1,0,0:0:0:0:
224,160,110964,1,0,0:0:0:0:
288,160,111081,1,8,0:0:0:0:
224,160,111198,1,0,0:0:0:0:
224,160,111316,1,0,0:0:0:0:
224,160,111433,1,0,0:0:0:0:
288,160,111550,1,8,0:0:0:0:
288,160,111609,1,8,0:0:0:0:
224,160,111667,1,0,0:0:0:0:
224,160,111784,1,0,0:0:0:0:
224,160,111902,1,0,0:0:0:0:
288,160,112019,1,8,0:0:0:0:
224,160,112136,1,0,0:0:0:0:
224,160,112253,1,0,0:0:0:0:
224,160,112370,1,0,0:0:0:0:
288,160,112488,1,8,0:0:0:0:
288,160,112546,1,8,0:0:0:0:
288,160,112605,1,8,0:0:0:0:
288,160,112722,1,8,0:0:0:0:
224,160,112839,1,0,0:0:0:0:
224,160,112898,1,0,0:0:0:0:
288,160,112956,1,8,0:0:0:0:
288,160,113073,1,8,0:0:0:0:
224,160,113191,1,0,0:0:0:0:
224,160,113308,1,0,0:0:0:0:
288,160,113425,1,8,0:0:0:0:
288,160,113484,1,8,0:0:0:0:
288,160,113542,1,8,0:0:0:0:
288,160,113601,1,8,0:0:0:0:
224,160,113659,1,0,0:0:0:0:
224,160,113718,1,0,0:0:0:0:
224,160,113777,1,0,0:0:0:0:
224,160,113835,1,0,0:0:0:0:
288,160,113894,1,8,0:0:0:0:
288,160,113952,1,8,0:0:0:0:
288,160,114011,1,8,0:0:0:0:
288,160,114070,1,8,0:0:0:0:
224,160,114128,1,0,0:0:0:0:
224,160,114245,1,0,0:0:0:0:
288,224,114363,1,12,0:0:0:0:
224,160,114480,5,0,0:0:0:0:
224,160,114538,1,0,0:0:0:0:
288,160,114597,1,8,0:0:0:0:
224,160,114655,1,0,0:0:0:0:
288,160,114714,1,8,0:0:0:0:
224,160,114773,1,0,0:0:0:0:
288,160,114831,1,8,0:0:0:0:
288,160,114890,1,8,0:0:0:0:
224,160,114948,1,0,0:0:0:0:
224,160,115007,1,0,0:0:0:0:
288,160,115066,1,8,0:0:0:0:
288,160,115124,1,8,0:0:0:0:
288,160,115183,1,8,0:0:0:0:
288,160,115241,1,8,0:0:0:0:
224,160,115300,1,0,0:0:0:0:
224,160,115359,1,0,0:0:0:0:
288,160,115417,1,8,0:0:0:0:
224,160,115476,1,0,0:0:0:0:
288,160,115534,1,8,0:0:0:0:
288,160,115593,1,8,0:0:0:0:
224,160,115652,1,0,0:0:0:0:
224,160,115710,1,0,0:0:0:0:
288,160,115769,1,8,0:0:0:0:
288,160,115827,1,8,0:0:0:0:
288,160,115886,1,8,0:0:0:0:
224,160,115945,1,0,0:0:0:0:
288,160,116003,1,8,0:0:0:0:
288,160,116062,1,8,0:0:0:0:
224,160,116120,1,0,0:0:0:0:
224,160,116179,1,0,0:0:0:0:
288,160,116238,1,8,0:0:0:0:
288,160,116296,1,8,0:0:0:0:
224,160,116355,1,0,0:0:0:0:
224,160,116413,1,0,0:0:0:0:
288,160,116472,1,8,0:0:0:0:
224,160,116530,1,0,0:0:0:0:
288,160,116589,1,8,0:0:0:0:
288,160,116648,1,8,0:0:0:0:
224,160,116706,1,0,0:0:0:0:
288,160,116765,1,8,0:0:0:0:
288,160,116823,1,8,0:0:0:0:
288,160,116882,1,8,0:0:0:0:
224,160,116941,1,0,0:0:0:0:
224,160,116999,1,0,0:0:0:0:
224,160,117058,1,0,0:0:0:0:
224,160,117116,1,0,0:0:0:0:
288,160,117175,1,8,0:0:0:0:
288,160,117234,1,8,0:0:0:0:
288,160,117292,1,8,0:0:0:0:
288,160,117351,1,8,0:0:0:0:
224,160,117409,1,0,0:0:0:0:
224,160,117468,1,0,0:0:0:0:
224,160,117527,1,0,0:0:0:0:
224,160,117585,1,0,0:0:0:0:
224,160,117644,1,0,0:0:0:0:
224,160,117702,1,0,0:0:0:0:
224,160,117761,1,0,0:0:0:0:
224,160,117820,1,0,0:0:0:0:
288,160,117878,1,8,0:0:0:0:
288,160,117995,1,8,0:0:0:0:
288,160,118113,5,8,0:0:0:0:
288,160,118171,1,8,0:0:0:0:
288,160,118230,1,8,0:0:0:0:
224,160,118288,1,0,0:0:0:0:
288,160,118347,1,8,0:0:0:0:
224,160,118405,1,0,0:0:0:0:
288,160,118464,1,8,0:0:0:0:
224,160,118523,1,0,0:0:0:0:
288,160,118581,1,8,0:0:0:0:
288,160,118640,1,8,0:0:0:0:
288,160,118698,1,8,0:0:0:0:
224,160,118757,1,0,0:0:0:0:
288,160,118816,1,8,0:0:0:0:
288,160,118874,1,8,0:0:0:0:
224,160,118933,1,0,0:0:0:0:
224,160,118991,1,0,0:0:0:0:
288,160,119050,1,8,0:0:0:0:
288,160,119109,1,8,0:0:0:0:
224,160,119167,1,0,0:0:0:0:
224,160,119226,1,0,0:0:0:0:
288,160,119284,1,8,0:0:0:0:
224,160,119343,1,0,0:0:0:0:
288,160,119402,1,8,0:0:0:0:
288,160,119460,1,8,0:0:0:0:
288,160,119519,1,8,0:0:0:0:
288,160,119577,1,8,0:0:0:0:
224,160,119636,1,0,0:0:0:0:
224,160,119695,1,0,0:0:0:0:
288,160,119753,1,8,0:0:0:0:
224,160,119812,1,0,0:0:0:0:
224,160,119870,1,0,0:0:0:0:
224,160,119929,1,0,0:0:0:0:
288,160,119988,1,8,0:0:0:0:
288,160,120046,1,8,0:0:0:0:
288,160,120105,1,8,0:0:0:0:
224,160,120163,1,0,0:0:0:0:
288,160,120222,1,8,0:0:0:0:
288,160,120280,1,8,0:0:0:0:
288,160,120339,1,8,0:0:0:0:
224,160,120398,1,0,0:0:0:0:
288,160,120456,1,8,0:0:0:0:
224,160,120515,1,0,0:0:0:0:
288,160,120573,1,8,0:0:0:0:
224,160,120632,1,0,0:0:0:0:
288,160,120691,1,8,0:0:0:0:
288,160,120749,1,8,0:0:0:0:
224,160,120808,1,0,0:0:0:0:
224,160,120866,1,0,0:0:0:0:
288,160,120925,1,8,0:0:0:0:
288,160,120984,1,8,0:0:0:0:
288,160,121042,1,8,0:0:0:0:
288,160,121101,1,8,0:0:0:0:
224,160,121159,1,0,0:0:0:0:
224,160,121218,1,0,0:0:0:0:
224,160,121277,1,0,0:0:0:0:
224,160,121335,1,0,0:0:0:0:
288,160,121394,1,8,0:0:0:0:
224,160,121452,1,0,0:0:0:0:
224,160,121511,1,0,0:0:0:0:
224,160,121570,1,0,0:0:0:0:
288,160,121628,1,8,0:0:0:0:
288,160,121687,1,8,0:0:0:0:
288,160,121745,1,8,0:0:0:0:
288,224,121863,1,12,0:0:0:0:
224,160,121980,5,0,0:0:0:0:
224,160,122038,1,0,0:0:0:0:
224,160,122097,1,0,0:0:0:0:
224,160,122155,1,0,0:0:0:0:
224,160,122214,1,0,0:0:0:0:
224,160,122273,1,0,0:0:0:0:
288,160,122331,1,8,0:0:0:0:
288,160,122390,1,8,0:0:0:0:
288,160,122448,1,8,0:0:0:0:
288,160,122507,1,8,0:0:0:0:
288,160,122566,1,8,0:0:0:0:
288,160,122624,1,8,0:0:0:0:
288,160,122683,1,8,0:0:0:0:
288,160,122742,1,8,0:0:0:0:
288,160,122801,1,8,0:0:0:0:
288,160,122859,1,8,0:0:0:0:
224,160,122917,1,0,0:0:0:0:
224,160,122976,1,0,0:0:0:0:
288,160,123034,1,8,0:0:0:0:
288,160,123093,1,8,0:0:0:0:
288,160,123152,1,8,0:0:0:0:
224,160,123210,1,0,0:0:0:0:
288,160,123269,1,8,0:0:0:0:
288,160,123327,1,8,0:0:0:0:
288,160,123386,1,8,0:0:0:0:
288,160,123445,1,8,0:0:0:0:
224,160,123503,1,0,0:0:0:0:
224,160,123562,1,0,0:0:0:0:
224,160,123620,1,0,0:0:0:0:
224,160,123679,1,0,0:0:0:0:
288,160,123738,1,8,0:0:0:0:
288,160,123796,1,8,0:0:0:0:
288,160,123855,1,8,0:0:0:0:
224,160,123913,1,0,0:0:0:0:
288,160,123972,1,8,0:0:0:0:
288,160,124030,1,8,0:0:0:0:
288,160,124089,1,8,0:0:0:0:
224,160,124148,1,0,0:0:0:0:
288,160,124206,1,8,0:0:0:0:
288,160,124265,1,8,0:0:0:0:
224,160,124323,1,0,0:0:0:0:
224,160,124382,1,0,0:0:0:0:
288,160,124441,1,8,0:0:0:0:
288,160,124499,1,8,0:0:0:0:
288,160,124558,1,8,0:0:0:0:
288,160,124616,1,8,0:0:0:0:
288,160,124675,1,8,0:0:0:0:
288,160,124734,1,8,0:0:0:0:
224,160,124792,1,0,0:0:0:0:
224,160,124851,1,0,0:0:0:0:
288,160,124909,1,8,0:0:0:0:
288,160,124968,1,8,0:0:0:0:
224,160,125027,1,0,0:0:0:0:
224,160,125085,1,0,0:0:0:0:
288,160,125144,1,8,0:0:0:0:
288,160,125202,1,8,0:0:0:0:
288,160,125261,1,8,0:0:0:0:
288,160,125320,1,8,0:0:0:0:
224,160,125378,1,0,0:0:0:0:
224,160,125437,1,0,0:0:0:0:
224,160,125495,1,0,0:0:0:0:
224,160,125554,1,0,0:0:0:0:
288,160,125613,1,8,0:0:0:0:
288,160,125671,1,8,0:0:0:0:
288,160,125730,1,8,0:0:0:0:
288,160,125788,1,8,0:0:0:0:
224,160,125847,1,0,0:0:0:0:
224,160,125906,1,0,0:0:0:0:
288,160,125964,1,8,0:0:0:0:
224,160,126023,1,0,0:0:0:0:
288,160,126081,1,8,0:0:0:0:
288,160,126140,1,8,0:0:0:0:
288,160,126199,1,8,0:0:0:0:
288,160,126257,1,8,0:0:0:0:
224,160,126316,1,0,0:0:0:0:
224,160,126375,1,0,0:0:0:0:
224,160,126433,1,0,0:0:0:0:
224,160,126491,1,0,0:0:0:0:
288,160,126550,1,8,0:0:0:0:
224,160,126609,1,0,0:0:0:0:
224,160,126667,1,0,0:0:0:0:
224,160,126726,1,0,0:0:0:0:
288,160,126784,1,8,0:0:0:0:
224,160,126843,1,0,0:0:0:0:
224,160,126902,1,0,0:0:0:0:
224,160,126960,1,0,0:0:0:0:
288,160,127019,1,8,0:0:0:0:
224,160,127077,1,0,0:0:0:0:
224,160,127136,1,0,0:0:0:0:
224,160,127195,1,0,0:0:0:0:
288,160,127253,1,8,0:0:0:0:
288,160,127312,1,8,0:0:0:0:
288,160,127370,1,8,0:0:0:0:
288,160,127429,1,8,0:0:0:0:
288,160,127488,1,8,0:0:0:0:
288,160,127546,1,8,0:0:0:0:
288,160,127605,1,8,0:0:0:0:
288,160,127663,1,8,0:0:0:0:
224,160,127722,1,0,0:0:0:0:
224,160,127780,1,0,0:0:0:0:
224,160,127839,1,0,0:0:0:0:
224,160,127898,1,0,0:0:0:0:
224,160,127956,1,0,0:0:0:0:
224,160,128015,1,0,0:0:0:0:
224,160,128073,1,0,0:0:0:0:
224,160,128132,1,0,0:0:0:0:
288,160,128191,1,8,0:0:0:0:
288,160,128249,1,8,0:0:0:0:
224,160,128308,1,0,0:0:0:0:
224,160,128366,1,0,0:0:0:0:
288,160,128425,1,8,0:0:0:0:
288,160,128484,1,8,0:0:0:0:
288,160,128542,1,8,0:0:0:0:
288,160,128601,1,8,0:0:0:0:
288,160,128659,1,8,0:0:0:0:
288,160,128777,1,8,0:0:0:0:
288,160,128894,1,8,0:0:0:0:
224,160,129011,1,0,0:0:0:0:
224,160,129128,1,0,0:0:0:0:
288,160,129245,1,8,0:0:0:0:
224,224,129363,1,4,0:0:0:0:
224,160,129640,5,0,0:0:0:0:
224,224,129918,1,4,0:0:0:0:
224,160,130196,1,0,0:0:0:0:
288,224,130474,1,12,0:0:0:0:
224,160,130751,1,0,0:0:0:0:
224,160,131029,1,0,0:0:0:0:
224,160,131099,1,0,0:0:0:0:
224,160,131168,1,0,0:0:0:0:
224,160,131238,1,0,0:0:0:0:
224,160,131307,1,0,0:0:0:0:
224,160,131376,1,0,0:0:0:0:
224,160,131446,1,0,0:0:0:0:
224,160,131515,1,0,0:0:0:0:
288,224,131585,1,12,0:0:0:0:
224,160,131863,5,0,0:0:0:0:
224,224,132140,1,4,0:0:0:0:
224,160,132418,1,0,0:0:0:0:
224,160,132488,1,0,0:0:0:0:
224,160,132557,1,0,0:0:0:0:
224,160,132626,1,0,0:0:0:0:
288,224,132696,1,12,0:0:0:0:
224,160,132974,1,0,0:0:0:0:
224,160,133251,1,0,0:0:0:0:
224,160,133321,1,0,0:0:0:0:
224,160,133390,1,0,0:0:0:0:
224,160,133460,1,0,0:0:0:0:
224,160,133529,1,0,0:0:0:0:
224,160,133599,1,0,0:0:0:0:
224,160,133668,1,0,0:0:0:0:
224,160,133738,1,0,0:0:0:0:
288,224,133807,1,12,0:0:0:0:
224,160,134085,5,0,0:0:0:0:
224,224,134363,1,4,0:0:0:0:
224,160,134640,1,0,0:0:0:0:
288,224,134918,1,12,0:0:0:0:
224,160,135196,1,0,0:0:0:0:
224,160,135474,1,0,0:0:0:0:
224,160,135543,1,0,0:0:0:0:
224,160,135613,1,0,0:0:0:0:
224,160,135682,1,0,0:0:0:0:
224,160,135751,1,0,0:0:0:0:
224,160,135821,1,0,0:0:0:0:
224,160,135890,1,0,0:0:0:0:
224,160,135960,1,0,0:0:0:0:
288,160,136029,5,8,0:0:0:0:
288,160,136099,1,8,0:0:0:0:
288,160,136168,1,8,0:0:0:0:
288,160,136238,1,8,0:0:0:0:
224,160,136307,1,0,0:0:0:0:
224,160,136376,1,0,0:0:0:0:
224,160,136446,1,0,0:0:0:0:
224,160,136515,1,0,0:0:0:0:
288,160,136585,1,8,0:0:0:0:
288,160,136654,1,8,0:0:0:0:
288,160,136724,1,8,0:0:0:0:
288,160,136793,1,8,0:0:0:0:
288,160,136863,1,8,0:0:0:0:
288,160,136932,1,8,0:0:0:0:
224,160,137001,1,0,0:0:0:0:
224,160,137071,1,0,0:0:0:0:
224,160,137140,1,0,0:0:0:0:
224,160,137210,1,0,0:0:0:0:
224,160,137279,1,0,0:0:0:0:
224,160,137349,1,0,0:0:0:0:
288,160,137418,1,8,0:0:0:0:
288,160,137488,1,8,0:0:0:0:
288,160,137557,1,8,0:0:0:0:
288,160,137626,1,8,0:0:0:0:
288,160,137696,1,8,0:0:0:0:
288,160,137765,1,8,0:0:0:0:
224,160,137835,1,0,0:0:0:0:
224,160,137904,1,0,0:0:0:0:
224,160,137974,1,0,0:0:0:0:
224,160,138043,1,0,0:0:0:0:
224,160,138113,1,0,0:0:0:0:
224,160,138182,1,0,0:0:0:0:
288,160,138251,5,8,0:0:0:0:
224,160,138321,1,0,0:0:0:0:
224,160,138390,1,0,0:0:0:0:
224,160,138460,1,0,0:0:0:0:
288,160,138529,5,8,0:0:0:0:
224,160,138599,1,0,0:0:0:0:
224,160,138668,1,0,0:0:0:0:
224,160,138738,1,0,0:0:0:0:
288,160,138807,5,8,0:0:0:0:
224,160,138876,1,0,0:0:0:0:
224,160,138946,1,0,0:0:0:0:
224,160,139015,1,0,0:0:0:0:
288,160,139085,5,8,0:0:0:0:
224,160,139154,1,0,0:0:0:0:
224,160,139224,1,0,0:0:0:0:
224,160,139293,1,0,0:0:0:0:
288,160,139363,5,8,0:0:0:0:
288,160,139432,1,8,0:0:0:0:
224,160,139501,1,0,0:0:0:0:
224,160,139571,1,0,0:0:0:0:
288,160,139640,5,8,0:0:0:0:
224,160,139710,1,0,0:0:0:0:
224,160,139779,1,0,0:0:0:0:
224,160,139849,1,0,0:0:0:0:
288,160,139918,5,8,0:0:0:0:
224,160,139988,1,0,0:0:0:0:
224,160,140057,1,0,0:0:0:0:
224,160,140126,1,0,0:0:0:0:
288,160,140196,5,8,0:0:0:0:
224,160,140265,1,0,0:0:0:0:
224,160,140335,1,0,0:0:0:0:
224,160,140404,1,0,0:0:0:0:
288,160,140474,5,8,0:0:0:0:
288,160,140543,1,8,0:0:0:0:
224,160,140613,1,0,0:0:0:0:
224,160,140682,1,0,0:0:0:0:
288,160,140751,5,8,0:0:0:0:
288,160,140821,1,8,0:0:0:0:
224,160,140890,1,0,0:0:0:0:
224,160,140960,1,0,0:0:0:0:
288,160,141029,5,8,0:0:0:0:
288,160,141099,1,8,0:0:0:0:
224,160,141168,1,0,0:0:0:0:
224,160,141238,1,0,0:0:0:0:
288,160,141307,5,8,0:0:0:0:
288,160,141376,1,8,0:0:0:0:
224,160,141446,1,0,0:0:0:0:
224,160,141515,1,0,0:0:0:0:
288,160,141585,5,8,0:0:0:0:
288,160,141654,1,8,0:0:0:0:
288,160,141724,1,8,0:0:0:0:
224,160,141793,1,0,0:0:0:0:
288,160,141863,5,8,0:0:0:0:
288,160,141932,1,8,0:0:0:0:
224,160,142001,1,0,0:0:0:0:
224,160,142071,1,0,0:0:0:0:
288,160,142140,5,8,0:0:0:0:
288,160,142210,1,8,0:0:0:0:
288,160,142279,1,8,0:0:0:0:
288,160,142349,1,8,0:0:0:0:
288,160,142418,1,8,0:0:0:0:
288,160,142488,1,8,0:0:0:0:
288,160,142557,1,8,0:0:0:0:
288,160,142626,1,8,0:0:0:0:
288,160,142696,5,8,0:0:0:0:
224,160,142765,1,0,0:0:0:0:
224,160,142835,1,0,0:0:0:0:
224,160,142904,1,0,0:0:0:0:
288,160,142974,5,8,0:0:0:0:
224,160,143043,1,0,0:0:0:0:
224,160,143113,1,0,0:0:0:0:
224,160,143182,1,0,0:0:0:0:
288,160,143251,5,8,0:0:0:0:
224,160,143321,1,0,0:0:0:0:
224,160,143390,1,0,0:0:0:0:
224,160,143460,1,0,0:0:0:0:
288,160,143529,5,8,0:0:0:0:
224,160,143599,1,0,0:0:0:0:
224,160,143668,1,0,0:0:0:0:
224,160,143738,1,0,0:0:0:0:
288,160,143807,5,8,0:0:0:0:
288,160,143876,1,8,0:0:0:0:
224,160,143946,1,0,0:0:0:0:
224,160,144015,1,0,0:0:0:0:
288,160,144085,5,8,0:0:0:0:
224,160,144154,1,0,0:0:0:0:
224,160,144224,1,0,0:0:0:0:
224,160,144293,1,0,0:0:0:0:
288,160,144362,5,8,0:0:0:0:
224,160,144432,1,0,0:0:0:0:
224,160,144501,1,0,0:0:0:0:
224,160,144571,1,0,0:0:0:0:
288,160,144640,5,8,0:0:0:0:
224,160,144710,1,0,0:0:0:0:
224,160,144779,1,0,0:0:0:0:
224,160,144849,1,0,0:0:0:0:
288,160,144918,5,8,0:0:0:0:
288,160,144987,1,8,0:0:0:0:
288,160,145057,1,8,0:0:0:0:
288,160,145126,1,8,0:0:0:0:
224,160,145196,5,0,0:0:0:0:
224,160,145265,1,0,0:0:0:0:
224,160,145335,1,0,0:0:0:0:
224,160,145404,1,0,0:0:0:0:
288,160,145474,5,8,0:0:0:0:
288,160,145566,1,8,0:0:0:0:
288,160,145659,1,8,0:0:0:0:
224,160,145751,1,0,0:0:0:0:
224,160,145844,1,0,0:0:0:0:
224,160,145937,1,0,0:0:0:0:
288,160,146029,1,8,0:0:0:0:
224,160,146214,5,0,0:0:0:0:
224,160,146261,1,0,0:0:0:0:
224,160,146400,1,0,0:0:0:0:
224,160,146446,1,0,0:0:0:0:
288,160,146585,1,8,0:0:0:0:
288,160,146631,1,8,0:0:0:0:
224,224,147140,5,4,0:0:0:0:
224,224,148251,1,4,0:0:0:0:
288,224,149362,1,12,0:0:0:0:
32,64,150474,2,0,L|96:64,2,13.040999777913
224,224,151585,1,4,0:0:0:0:
224,224,152140,1,4,0:0:0:0:
224,224,152696,1,4,0:0:0:0:
224,224,153251,1,4,0:0:0:0:
288,224,153807,1,12,0:0:0:0:
224,160,154085,1,0,0:0:0:0:
288,160,154362,1,8,0:0:0:0:
288,160,154432,1,8,0:0:0:0:
288,160,154501,1,8,0:0:0:0:
288,160,154571,1,8,0:0:0:0:
224,160,154640,1,0,0:0:0:0:
224,160,154710,1,0,0:0:0:0:
224,160,154779,1,0,0:0:0:0:
224,160,154849,1,0,0:0:0:0:
288,224,154918,1,12,0:0:0:0:
288,224,155196,1,12,0:0:0:0:
224,160,155474,1,0,0:0:0:0:
224,160,155543,1,0,0:0:0:0:
224,160,155612,1,0,0:0:0:0:
224,160,155682,1,0,0:0:0:0:
288,160,155751,1,8,0:0:0:0:
288,160,155890,1,8,0:0:0:0:
224,224,156029,5,4,0:0:0:0:
224,224,157140,1,4,0:0:0:0:
224,224,157696,1,4,0:0:0:0:
288,224,158251,1,12,0:0:0:0:
288,160,159362,1,8,0:0:0:0:
0,128,159918,2,0,L|512:128,1,52.541999105215
224,224,160474,1,4,0:0:0:0:
224,224,161585,1,4,0:0:0:0:
288,224,162696,1,12,0:0:0:0:
224,160,162974,1,0,0:0:0:0:
224,160,163251,1,0,0:0:0:0:
288,160,163529,1,8,0:0:0:0:
288,160,163599,1,8,0:0:0:0:
288,160,163668,1,8,0:0:0:0:
288,160,163737,1,8,0:0:0:0:
224,160,163807,1,0,0:0:0:0:
288,160,163876,1,8,0:0:0:0:
288,160,163946,1,8,0:0:0:0:
288,160,164015,1,8,0:0:0:0:
224,160,164085,1,0,0:0:0:0:
224,160,164154,1,0,0:0:0:0:
224,160,164224,1,0,0:0:0:0:
224,160,164293,1,0,0:0:0:0:
288,160,164362,1,8,0:0:0:0:
288,160,164432,1,8,0:0:0:0:
288,160,164501,1,8,0:0:0:0:
288,160,164571,1,8,0:0:0:0:
224,160,164640,1,0,0:0:0:0:
224,160,164710,1,0,0:0:0:0:
288,160,164779,1,8,0:0:0:0:
288,160,164849,1,8,0:0:0:0:
224,224,164918,1,4,0:0:0:0:
224,224,169819,5,4,0:0:0:0:
224,160,170431,1,0,0:0:0:0:
224,224,171043,1,4,0:0:0:0:
224,160,171655,1,0,0:0:0:0:
224,224,172267,1,4,0:0:0:0:
224,160,172880,1,0,0:0:0:0:
288,224,173492,1,12,0:0:0:0:
224,160,173696,1,0,0:0:0:0:
224,160,173798,1,0,0:0:0:0:
224,160,173900,1,0,0:0:0:0:
224,160,174002,1,0,0:0:0:0:
288,160,174104,1,8,0:0:0:0:
224,160,174308,1,0,0:0:0:0:
224,160,174512,1,0,0:0:0:0:
224,224,174716,1,4,0:0:0:0:
224,160,175329,1,0,0:0:0:0:
288,224,175941,1,12,0:0:0:0:
224,160,176247,1,0,0:0:0:0:
224,160,176553,1,0,0:0:0:0:
224,160,176859,1,0,0:0:0:0:
224,224,177165,1,4,0:0:0:0:
224,160,177778,1,0,0:0:0:0:
288,224,178390,1,12,0:0:0:0:
224,160,178594,1,0,0:0:0:0:
224,160,178798,1,0,0:0:0:0:
288,160,179002,1,8,0:0:0:0:
288,160,179053,1,8,0:0:0:0:
224,160,179206,1,0,0:0:0:0:
224,160,179410,1,0,0:0:0:0:
224,224,179614,5,4,0:0:0:0:
224,224,180227,1,4,0:0:0:0:
288,224,180839,1,12,0:0:0:0:
224,224,181451,1,4,0:0:0:0:
224,224,182063,1,4,0:0:0:0:
224,224,182676,1,4,0:0:0:0:
288,224,183288,1,12,0:0:0:0:
224,160,183492,1,0,0:0:0:0:
224,160,183696,1,0,0:0:0:0:
288,224,183900,1,12,0:0:0:0:
224,160,184104,1,0,0:0:0:0:
224,160,184308,1,0,0:0:0:0:
224,224,184512,1,4,0:0:0:0:
224,224,185125,1,4,0:0:0:0:
288,224,185737,1,12,0:0:0:0:
224,160,186043,1,0,0:0:0:0:
288,160,186349,1,8,0:0:0:0:
224,160,186655,1,0,0:0:0:0:
224,224,186961,1,4,0:0:0:0:
288,160,187574,1,8,0:0:0:0:
224,160,187650,1,0,0:0:0:0:
224,160,187727,1,0,0:0:0:0:
224,160,187803,1,0,0:0:0:0:
224,160,187880,1,0,0:0:0:0:
224,160,187956,1,0,0:0:0:0:
224,160,188033,1,0,0:0:0:0:
224,160,188109,1,0,0:0:0:0:
288,224,188186,1,12,0:0:0:0:
224,160,188390,1,0,0:0:0:0:
224,160,188594,1,0,0:0:0:0:
288,160,188798,1,8,0:0:0:0:
288,160,188849,1,8,0:0:0:0:
224,160,189002,1,0,0:0:0:0:
224,160,189206,1,0,0:0:0:0:
288,224,189410,1,12,0:0:0:0:
224,160,195035,5,0,0:0:0:0:
224,160,195269,1,0,0:0:0:0:
224,160,195386,1,0,0:0:0:0:
224,160,195972,1,0,0:0:0:0:
224,160,196206,1,0,0:0:0:0:
224,160,196324,1,0,0:0:0:0:
224,160,196558,1,0,0:0:0:0:
288,160,196675,1,8,0:0:0:0:
288,160,196734,1,8,0:0:0:0:
288,160,196792,1,8,0:0:0:0:
224,160,196910,1,0,0:0:0:0:
224,160,197613,1,0,0:0:0:0:
224,160,197847,1,0,0:0:0:0:
224,160,198609,1,0,0:0:0:0:
224,160,198667,1,0,0:0:0:0:
224,160,198726,1,0,0:0:0:0:
224,160,198785,1,0,0:0:0:0:
224,160,199019,1,0,0:0:0:0:
224,160,199136,1,0,0:0:0:0:
224,160,199722,1,0,0:0:0:0:
224,160,199956,1,0,0:0:0:0:
288,160,200074,1,8,0:0:0:0:
224,160,200191,1,0,0:0:0:0:
224,160,200308,1,0,0:0:0:0:
288,160,200425,1,8,0:0:0:0:
224,224,200660,1,4,0:0:0:0:
224,224,200894,1,4,0:0:0:0:
224,224,201128,1,4,0:0:0:0:
224,224,201363,1,4,0:0:0:0:
288,160,201597,1,8,0:0:0:0:
288,160,201656,1,8,0:0:0:0:
288,160,201714,1,8,0:0:0:0:
288,160,201773,1,8,0:0:0:0:
224,160,201831,1,0,0:0:0:0:
288,160,201949,1,8,0:0:0:0:
224,160,202066,1,0,0:0:0:0:
224,160,202183,1,0,0:0:0:0:
288,160,202300,1,8,0:0:0:0:
224,160,202417,1,0,0:0:0:0:
224,160,202535,1,0,0:0:0:0:
288,160,202652,1,8,0:0:0:0:
224,160,202769,1,0,0:0:0:0:
224,160,202886,1,0,0:0:0:0:
288,160,203003,1,8,0:0:0:0:
288,160,203062,1,8,0:0:0:0:
288,160,203120,1,8,0:0:0:0:
288,160,203179,1,8,0:0:0:0:
224,160,203238,1,0,0:0:0:0:
224,160,203296,1,0,0:0:0:0:
288,160,203355,1,8,0:0:0:0:
288,160,203413,1,8,0:0:0:0:
224,160,203472,1,0,0:0:0:0:
224,160,203531,1,0,0:0:0:0:
224,160,203589,1,0,0:0:0:0:
224,160,203648,1,0,0:0:0:0:
288,160,203706,1,8,0:0:0:0:
224,160,203824,1,0,0:0:0:0:
224,160,203882,1,0,0:0:0:0:
288,160,203941,1,8,0:0:0:0:
288,160,203999,1,8,0:0:0:0:
288,160,204058,1,8,0:0:0:0:
288,160,204117,1,8,0:0:0:0:
224,160,204175,1,0,0:0:0:0:
224,160,204234,1,0,0:0:0:0:
224,160,204292,1,0,0:0:0:0:
224,160,204351,1,0,0:0:0:0:
288,224,204410,1,12,0:0:0:0:
224,160,204527,5,0,0:0:0:0:
224,160,204644,1,0,0:0:0:0:
224,160,204761,1,0,0:0:0:0:
288,160,204878,1,8,0:0:0:0:
224,160,204995,1,0,0:0:0:0:
224,160,205113,1,0,0:0:0:0:
224,160,205230,1,0,0:0:0:0:
288,160,205347,1,8,0:0:0:0:
288,160,205386,1,8,0:0:0:0:
224,160,205464,1,0,0:0:0:0:
224,160,205581,1,0,0:0:0:0:
224,160,205699,1,0,0:0:0:0:
224,160,205816,1,0,0:0:0:0:
224,160,205933,1,0,0:0:0:0:
224,160,206050,1,0,0:0:0:0:
224,160,206167,1,0,0:0:0:0:
288,160,206285,1,8,0:0:0:0:
224,160,206402,1,0,0:0:0:0:
224,160,206519,1,0,0:0:0:0:
288,160,206636,1,8,0:0:0:0:
224,160,206753,1,0,0:0:0:0:
288,160,206870,1,8,0:0:0:0:
224,160,206988,1,0,0:0:0:0:
224,160,207105,1,0,0:0:0:0:
288,160,207222,1,8,0:0:0:0:
224,160,207339,1,0,0:0:0:0:
224,160,207456,1,0,0:0:0:0:
224,160,207574,1,0,0:0:0:0:
288,160,207691,1,8,0:0:0:0:
224,160,207808,1,0,0:0:0:0:
224,160,207925,1,0,0:0:0:0:
224,160,208042,1,0,0:0:0:0:
288,224,208160,1,12,0:0:0:0:
224,160,208277,5,0,0:0:0:0:
224,160,208394,1,0,0:0:0:0:
224,160,208511,1,0,0:0:0:0:
288,160,208628,1,8,0:0:0:0:
224,160,208745,1,0,0:0:0:0:
224,160,208862,1,0,0:0:0:0:
224,160,208979,1,0,0:0:0:0:
288,160,209097,1,8,0:0:0:0:
288,160,209136,1,8,0:0:0:0:
224,160,209214,1,0,0:0:0:0:
224,160,209331,1,0,0:0:0:0:
224,160,209449,1,0,0:0:0:0:
224,160,209566,1,0,0:0:0:0:
224,160,209683,1,0,0:0:0:0:
224,160,209800,1,0,0:0:0:0:
224,160,209917,1,0,0:0:0:0:
288,160,210035,1,8,0:0:0:0:
224,160,210152,1,0,0:0:0:0:
224,160,210269,1,0,0:0:0:0:
288,160,210386,1,8,0:0:0:0:
224,160,210503,1,0,0:0:0:0:
288,160,210620,1,8,0:0:0:0:
288,160,210738,1,8,0:0:0:0:
224,160,210855,1,0,0:0:0:0:
288,160,210972,1,8,0:0:0:0:
224,160,211089,1,0,0:0:0:0:
224,160,211206,1,0,0:0:0:0:
224,160,211324,1,0,0:0:0:0:
288,160,211441,1,8,0:0:0:0:
288,160,211558,1,8,0:0:0:0:
224,160,211675,1,0,0:0:0:0:
224,160,211792,1,0,0:0:0:0:
288,224,211910,1,12,0:0:0:0:
224,160,212027,5,0,0:0:0:0:
224,160,212144,1,0,0:0:0:0:
224,160,212261,1,0,0:0:0:0:
288,160,212378,1,8,0:0:0:0:
224,160,212495,1,0,0:0:0:0:
224,160,212613,1,0,0:0:0:0:
224,160,212730,1,0,0:0:0:0:
288,160,212847,1,8,0:0:0:0:
288,160,212886,1,8,0:0:0:0:
224,160,212964,1,0,0:0:0:0:
224,160,213081,1,0,0:0:0:0:
224,160,213199,1,0,0:0:0:0:
224,160,213316,1,0,0:0:0:0:
224,160,213433,1,0,0:0:0:0:
224,160,213550,1,0,0:0:0:0:
224,160,213667,1,0,0:0:0:0:
288,160,213785,1,8,0:0:0:0:
224,160,213902,1,0,0:0:0:0:
224,160,214019,1,0,0:0:0:0:
288,160,214136,1,8,0:0:0:0:
288,160,214253,1,8,0:0:0:0:
288,160,214370,1,8,0:0:0:0:
224,160,214488,1,0,0:0:0:0:
224,160,214605,1,0,0:0:0:0:
288,160,214722,1,8,0:0:0:0:
288,160,214839,1,8,0:0:0:0:
224,160,214956,1,0,0:0:0:0:
224,160,215074,1,0,0:0:0:0:
288,160,215191,1,8,0:0:0:0:
224,160,215308,1,0,0:0:0:0:
224,160,215425,1,0,0:0:0:0:
224,160,215542,1,0,0:0:0:0:
288,224,215660,1,12,0:0:0:0:
224,160,215777,5,0,0:0:0:0:
224,160,215894,1,0,0:0:0:0:
224,160,216011,1,0,0:0:0:0:
288,160,216128,1,8,0:0:0:0:
224,160,216245,1,0,0:0:0:0:
224,160,216363,1,0,0:0:0:0:
224,160,216480,1,0,0:0:0:0:
288,160,216597,1,8,0:0:0:0:
288,160,216636,1,8,0:0:0:0:
224,160,216714,1,0,0:0:0:0:
224,160,216831,1,0,0:0:0:0:
224,160,216949,1,0,0:0:0:0:
288,160,217066,1,8,0:0:0:0:
288,160,217183,1,8,0:0:0:0:
288,160,217300,1,8,0:0:0:0:
224,160,217417,1,0,0:0:0:0:
288,160,217535,1,8,0:0:0:0:
288,160,217593,1,8,0:0:0:0:
288,160,217652,1,8,0:0:0:0:
288,160,217710,1,8,0:0:0:0:
224,160,217769,1,0,0:0:0:0:
224,160,217827,1,0,0:0:0:0:
224,160,217886,1,0,0:0:0:0:
224,160,217945,1,0,0:0:0:0:
288,160,218003,1,8,0:0:0:0:
288,160,218062,1,8,0:0:0:0:
288,160,218120,1,8,0:0:0:0:
288,160,218179,1,8,0:0:0:0:
224,160,218238,1,0,0:0:0:0:
224,160,218296,1,0,0:0:0:0:
288,160,218355,1,8,0:0:0:0:
288,160,218413,1,8,0:0:0:0:
224,160,218472,1,0,0:0:0:0:
224,160,218531,1,0,0:0:0:0:
224,160,218589,1,0,0:0:0:0:
224,160,218648,1,0,0:0:0:0:
224,160,218706,1,0,0:0:0:0:
224,160,218765,1,0,0:0:0:0:
224,160,218824,1,0,0:0:0:0:
224,160,218882,1,0,0:0:0:0:
288,160,218941,1,8,0:0:0:0:
288,224,219410,1,12,0:0:0:0:
224,160,219527,5,0,0:0:0:0:
224,160,219585,1,0,0:0:0:0:
224,160,219644,1,0,0:0:0:0:
224,160,219702,1,0,0:0:0:0:
224,160,219761,1,0,0:0:0:0:
224,160,219820,1,0,0:0:0:0:
224,160,219878,1,0,0:0:0:0:
224,160,219937,1,0,0:0:0:0:
224,160,219995,1,0,0:0:0:0:
224,160,220054,1,0,0:0:0:0:
224,160,220113,1,0,0:0:0:0:
224,160,220171,1,0,0:0:0:0:
224,160,220230,1,0,0:0:0:0:
224,160,220288,1,0,0:0:0:0:
288,160,220347,1,8,0:0:0:0:
224,160,220406,1,0,0:0:0:0:
224,160,220464,1,0,0:0:0:0:
224,160,220523,1,0,0:0:0:0:
224,160,220581,1,0,0:0:0:0:
224,160,220640,1,0,0:0:0:0:
224,160,220699,1,0,0:0:0:0:
224,160,220757,1,0,0:0:0:0:
224,160,220816,1,0,0:0:0:0:
224,160,220874,1,0,0:0:0:0:
224,160,220933,1,0,0:0:0:0:
224,160,220992,1,0,0:0:0:0:
224,160,221050,1,0,0:0:0:0:
224,160,221109,1,0,0:0:0:0:
224,160,221167,1,0,0:0:0:0:
224,160,221226,1,0,0:0:0:0:
224,160,221285,1,0,0:0:0:0:
224,160,221343,1,0,0:0:0:0:
224,160,221402,1,0,0:0:0:0:
224,160,221460,1,0,0:0:0:0:
224,160,221519,1,0,0:0:0:0:
224,160,221577,1,0,0:0:0:0:
224,160,221636,1,0,0:0:0:0:
224,160,221695,1,0,0:0:0:0:
288,160,221753,1,8,0:0:0:0:
288,160,221812,1,8,0:0:0:0:
224,160,221870,1,0,0:0:0:0:
224,160,221929,1,0,0:0:0:0:
224,160,221988,1,0,0:0:0:0:
224,160,222046,1,0,0:0:0:0:
224,160,222105,1,0,0:0:0:0:
224,160,222163,1,0,0:0:0:0:
288,160,222222,1,8,0:0:0:0:
288,160,222281,1,8,0:0:0:0:
288,160,222339,1,8,0:0:0:0:
288,160,222398,1,8,0:0:0:0:
288,160,222456,1,8,0:0:0:0:
288,160,222515,1,8,0:0:0:0:
288,160,222574,1,8,0:0:0:0:
288,160,222632,1,8,0:0:0:0:
224,160,222691,1,0,0:0:0:0:
224,160,222749,1,0,0:0:0:0:
224,160,222808,1,0,0:0:0:0:
224,160,222867,1,0,0:0:0:0:
224,160,222925,1,0,0:0:0:0:
224,160,222984,1,0,0:0:0:0:
224,160,223042,1,0,0:0:0:0:
224,160,223101,1,0,0:0:0:0:
288,160,223160,5,8,0:0:0:0:
288,160,223218,1,8,0:0:0:0:
288,160,223277,1,8,0:0:0:0:
288,160,223335,1,8,0:0:0:0:
288,160,223394,1,8,0:0:0:0:
288,160,223452,1,8,0:0:0:0:
288,160,223511,1,8,0:0:0:0:
288,160,223570,1,8,0:0:0:0:
288,160,223628,1,8,0:0:0:0:
288,160,223687,1,8,0:0:0:0:
288,160,223745,1,8,0:0:0:0:
288,160,223804,1,8,0:0:0:0:
288,160,223863,1,8,0:0:0:0:
288,160,223921,1,8,0:0:0:0:
288,160,223980,1,8,0:0:0:0:
288,160,224038,1,8,0:0:0:0:
288,160,224097,1,8,0:0:0:0:
288,160,224156,1,8,0:0:0:0:
288,160,224214,1,8,0:0:0:0:
288,160,224273,1,8,0:0:0:0:
288,160,224331,1,8,0:0:0:0:
288,160,224390,1,8,0:0:0:0:
288,160,224449,1,8,0:0:0:0:
288,160,224507,1,8,0:0:0:0:
288,160,224566,1,8,0:0:0:0:
288,160,224624,1,8,0:0:0:0:
288,160,224683,1,8,0:0:0:0:
288,160,224742,1,8,0:0:0:0:
288,160,224800,1,8,0:0:0:0:
288,160,224859,1,8,0:0:0:0:
288,160,224917,1,8,0:0:0:0:
288,160,224976,1,8,0:0:0:0:
224,160,225035,1,0,0:0:0:0:
224,160,225093,1,0,0:0:0:0:
224,160,225152,1,0,0:0:0:0:
224,160,225210,1,0,0:0:0:0:
224,160,225269,1,0,0:0:0:0:
224,160,225327,1,0,0:0:0:0:
224,160,225386,1,0,0:0:0:0:
224,160,225445,1,0,0:0:0:0:
288,160,225503,1,8,0:0:0:0:
288,160,225562,1,8,0:0:0:0:
288,160,225620,1,8,0:0:0:0:
288,160,225679,1,8,0:0:0:0:
224,160,225738,1,0,0:0:0:0:
224,160,225796,1,0,0:0:0:0:
224,160,225855,1,0,0:0:0:0:
224,160,225913,1,0,0:0:0:0:
224,160,225972,1,0,0:0:0:0:
224,160,226031,1,0,0:0:0:0:
224,160,226089,1,0,0:0:0:0:
224,160,226148,1,0,0:0:0:0:
288,160,226206,1,8,0:0:0:0:
224,160,226324,1,0,0:0:0:0:
224,160,226382,1,0,0:0:0:0:
288,160,226441,1,8,0:0:0:0:
224,160,226558,5,0,0:0:0:0:
224,160,226617,1,0,0:0:0:0:
288,160,226675,1,8,0:0:0:0:
224,160,226734,1,0,0:0:0:0:
288,160,226792,1,8,0:0:0:0:
288,160,226851,1,8,0:0:0:0:
224,160,226910,1,0,0:0:0:0:
224,160,226968,1,0,0:0:0:0:
224,160,227027,1,0,0:0:0:0:
224,160,227085,1,0,0:0:0:0:
224,160,227144,1,0,0:0:0:0:
224,160,227202,1,0,0:0:0:0:
224,160,227261,1,0,0:0:0:0:
224,160,227320,1,0,0:0:0:0:
224,160,227378,1,0,0:0:0:0:
224,160,227437,1,0,0:0:0:0:
224,160,227495,1,0,0:0:0:0:
224,160,227554,1,0,0:0:0:0:
224,160,227613,1,0,0:0:0:0:
224,160,227671,1,0,0:0:0:0:
224,160,227730,1,0,0:0:0:0:
224,160,227788,1,0,0:0:0:0:
288,160,227847,1,8,0:0:0:0:
224,160,227906,1,0,0:0:0:0:
224,160,227964,1,0,0:0:0:0:
224,160,228023,1,0,0:0:0:0:
224,160,228081,1,0,0:0:0:0:
224,160,228140,1,0,0:0:0:0:
224,160,228199,1,0,0:0:0:0:
224,160,228257,1,0,0:0:0:0:
224,160,228316,1,0,0:0:0:0:
224,160,228374,1,0,0:0:0:0:
224,160,228433,1,0,0:0:0:0:
224,160,228492,1,0,0:0:0:0:
224,160,228550,1,0,0:0:0:0:
224,160,228609,1,0,0:0:0:0:
224,160,228667,1,0,0:0:0:0:
224,160,228726,1,0,0:0:0:0:
224,160,228785,1,0,0:0:0:0:
224,160,228843,1,0,0:0:0:0:
224,160,228902,1,0,0:0:0:0:
224,160,228960,1,0,0:0:0:0:
224,160,229019,1,0,0:0:0:0:
224,160,229077,1,0,0:0:0:0:
224,160,229136,1,0,0:0:0:0:
224,160,229195,1,0,0:0:0:0:
288,160,229253,1,8,0:0:0:0:
288,160,229312,1,8,0:0:0:0:
288,160,229370,1,8,0:0:0:0:
288,160,229429,1,8,0:0:0:0:
288,160,229488,1,8,0:0:0:0:
288,160,229546,1,8,0:0:0:0:
224,160,229605,1,0,0:0:0:0:
224,160,229663,1,0,0:0:0:0:
288,160,229722,1,8,0:0:0:0:
288,160,229781,1,8,0:0:0:0:
288,160,229839,1,8,0:0:0:0:
288,160,229898,1,8,0:0:0:0:
224,160,229956,1,0,0:0:0:0:
224,160,230015,1,0,0:0:0:0:
224,160,230074,1,0,0:0:0:0:
224,160,230132,1,0,0:0:0:0:
288,160,230191,1,8,0:0:0:0:
288,160,230249,1,8,0:0:0:0:
224,160,230308,1,0,0:0:0:0:
224,160,230367,1,0,0:0:0:0:
224,160,230425,1,0,0:0:0:0:
224,160,230484,1,0,0:0:0:0:
224,160,230542,1,0,0:0:0:0:
224,160,230601,1,0,0:0:0:0:
288,160,230660,5,8,0:0:0:0:
288,160,230718,1,8,0:0:0:0:
288,160,230777,1,8,0:0:0:0:
288,160,230835,1,8,0:0:0:0:
288,160,230894,1,8,0:0:0:0:
288,160,230952,1,8,0:0:0:0:
288,160,231011,1,8,0:0:0:0:
288,160,231070,1,8,0:0:0:0:
288,160,231128,1,8,0:0:0:0:
288,160,231187,1,8,0:0:0:0:
288,160,231245,1,8,0:0:0:0:
288,160,231304,1,8,0:0:0:0:
288,160,231363,1,8,0:0:0:0:
288,160,231421,1,8,0:0:0:0:
288,160,231480,1,8,0:0:0:0:
288,160,231538,1,8,0:0:0:0:
288,160,231597,1,8,0:0:0:0:
288,160,231656,1,8,0:0:0:0:
288,160,231714,1,8,0:0:0:0:
288,160,231773,1,8,0:0:0:0:
288,160,231831,1,8,0:0:0:0:
288,160,231890,1,8,0:0:0:0:
288,160,231949,1,8,0:0:0:0:
288,160,232007,1,8,0:0:0:0:
288,160,232066,1,8,0:0:0:0:
288,160,232124,1,8,0:0:0:0:
288,160,232183,1,8,0:0:0:0:
288,160,232242,1,8,0:0:0:0:
288,160,232300,1,8,0:0:0:0:
288,160,232359,1,8,0:0:0:0:
224,160,232417,1,0,0:0:0:0:
224,160,232476,1,0,0:0:0:0:
288,160,232535,1,8,0:0:0:0:
288,160,232593,1,8,0:0:0:0:
288,160,232652,1,8,0:0:0:0:
288,160,232710,1,8,0:0:0:0:
224,160,232769,1,0,0:0:0:0:
224,160,232827,1,0,0:0:0:0:
224,160,232886,1,0,0:0:0:0:
224,160,232945,1,0,0:0:0:0:
224,160,233003,1,0,0:0:0:0:
224,160,233062,1,0,0:0:0:0:
224,160,233120,1,0,0:0:0:0:
224,160,233179,1,0,0:0:0:0:
288,160,233238,1,8,0:0:0:0:
224,160,233296,1,0,0:0:0:0:
224,160,233355,1,0,0:0:0:0:
224,160,233413,1,0,0:0:0:0:
288,160,233472,1,8,0:0:0:0:
288,160,233531,1,8,0:0:0:0:
288,160,233589,1,8,0:0:0:0:
288,160,233648,1,8,0:0:0:0:
224,160,233706,1,0,0:0:0:0:
224,160,233765,1,0,0:0:0:0:
288,160,233824,1,8,0:0:0:0:
288,160,233882,1,8,0:0:0:0:
224,160,233941,1,0,0:0:0:0:
224,160,233999,1,0,0:0:0:0:
224,160,234058,1,0,0:0:0:0:
224,160,234117,1,0,0:0:0:0:
288,160,234175,1,8,0:0:0:0:
288,160,234234,1,8,0:0:0:0:
288,160,234292,1,8,0:0:0:0:
288,160,234351,1,8,0:0:0:0:
224,224,234410,1,4,0:0:0:0:
224,160,234527,5,0,0:0:0:0:
224,160,234585,1,0,0:0:0:0:
288,160,234644,1,8,0:0:0:0:
224,160,234702,1,0,0:0:0:0:
288,160,234761,1,8,0:0:0:0:
224,160,234820,1,0,0:0:0:0:
288,160,234878,1,8,0:0:0:0:
288,160,234937,1,8,0:0:0:0:
224,160,234995,1,0,0:0:0:0:
224,160,235054,1,0,0:0:0:0:
288,160,235113,1,8,0:0:0:0:
224,160,235171,1,0,0:0:0:0:
224,160,235230,1,0,0:0:0:0:
224,160,235288,1,0,0:0:0:0:
288,160,235347,1,8,0:0:0:0:
288,160,235406,1,8,0:0:0:0:
288,160,235464,1,8,0:0:0:0:
288,160,235523,1,8,0:0:0:0:
224,160,235581,1,0,0:0:0:0:
224,160,235640,1,0,0:0:0:0:
288,160,235699,1,8,0:0:0:0:
224,160,235757,1,0,0:0:0:0:
288,160,235816,1,8,0:0:0:0:
288,160,235874,1,8,0:0:0:0:
224,160,235933,1,0,0:0:0:0:
288,160,235992,1,8,0:0:0:0:
288,160,236050,1,8,0:0:0:0:
288,160,236109,1,8,0:0:0:0:
224,160,236167,1,0,0:0:0:0:
224,160,236226,1,0,0:0:0:0:
288,160,236285,1,8,0:0:0:0:
288,160,236343,1,8,0:0:0:0:
224,160,236402,1,0,0:0:0:0:
224,160,236460,1,0,0:0:0:0:
288,160,236519,1,8,0:0:0:0:
224,160,236577,1,0,0:0:0:0:
288,160,236636,1,8,0:0:0:0:
224,160,236695,1,0,0:0:0:0:
288,160,236753,1,8,0:0:0:0:
288,160,236812,1,8,0:0:0:0:
288,160,236870,1,8,0:0:0:0:
288,160,236929,1,8,0:0:0:0:
224,160,236988,1,0,0:0:0:0:
224,160,237046,1,0,0:0:0:0:
224,160,237105,1,0,0:0:0:0:
224,160,237163,1,0,0:0:0:0:
288,160,237222,1,8,0:0:0:0:
224,160,237281,1,0,0:0:0:0:
224,160,237339,1,0,0:0:0:0:
224,160,237398,1,0,0:0:0:0:
288,160,237456,1,8,0:0:0:0:
288,160,237515,1,8,0:0:0:0:
288,160,237574,1,8,0:0:0:0:
288,160,237632,1,8,0:0:0:0:
224,160,237691,1,0,0:0:0:0:
224,160,237749,1,0,0:0:0:0:
224,160,237808,1,0,0:0:0:0:
224,160,237867,1,0,0:0:0:0:
288,160,237925,1,8,0:0:0:0:
224,160,237984,1,0,0:0:0:0:
288,160,238042,1,8,0:0:0:0:
288,160,238101,1,8,0:0:0:0:
224,160,238160,1,0,0:0:0:0:
224,160,238394,5,0,0:0:0:0:
224,160,238452,1,0,0:0:0:0:
288,160,238511,1,8,0:0:0:0:
288,160,238569,1,8,0:0:0:0:
224,160,238628,1,0,0:0:0:0:
288,160,238687,1,8,0:0:0:0:
288,160,238745,1,8,0:0:0:0:
288,160,238804,1,8,0:0:0:0:
224,160,238863,1,0,0:0:0:0:
224,160,238921,1,0,0:0:0:0:
288,160,238980,1,8,0:0:0:0:
224,160,239038,1,0,0:0:0:0:
288,160,239097,1,8,0:0:0:0:
288,160,239156,1,8,0:0:0:0:
288,160,239214,1,8,0:0:0:0:
288,160,239273,1,8,0:0:0:0:
224,160,239331,1,0,0:0:0:0:
224,160,239390,1,0,0:0:0:0:
224,160,239449,1,0,0:0:0:0:
224,160,239507,1,0,0:0:0:0:
288,160,239566,1,8,0:0:0:0:
224,160,239624,1,0,0:0:0:0:
288,160,239683,1,8,0:0:0:0:
288,160,239742,1,8,0:0:0:0:
224,160,239800,1,0,0:0:0:0:
224,160,239859,1,0,0:0:0:0:
224,160,239917,1,0,0:0:0:0:
224,160,239976,1,0,0:0:0:0:
288,160,240035,1,8,0:0:0:0:
288,160,240093,1,8,0:0:0:0:
224,160,240152,1,0,0:0:0:0:
288,160,240210,1,8,0:0:0:0:
288,160,240269,1,8,0:0:0:0:
288,160,240327,1,8,0:0:0:0:
224,160,240386,1,0,0:0:0:0:
224,160,240445,1,0,0:0:0:0:
288,160,240503,1,8,0:0:0:0:
224,160,240562,1,0,0:0:0:0:
288,160,240620,1,8,0:0:0:0:
288,160,240679,1,8,0:0:0:0:
224,160,240738,1,0,0:0:0:0:
288,160,240796,1,8,0:0:0:0:
224,160,240855,1,0,0:0:0:0:
224,160,240913,1,0,0:0:0:0:
288,160,240972,1,8,0:0:0:0:
224,160,241031,1,0,0:0:0:0:
224,160,241089,1,0,0:0:0:0:
224,160,241148,1,0,0:0:0:0:
288,160,241206,1,8,0:0:0:0:
288,160,241265,1,8,0:0:0:0:
288,160,241324,1,8,0:0:0:0:
288,160,241382,1,8,0:0:0:0:
224,160,241441,1,0,0:0:0:0:
224,160,241499,1,0,0:0:0:0:
224,160,241558,1,0,0:0:0:0:
224,160,241617,1,0,0:0:0:0:
288,160,241675,1,8,0:0:0:0:
288,160,241734,1,8,0:0:0:0:
288,160,241792,1,8,0:0:0:0:
288,160,241851,1,8,0:0:0:0:
224,160,241910,1,0,0:0:0:0:
288,160,242144,5,8,0:0:0:0:
224,160,242202,1,0,0:0:0:0:
288,160,242261,1,8,0:0:0:0:
288,160,242320,1,8,0:0:0:0:
224,160,242378,1,0,0:0:0:0:
288,160,242437,1,8,0:0:0:0:
224,160,242495,1,0,0:0:0:0:
224,160,242554,1,0,0:0:0:0:
288,160,242613,1,8,0:0:0:0:
224,160,242671,1,0,0:0:0:0:
288,160,242730,1,8,0:0:0:0:
224,160,242788,1,0,0:0:0:0:
288,160,242847,1,8,0:0:0:0:
288,160,242906,1,8,0:0:0:0:
224,160,242964,1,0,0:0:0:0:
288,160,243023,1,8,0:0:0:0:
288,160,243081,1,8,0:0:0:0:
288,160,243140,1,8,0:0:0:0:
224,160,243199,1,0,0:0:0:0:
224,160,243257,1,0,0:0:0:0:
288,160,243316,1,8,0:0:0:0:
288,160,243374,1,8,0:0:0:0:
288,160,243433,1,8,0:0:0:0:
288,160,243492,1,8,0:0:0:0:
224,160,243550,1,0,0:0:0:0:
224,160,243609,1,0,0:0:0:0:
224,160,243667,1,0,0:0:0:0:
224,160,243726,1,0,0:0:0:0:
288,160,243785,1,8,0:0:0:0:
224,160,243843,1,0,0:0:0:0:
288,160,243902,1,8,0:0:0:0:
288,160,243960,1,8,0:0:0:0:
224,160,244019,1,0,0:0:0:0:
288,160,244077,1,8,0:0:0:0:
224,160,244136,1,0,0:0:0:0:
224,160,244195,1,0,0:0:0:0:
288,160,244253,1,8,0:0:0:0:
288,160,244312,1,8,0:0:0:0:
288,160,244370,1,8,0:0:0:0:
224,160,244429,1,0,0:0:0:0:
288,160,244488,1,8,0:0:0:0:
224,160,244546,1,0,0:0:0:0:
288,160,244605,1,8,0:0:0:0:
224,160,244663,1,0,0:0:0:0:
288,160,244722,1,8,0:0:0:0:
288,160,244781,1,8,0:0:0:0:
288,160,244839,1,8,0:0:0:0:
288,160,244898,1,8,0:0:0:0:
224,160,244956,1,0,0:0:0:0:
224,160,245015,1,0,0:0:0:0:
224,160,245074,1,0,0:0:0:0:
224,160,245132,1,0,0:0:0:0:
288,160,245191,1,8,0:0:0:0:
288,160,245249,1,8,0:0:0:0:
224,160,245308,1,0,0:0:0:0:
224,160,245367,1,0,0:0:0:0:
288,160,245425,1,8,0:0:0:0:
288,160,245484,1,8,0:0:0:0:
288,160,245542,1,8,0:0:0:0:
288,160,245601,1,8,0:0:0:0:
224,160,245660,5,0,0:0:0:0:
224,160,245718,1,0,0:0:0:0:
224,160,245777,1,0,0:0:0:0:
224,160,245835,1,0,0:0:0:0:
224,160,245894,1,0,0:0:0:0:
224,160,245952,1,0,0:0:0:0:
224,160,246011,1,0,0:0:0:0:
224,160,246070,1,0,0:0:0:0:
288,160,246128,1,8,0:0:0:0:
288,160,246187,1,8,0:0:0:0:
288,160,246245,1,8,0:0:0:0:
288,160,246304,1,8,0:0:0:0:
288,160,246363,1,8,0:0:0:0:
288,160,246421,1,8,0:0:0:0:
224,160,246480,1,0,0:0:0:0:
224,160,246538,1,0,0:0:0:0:
288,160,246597,1,8,0:0:0:0:
288,160,246656,1,8,0:0:0:0:
288,160,246714,1,8,0:0:0:0:
288,160,246773,1,8,0:0:0:0:
224,160,246831,1,0,0:0:0:0:
224,160,246890,1,0,0:0:0:0:
224,160,246949,1,0,0:0:0:0:
224,160,247007,1,0,0:0:0:0:
288,160,247066,1,8,0:0:0:0:
288,160,247124,1,8,0:0:0:0:
224,160,247183,1,0,0:0:0:0:
224,160,247242,1,0,0:0:0:0:
224,160,247300,1,0,0:0:0:0:
224,160,247359,1,0,0:0:0:0:
224,160,247417,1,0,0:0:0:0:
224,160,247476,1,0,0:0:0:0:
288,160,247535,1,8,0:0:0:0:
288,160,247593,1,8,0:0:0:0:
288,160,247652,1,8,0:0:0:0:
288,160,247769,1,8,0:0:0:0:
224,160,247886,1,0,0:0:0:0:
224,160,247945,1,0,0:0:0:0:
288,160,248003,1,8,0:0:0:0:
288,160,248120,1,8,0:0:0:0:
224,160,248238,1,0,0:0:0:0:
224,160,248355,1,0,0:0:0:0:
288,160,248472,1,8,0:0:0:0:
288,160,248531,1,8,0:0:0:0:
288,160,248589,1,8,0:0:0:0:
288,160,248706,1,8,0:0:0:0:
224,160,248824,1,0,0:0:0:0:
224,160,248882,1,0,0:0:0:0:
224,160,248941,1,0,0:0:0:0:
224,160,249058,1,0,0:0:0:0:
288,160,249175,1,8,0:0:0:0:
224,160,249292,1,0,0:0:0:0:
288,224,249410,5,12,0:0:0:0:
224,160,249527,1,0,0:0:0:0:
224,160,249585,1,0,0:0:0:0:
288,160,249644,1,8,0:0:0:0:
224,160,249761,1,0,0:0:0:0:
288,160,249878,1,8,0:0:0:0:
288,160,249937,1,8,0:0:0:0:
224,160,249995,1,0,0:0:0:0:
288,160,250054,1,8,0:0:0:0:
288,160,250113,1,8,0:0:0:0:
224,160,250230,1,0,0:0:0:0:
288,160,250347,1,8,0:0:0:0:
224,160,250406,1,0,0:0:0:0:
224,160,250464,1,0,0:0:0:0:
224,160,250523,1,0,0:0:0:0:
288,160,250581,1,8,0:0:0:0:
288,160,250640,1,8,0:0:0:0:
288,160,250699,1,8,0:0:0:0:
288,160,250757,1,8,0:0:0:0:
224,160,250816,1,0,0:0:0:0:
288,160,250933,1,8,0:0:0:0:
224,160,250992,1,0,0:0:0:0:
288,160,251050,1,8,0:0:0:0:
288,160,251109,1,8,0:0:0:0:
224,160,251167,1,0,0:0:0:0:
288,160,251226,1,8,0:0:0:0:
224,160,251285,1,0,0:0:0:0:
224,160,251402,1,0,0:0:0:0:
288,160,251519,1,8,0:0:0:0:
288,160,251577,1,8,0:0:0:0:
288,160,251636,1,8,0:0:0:0:
288,160,251695,1,8,0:0:0:0:
224,160,251753,1,0,0:0:0:0:
288,160,251870,1,8,0:0:0:0:
224,160,251929,1,0,0:0:0:0:
288,160,251988,1,8,0:0:0:0:
224,160,252105,1,0,0:0:0:0:
288,160,252222,1,8,0:0:0:0:
224,160,252281,1,0,0:0:0:0:
224,160,252339,1,0,0:0:0:0:
224,160,252398,1,0,0:0:0:0:
224,160,252456,1,0,0:0:0:0:
224,160,252515,1,0,0:0:0:0:
224,160,252574,1,0,0:0:0:0:
224,160,252632,1,0,0:0:0:0:
288,160,252691,1,8,0:0:0:0:
288,160,252749,1,8,0:0:0:0:
224,160,252808,1,0,0:0:0:0:
224,160,252867,1,0,0:0:0:0:
288,160,252925,1,8,0:0:0:0:
288,160,253042,1,8,0:0:0:0:
288,160,253160,5,8,0:0:0:0:
224,160,253218,1,0,0:0:0:0:
224,160,253277,1,0,0:0:0:0:
224,160,253335,1,0,0:0:0:0:
288,160,253394,1,8,0:0:0:0:
288,160,253452,1,8,0:0:0:0:
288,160,253511,1,8,0:0:0:0:
288,160,253570,1,8,0:0:0:0:
288,160,253628,1,8,0:0:0:0:
288,160,253687,1,8,0:0:0:0:
224,160,253745,1,0,0:0:0:0:
224,160,253804,1,0,0:0:0:0:
288,160,253863,1,8,0:0:0:0:
224,160,253921,1,0,0:0:0:0:
224,160,253980,1,0,0:0:0:0:
224,160,254038,1,0,0:0:0:0:
288,160,254097,1,8,0:0:0:0:
224,160,254214,1,0,0:0:0:0:
224,160,254273,1,0,0:0:0:0:
224,160,254331,1,0,0:0:0:0:
224,160,254449,1,0,0:0:0:0:
288,160,254566,1,8,0:0:0:0:
288,160,254683,1,8,0:0:0:0:
224,160,254742,1,0,0:0:0:0:
288,160,254800,1,8,0:0:0:0:
288,160,254859,1,8,0:0:0:0:
224,160,254917,1,0,0:0:0:0:
288,160,254976,1,8,0:0:0:0:
224,160,255035,1,0,0:0:0:0:
224,160,255093,1,0,0:0:0:0:
224,160,255152,1,0,0:0:0:0:
224,160,255210,1,0,0:0:0:0:
224,160,255269,1,0,0:0:0:0:
224,160,255327,1,0,0:0:0:0:
224,160,255386,1,0,0:0:0:0:
224,160,255445,1,0,0:0:0:0:
288,160,255503,1,8,0:0:0:0:
288,160,255562,1,8,0:0:0:0:
288,160,255620,1,8,0:0:0:0:
288,160,255679,1,8,0:0:0:0:
288,160,255738,1,8,0:0:0:0:
288,160,255796,1,8,0:0:0:0:
224,160,255855,1,0,0:0:0:0:
224,160,255913,1,0,0:0:0:0:
288,160,255972,1,8,0:0:0:0:
288,160,256031,1,8,0:0:0:0:
288,160,256089,1,8,0:0:0:0:
288,160,256148,1,8,0:0:0:0:
224,160,256206,1,0,0:0:0:0:
224,160,256265,1,0,0:0:0:0:
288,160,256324,1,8,0:0:0:0:
288,160,256382,1,8,0:0:0:0:
224,160,256441,1,0,0:0:0:0:
224,160,256499,1,0,0:0:0:0:
224,160,256558,1,0,0:0:0:0:
224,160,256617,1,0,0:0:0:0:
288,160,256675,1,8,0:0:0:0:
288,160,256792,1,8,0:0:0:0:
288,224,256910,1,12,0:0:0:0:
224,160,257027,5,0,0:0:0:0:
224,160,257085,1,0,0:0:0:0:
288,160,257144,1,8,0:0:0:0:
224,160,257202,1,0,0:0:0:0:
224,160,257261,1,0,0:0:0:0:
224,160,257320,1,0,0:0:0:0:
288,160,257378,1,8,0:0:0:0:
288,160,257437,1,8,0:0:0:0:
224,160,257495,1,0,0:0:0:0:
224,160,257554,1,0,0:0:0:0:
288,160,257613,1,8,0:0:0:0:
224,160,257671,1,0,0:0:0:0:
224,160,257730,1,0,0:0:0:0:
224,160,257788,1,0,0:0:0:0:
288,160,257847,1,8,0:0:0:0:
288,160,257906,1,8,0:0:0:0:
288,160,257964,1,8,0:0:0:0:
224,160,258023,1,0,0:0:0:0:
288,160,258081,1,8,0:0:0:0:
224,160,258140,1,0,0:0:0:0:
224,160,258199,1,0,0:0:0:0:
224,160,258257,1,0,0:0:0:0:
288,160,258316,1,8,0:0:0:0:
288,160,258374,1,8,0:0:0:0:
288,160,258433,1,8,0:0:0:0:
224,160,258492,1,0,0:0:0:0:
288,160,258550,1,8,0:0:0:0:
288,160,258609,1,8,0:0:0:0:
224,160,258667,1,0,0:0:0:0:
224,160,258726,1,0,0:0:0:0:
288,160,258785,1,8,0:0:0:0:
288,160,258843,1,8,0:0:0:0:
224,160,258902,1,0,0:0:0:0:
224,160,258960,1,0,0:0:0:0:
288,160,259019,1,8,0:0:0:0:
224,160,259077,1,0,0:0:0:0:
288,160,259136,1,8,0:0:0:0:
224,160,259195,1,0,0:0:0:0:
288,160,259253,1,8,0:0:0:0:
288,160,259312,1,8,0:0:0:0:
224,160,259370,1,0,0:0:0:0:
224,160,259429,1,0,0:0:0:0:
288,160,259488,1,8,0:0:0:0:
288,160,259546,1,8,0:0:0:0:
224,160,259605,1,0,0:0:0:0:
224,160,259663,1,0,0:0:0:0:
288,160,259722,1,8,0:0:0:0:
224,160,259781,1,0,0:0:0:0:
224,160,259839,1,0,0:0:0:0:
224,160,259898,1,0,0:0:0:0:
288,160,259956,1,8,0:0:0:0:
288,160,260015,1,8,0:0:0:0:
224,160,260074,1,0,0:0:0:0:
224,160,260132,1,0,0:0:0:0:
288,160,260191,1,8,0:0:0:0:
288,160,260249,1,8,0:0:0:0:
288,160,260308,1,8,0:0:0:0:
288,160,260367,1,8,0:0:0:0:
224,160,260425,1,0,0:0:0:0:
224,160,260484,1,0,0:0:0:0:
224,160,260542,1,0,0:0:0:0:
224,160,260601,1,0,0:0:0:0:
288,160,260660,5,8,0:0:0:0:
288,160,260718,1,8,0:0:0:0:
224,160,260777,1,0,0:0:0:0:
224,160,260835,1,0,0:0:0:0:
288,160,260894,1,8,0:0:0:0:
224,160,260952,1,0,0:0:0:0:
288,160,261011,1,8,0:0:0:0:
224,160,261070,1,0,0:0:0:0:
288,160,261128,1,8,0:0:0:0:
288,160,261187,1,8,0:0:0:0:
224,160,261245,1,0,0:0:0:0:
224,160,261304,1,0,0:0:0:0:
288,160,261363,1,8,0:0:0:0:
288,160,261421,1,8,0:0:0:0:
288,160,261480,1,8,0:0:0:0:
288,160,261538,1,8,0:0:0:0:
224,160,261597,1,0,0:0:0:0:
224,160,261656,1,0,0:0:0:0:
288,160,261714,1,8,0:0:0:0:
224,160,261773,1,0,0:0:0:0:
288,160,261831,1,8,0:0:0:0:
288,160,261890,1,8,0:0:0:0:
288,160,261949,1,8,0:0:0:0:
288,160,262007,1,8,0:0:0:0:
224,160,262066,1,0,0:0:0:0:
224,160,262124,1,0,0:0:0:0:
288,160,262183,1,8,0:0:0:0:
224,160,262242,1,0,0:0:0:0:
288,160,262300,1,8,0:0:0:0:
224,160,262359,1,0,0:0:0:0:
288,160,262417,1,8,0:0:0:0:
224,160,262476,1,0,0:0:0:0:
288,160,262535,1,8,0:0:0:0:
288,160,262593,1,8,0:0:0:0:
224,160,262652,1,0,0:0:0:0:
224,160,262710,1,0,0:0:0:0:
288,160,262769,1,8,0:0:0:0:
224,160,262827,1,0,0:0:0:0:
288,160,262886,1,8,0:0:0:0:
288,160,262945,1,8,0:0:0:0:
288,160,263003,1,8,0:0:0:0:
224,160,263062,1,0,0:0:0:0:
288,160,263120,1,8,0:0:0:0:
224,160,263179,1,0,0:0:0:0:
288,160,263238,1,8,0:0:0:0:
288,160,263296,1,8,0:0:0:0:
224,160,263355,1,0,0:0:0:0:
224,160,263413,1,0,0:0:0:0:
288,160,263472,1,8,0:0:0:0:
288,160,263531,1,8,0:0:0:0:
288,160,263589,1,8,0:0:0:0:
288,160,263648,1,8,0:0:0:0:
224,160,263706,1,0,0:0:0:0:
224,160,263765,1,0,0:0:0:0:
288,160,263824,1,8,0:0:0:0:
288,160,263882,1,8,0:0:0:0:
224,160,263941,1,0,0:0:0:0:
224,160,263999,1,0,0:0:0:0:
224,160,264058,1,0,0:0:0:0:
224,160,264117,1,0,0:0:0:0:
288,160,264175,1,8,0:0:0:0:
288,160,264234,1,8,0:0:0:0:
288,160,264292,1,8,0:0:0:0:
288,160,264351,1,8,0:0:0:0:
224,224,264410,1,4,0:0:0:0:
224,160,264527,5,0,0:0:0:0:
224,160,264585,1,0,0:0:0:0:
288,160,264644,1,8,0:0:0:0:
224,160,264702,1,0,0:0:0:0:
288,160,264761,1,8,0:0:0:0:
224,160,264820,1,0,0:0:0:0:
288,160,264878,1,8,0:0:0:0:
288,160,264937,1,8,0:0:0:0:
224,160,264995,1,0,0:0:0:0:
224,160,265054,1,0,0:0:0:0:
288,160,265113,1,8,0:0:0:0:
224,160,265171,1,0,0:0:0:0:
288,160,265230,1,8,0:0:0:0:
288,160,265288,1,8,0:0:0:0:
224,160,265347,1,0,0:0:0:0:
288,160,265816,1,8,0:0:0:0:
288,160,265933,1,8,0:0:0:0:
288,160,266050,1,8,0:0:0:0:
288,160,266167,1,8,0:0:0:0:
224,160,266285,1,0,0:0:0:0:
224,160,266343,1,0,0:0:0:0:
288,160,266402,1,8,0:0:0:0:
224,160,266460,1,0,0:0:0:0:
288,160,266519,1,8,0:0:0:0:
224,160,266577,1,0,0:0:0:0:
224,160,266636,1,0,0:0:0:0:
224,160,266695,1,0,0:0:0:0:
288,160,266753,1,8,0:0:0:0:
288,160,266812,1,8,0:0:0:0:
224,160,266870,1,0,0:0:0:0:
224,160,266929,1,0,0:0:0:0:
288,160,266988,1,8,0:0:0:0:
224,160,267046,1,0,0:0:0:0:
288,160,267105,1,8,0:0:0:0:
224,160,267163,1,0,0:0:0:0:
288,160,267222,1,8,0:0:0:0:
224,160,267339,1,0,0:0:0:0:
224,160,267456,1,0,0:0:0:0:
288,160,267574,1,8,0:0:0:0:
224,160,267691,1,0,0:0:0:0:
224,160,267749,1,0,0:0:0:0:
224,160,267808,1,0,0:0:0:0:
224,160,267867,1,0,0:0:0:0:
288,160,267925,1,8,0:0:0:0:
288,160,268042,1,8,0:0:0:0:
224,160,268160,5,0,0:0:0:0:
224,160,268218,1,0,0:0:0:0:
224,160,268277,1,0,0:0:0:0:
224,160,268335,1,0,0:0:0:0:
288,160,268394,1,8,0:0:0:0:
224,160,268452,1,0,0:0:0:0:
288,160,268511,1,8,0:0:0:0:
224,160,268570,1,0,0:0:0:0:
288,160,268628,1,8,0:0:0:0:
288,160,268687,1,8,0:0:0:0:
224,160,268745,1,0,0:0:0:0:
224,160,268804,1,0,0:0:0:0:
288,160,268863,1,8,0:0:0:0:
224,160,268921,1,0,0:0:0:0:
288,160,268980,1,8,0:0:0:0:
224,160,269038,1,0,0:0:0:0:
288,160,269097,1,8,0:0:0:0:
288,160,269566,1,8,0:0:0:0:
288,160,269683,1,8,0:0:0:0:
224,160,269800,1,0,0:0:0:0:
288,160,269917,1,8,0:0:0:0:
288,160,270035,1,8,0:0:0:0:
288,160,270093,1,8,0:0:0:0:
288,160,270152,1,8,0:0:0:0:
288,160,270210,1,8,0:0:0:0:
224,160,270269,1,0,0:0:0:0:
224,160,270327,1,0,0:0:0:0:
288,160,270386,1,8,0:0:0:0:
288,160,270445,1,8,0:0:0:0:
288,160,270503,1,8,0:0:0:0:
288,160,270562,1,8,0:0:0:0:
224,160,270620,1,0,0:0:0:0:
224,160,270679,1,0,0:0:0:0:
288,160,270738,1,8,0:0:0:0:
224,160,270796,1,0,0:0:0:0:
224,160,270855,1,0,0:0:0:0:
224,160,270913,1,0,0:0:0:0:
288,160,270972,1,8,0:0:0:0:
288,160,271031,1,8,0:0:0:0:
288,160,271089,1,8,0:0:0:0:
288,160,271148,1,8,0:0:0:0:
224,160,271206,1,0,0:0:0:0:
224,160,271265,1,0,0:0:0:0:
224,160,271324,1,0,0:0:0:0:
224,160,271382,1,0,0:0:0:0:
288,160,271441,1,8,0:0:0:0:
224,160,271499,1,0,0:0:0:0:
224,160,271558,1,0,0:0:0:0:
224,160,271617,1,0,0:0:0:0:
288,160,271675,1,8,0:0:0:0:
288,160,271734,1,8,0:0:0:0:
288,160,271792,1,8,0:0:0:0:
288,160,271851,1,8,0:0:0:0:
224,160,271910,5,0,0:0:0:0:
224,160,271968,1,0,0:0:0:0:
224,160,272027,1,0,0:0:0:0:
224,160,272085,1,0,0:0:0:0:
288,160,272144,1,8,0:0:0:0:
224,160,272202,1,0,0:0:0:0:
288,160,272261,1,8,0:0:0:0:
224,160,272320,1,0,0:0:0:0:
288,160,272378,1,8,0:0:0:0:
288,160,272437,1,8,0:0:0:0:
224,160,272495,1,0,0:0:0:0:
224,160,272554,1,0,0:0:0:0:
288,160,272613,1,8,0:0:0:0:
288,160,272671,1,8,0:0:0:0:
288,160,272730,1,8,0:0:0:0:
288,160,272788,1,8,0:0:0:0:
224,160,272847,1,0,0:0:0:0:
224,160,272906,1,0,0:0:0:0:
288,160,272964,1,8,0:0:0:0:
224,160,273023,1,0,0:0:0:0:
288,160,273081,1,8,0:0:0:0:
224,160,273140,1,0,0:0:0:0:
224,160,273199,1,0,0:0:0:0:
224,160,273257,1,0,0:0:0:0:
288,160,273316,1,8,0:0:0:0:
288,160,273374,1,8,0:0:0:0:
224,160,273433,1,0,0:0:0:0:
288,160,273492,1,8,0:0:0:0:
288,160,273550,1,8,0:0:0:0:
288,160,273609,1,8,0:0:0:0:
224,160,273667,1,0,0:0:0:0:
224,160,273726,1,0,0:0:0:0:
288,160,273785,1,8,0:0:0:0:
224,160,273843,1,0,0:0:0:0:
224,160,273902,1,0,0:0:0:0:
224,160,273960,1,0,0:0:0:0:
288,160,274019,1,8,0:0:0:0:
224,160,274077,1,0,0:0:0:0:
288,160,274136,1,8,0:0:0:0:
224,160,274195,1,0,0:0:0:0:
288,160,274253,1,8,0:0:0:0:
288,160,274312,1,8,0:0:0:0:
288,160,274370,1,8,0:0:0:0:
288,160,274429,1,8,0:0:0:0:
288,160,274488,1,8,0:0:0:0:
288,160,274546,1,8,0:0:0:0:
224,160,274605,1,0,0:0:0:0:
224,160,274663,1,0,0:0:0:0:
288,160,274722,1,8,0:0:0:0:
288,160,274781,1,8,0:0:0:0:
288,160,274839,1,8,0:0:0:0:
288,160,274898,1,8,0:0:0:0:
224,160,274956,1,0,0:0:0:0:
224,160,275015,1,0,0:0:0:0:
224,160,275074,1,0,0:0:0:0:
224,160,275132,1,0,0:0:0:0:
288,160,275191,1,8,0:0:0:0:
288,160,275249,1,8,0:0:0:0:
288,160,275308,1,8,0:0:0:0:
288,160,275367,1,8,0:0:0:0:
224,160,275425,1,0,0:0:0:0:
224,160,275484,1,0,0:0:0:0:
224,160,275542,1,0,0:0:0:0:
224,160,275601,1,0,0:0:0:0:
288,160,275660,5,8,0:0:0:0:
288,160,275718,1,8,0:0:0:0:
224,160,275777,1,0,0:0:0:0:
224,160,275835,1,0,0:0:0:0:
288,160,275894,1,8,0:0:0:0:
224,160,275952,1,0,0:0:0:0:
288,160,276011,1,8,0:0:0:0:
224,160,276070,1,0,0:0:0:0:
288,160,276128,1,8,0:0:0:0:
288,160,276187,1,8,0:0:0:0:
288,160,276245,1,8,0:0:0:0:
224,160,276304,1,0,0:0:0:0:
288,160,276363,1,8,0:0:0:0:
288,160,276421,1,8,0:0:0:0:
224,160,276480,1,0,0:0:0:0:
224,160,276538,1,0,0:0:0:0:
288,160,276597,1,8,0:0:0:0:
224,160,276656,1,0,0:0:0:0:
288,160,276714,1,8,0:0:0:0:
224,160,276773,1,0,0:0:0:0:
288,160,276831,1,8,0:0:0:0:
224,160,276890,1,0,0:0:0:0:
288,160,276949,1,8,0:0:0:0:
224,160,277007,1,0,0:0:0:0:
288,160,277066,1,8,0:0:0:0:
288,160,277124,1,8,0:0:0:0:
224,160,277183,1,0,0:0:0:0:
224,160,277242,1,0,0:0:0:0:
288,160,277300,1,8,0:0:0:0:
288,160,277359,1,8,0:0:0:0:
224,160,277417,1,0,0:0:0:0:
224,160,277476,1,0,0:0:0:0:
288,160,277535,1,8,0:0:0:0:
288,160,277593,1,8,0:0:0:0:
288,160,277652,1,8,0:0:0:0:
288,160,277710,1,8,0:0:0:0:
224,160,277769,1,0,0:0:0:0:
224,160,277827,1,0,0:0:0:0:
288,160,277886,1,8,0:0:0:0:
288,160,277945,1,8,0:0:0:0:
224,160,278003,1,0,0:0:0:0:
224,160,278062,1,0,0:0:0:0:
224,160,278120,1,0,0:0:0:0:
224,160,278179,1,0,0:0:0:0:
288,160,278238,1,8,0:0:0:0:
224,160,278296,1,0,0:0:0:0:
224,160,278355,1,0,0:0:0:0:
224,160,278413,1,0,0:0:0:0:
288,160,278472,1,8,0:0:0:0:
288,160,278531,1,8,0:0:0:0:
288,160,278589,1,8,0:0:0:0:
288,160,278648,1,8,0:0:0:0:
224,160,278706,1,0,0:0:0:0:
224,160,278765,1,0,0:0:0:0:
288,160,278824,1,8,0:0:0:0:
288,160,278882,1,8,0:0:0:0:
224,160,278941,1,0,0:0:0:0:
224,160,278999,1,0,0:0:0:0:
224,160,279058,1,0,0:0:0:0:
224,160,279117,1,0,0:0:0:0:
288,160,279175,1,8,0:0:0:0:
288,160,279234,1,8,0:0:0:0:
224,160,279292,1,0,0:0:0:0:
224,160,279351,1,0,0:0:0:0:
288,224,279410,1,12,0:0:0:0:
224,160,279566,5,0,0:0:0:0:
224,160,279644,1,0,0:0:0:0:
288,160,279722,1,8,0:0:0:0:
224,160,279800,1,0,0:0:0:0:
288,160,279878,1,8,0:0:0:0:
288,160,279956,1,8,0:0:0:0:
224,160,280035,1,0,0:0:0:0:
224,160,280113,1,0,0:0:0:0:
288,160,280191,1,8,0:0:0:0:
224,160,280269,1,0,0:0:0:0:
288,160,280347,1,8,0:0:0:0:
288,160,280425,1,8,0:0:0:0:
288,160,280503,1,8,0:0:0:0:
288,160,280581,1,8,0:0:0:0:
224,160,280660,1,0,0:0:0:0:
224,160,280738,1,0,0:0:0:0:
288,160,280816,1,8,0:0:0:0:
288,160,280894,1,8,0:0:0:0:
224,160,280972,1,0,0:0:0:0:
224,160,281050,1,0,0:0:0:0:
288,160,281128,1,8,0:0:0:0:
224,160,281206,1,0,0:0:0:0:
288,160,281285,1,8,0:0:0:0:
224,160,281363,1,0,0:0:0:0:
288,160,281441,1,8,0:0:0:0:
288,160,281519,1,8,0:0:0:0:
224,160,281597,1,0,0:0:0:0:
224,160,281675,1,0,0:0:0:0:
288,160,281753,1,8,0:0:0:0:
288,160,281831,1,8,0:0:0:0:
224,160,281910,1,0,0:0:0:0:
288,160,281988,1,8,0:0:0:0:
224,160,282066,1,0,0:0:0:0:
224,160,282144,1,0,0:0:0:0:
288,160,282222,1,8,0:0:0:0:
288,160,282300,1,8,0:0:0:0:
288,160,282378,1,8,0:0:0:0:
224,160,282456,1,0,0:0:0:0:
224,160,282535,1,0,0:0:0:0:
224,160,282613,1,0,0:0:0:0:
288,160,282691,1,8,0:0:0:0:
288,160,282769,1,8,0:0:0:0:
224,160,282847,1,0,0:0:0:0:
224,160,282925,1,0,0:0:0:0:
288,160,283003,1,8,0:0:0:0:
224,160,283081,1,0,0:0:0:0:
288,160,283160,1,8,0:0:0:0:
288,160,283238,1,8,0:0:0:0:
288,160,283316,1,8,0:0:0:0:
288,160,283394,1,8,0:0:0:0:
224,160,283472,1,0,0:0:0:0:
224,160,283550,1,0,0:0:0:0:
288,160,283628,1,8,0:0:0:0:
288,160,283706,1,8,0:0:0:0:
288,160,283785,1,8,0:0:0:0:
224,160,283863,1,0,0:0:0:0:
224,160,283941,1,0,0:0:0:0:
224,160,284019,1,0,0:0:0:0:
288,160,284097,1,8,0:0:0:0:
288,160,284175,1,8,0:0:0:0:
288,160,284253,1,8,0:0:0:0:
288,160,284331,1,8,0:0:0:0:
224,160,284410,1,0,0:0:0:0:
224,160,284488,1,0,0:0:0:0:
288,160,284566,1,8,0:0:0:0:
288,160,284644,1,8,0:0:0:0:
224,160,284722,1,0,0:0:0:0:
224,160,284800,1,0,0:0:0:0:
224,160,284878,1,0,0:0:0:0:
224,160,284956,1,0,0:0:0:0:
288,160,285035,1,8,0:0:0:0:
224,160,285113,1,0,0:0:0:0:
288,160,285191,1,8,0:0:0:0:
288,160,285269,1,8,0:0:0:0:
224,160,285347,1,0,0:0:0:0:
224,160,285425,1,0,0:0:0:0:
288,160,285503,1,8,0:0:0:0:
288,160,285581,1,8,0:0:0:0:
224,160,285660,1,0,0:0:0:0:
288,160,285738,1,8,0:0:0:0:
288,160,285816,1,8,0:0:0:0:
288,160,285894,1,8,0:0:0:0:
224,160,285972,1,0,0:0:0:0:
224,160,286031,1,0,0:0:0:0:
224,160,286089,1,0,0:0:0:0:
224,160,286148,1,0,0:0:0:0:
288,160,286206,1,8,0:0:0:0:
288,160,286265,1,8,0:0:0:0:
288,160,286324,1,8,0:0:0:0:
288,160,286382,1,8,0:0:0:0:
224,160,286441,1,0,0:0:0:0:
224,160,286499,1,0,0:0:0:0:
224,160,286558,1,0,0:0:0:0:
224,160,286617,1,0,0:0:0:0:
288,160,286675,1,8,0:0:0:0:
288,160,286734,1,8,0:0:0:0:
224,160,286792,1,0,0:0:0:0:
224,160,286851,1,0,0:0:0:0:
288,160,286910,1,8,0:0:0:0:
224,160,287027,5,0,0:0:0:0:
224,160,287144,1,0,0:0:0:0:
224,160,287261,1,0,0:0:0:0:
288,160,287378,1,8,0:0:0:0:
224,160,287495,1,0,0:0:0:0:
224,160,287613,1,0,0:0:0:0:
224,160,287730,1,0,0:0:0:0:
288,160,287847,1,8,0:0:0:0:
288,160,287906,1,8,0:0:0:0:
224,160,287964,1,0,0:0:0:0:
224,160,288081,1,0,0:0:0:0:
224,160,288199,1,0,0:0:0:0:
288,160,288316,1,8,0:0:0:0:
224,160,288433,1,0,0:0:0:0:
288,160,288550,1,8,0:0:0:0:
288,160,288667,1,8,0:0:0:0:
288,160,288785,1,8,0:0:0:0:
224,160,288902,1,0,0:0:0:0:
224,160,289019,1,0,0:0:0:0:
224,160,289136,1,0,0:0:0:0:
288,160,289253,1,8,0:0:0:0:
224,160,289370,1,0,0:0:0:0:
224,160,289488,1,0,0:0:0:0:
224,160,289605,1,0,0:0:0:0:
288,160,289722,1,8,0:0:0:0:
288,160,289781,1,8,0:0:0:0:
224,160,289839,1,0,0:0:0:0:
224,160,289898,1,0,0:0:0:0:
224,160,289956,1,0,0:0:0:0:
224,160,290015,1,0,0:0:0:0:
224,160,290074,1,0,0:0:0:0:
224,160,290132,1,0,0:0:0:0:
288,160,290191,1,8,0:0:0:0:
224,160,290249,1,0,0:0:0:0:
288,160,290308,1,8,0:0:0:0:
224,160,290367,1,0,0:0:0:0:
288,160,290425,1,8,0:0:0:0:
224,160,290484,1,0,0:0:0:0:
288,160,290542,1,8,0:0:0:0:
224,160,290601,1,0,0:0:0:0:
288,160,290660,1,8,0:0:0:0:
224,160,290777,1,0,0:0:0:0:
224,160,290894,1,0,0:0:0:0:
224,160,291011,1,0,0:0:0:0:
288,160,291128,1,8,0:0:0:0:
224,160,291245,1,0,0:0:0:0:
224,160,291363,1,0,0:0:0:0:
224,160,291480,1,0,0:0:0:0:
288,160,291597,1,8,0:0:0:0:
288,160,291656,1,8,0:0:0:0:
224,160,291714,1,0,0:0:0:0:
224,160,291831,1,0,0:0:0:0:
224,160,291949,1,0,0:0:0:0:
288,160,292066,1,8,0:0:0:0:
224,160,292183,1,0,0:0:0:0:
224,160,292300,1,0,0:0:0:0:
224,160,292417,1,0,0:0:0:0:
288,160,292535,1,8,0:0:0:0:
288,160,292593,1,8,0:0:0:0:
288,160,292652,1,8,0:0:0:0:
288,160,292710,1,8,0:0:0:0:
224,160,292769,1,0,0:0:0:0:
224,160,292827,1,0,0:0:0:0:
224,160,292886,1,0,0:0:0:0:
224,160,292945,1,0,0:0:0:0:
288,160,293003,1,8,0:0:0:0:
288,160,293062,1,8,0:0:0:0:
288,160,293120,1,8,0:0:0:0:
288,160,293179,1,8,0:0:0:0:
224,160,293238,1,0,0:0:0:0:
224,160,293296,1,0,0:0:0:0:
224,160,293355,1,0,0:0:0:0:
224,160,293413,1,0,0:0:0:0:
288,160,293472,1,8,0:0:0:0:
288,160,293531,1,8,0:0:0:0:
288,160,293589,1,8,0:0:0:0:
288,160,293706,1,8,0:0:0:0:
224,160,293824,1,0,0:0:0:0:
224,160,293882,1,0,0:0:0:0:
224,160,293941,1,0,0:0:0:0:
288,160,294058,1,8,0:0:0:0:
224,160,294117,1,0,0:0:0:0:
288,160,294175,1,8,0:0:0:0:
224,160,294234,1,0,0:0:0:0:
224,160,294292,1,0,0:0:0:0:
224,160,294351,1,0,0:0:0:0:
288,224,294410,1,12,0:0:0:0:
224,160,294527,5,0,0:0:0:0:
224,160,294585,1,0,0:0:0:0:
288,160,294644,1,8,0:0:0:0:
224,160,294702,1,0,0:0:0:0:
288,160,294761,1,8,0:0:0:0:
224,160,294820,1,0,0:0:0:0:
288,160,294878,1,8,0:0:0:0:
288,160,294937,1,8,0:0:0:0:
224,160,294995,1,0,0:0:0:0:
224,160,295054,1,0,0:0:0:0:
288,160,295113,1,8,0:0:0:0:
224,160,295171,1,0,0:0:0:0:
224,160,295230,1,0,0:0:0:0:
224,160,295288,1,0,0:0:0:0:
288,160,295347,1,8,0:0:0:0:
288,160,295406,1,8,0:0:0:0:
224,160,295464,1,0,0:0:0:0:
288,160,295523,1,8,0:0:0:0:
288,160,295581,1,8,0:0:0:0:
288,160,295640,1,8,0:0:0:0:
224,160,295699,1,0,0:0:0:0:
224,160,295757,1,0,0:0:0:0:
288,160,295816,1,8,0:0:0:0:
288,160,295874,1,8,0:0:0:0:
224,160,295933,1,0,0:0:0:0:
224,160,295992,1,0,0:0:0:0:
288,160,296050,1,8,0:0:0:0:
224,160,296109,1,0,0:0:0:0:
288,160,296167,1,8,0:0:0:0:
288,160,296226,1,8,0:0:0:0:
224,224,296285,1,4,0:0:0:0:
224,224,296519,1,4,0:0:0:0:
288,160,296753,5,8,0:0:0:0:
288,160,296812,1,8,0:0:0:0:
288,160,296870,1,8,0:0:0:0:
288,160,296929,1,8,0:0:0:0:
224,160,296988,1,0,0:0:0:0:
224,160,297046,1,0,0:0:0:0:
288,160,297105,1,8,0:0:0:0:
288,160,297163,1,8,0:0:0:0:
224,160,297222,1,0,0:0:0:0:
224,160,297281,1,0,0:0:0:0:
224,160,297339,1,0,0:0:0:0:
224,160,297398,1,0,0:0:0:0:
224,160,297456,1,0,0:0:0:0:
224,160,297515,1,0,0:0:0:0:
224,160,297574,1,0,0:0:0:0:
224,160,297632,1,0,0:0:0:0:
288,160,297691,1,8,0:0:0:0:
288,160,297749,1,8,0:0:0:0:
288,160,297808,1,8,0:0:0:0:
288,160,297867,1,8,0:0:0:0:
224,160,297925,1,0,0:0:0:0:
224,160,297984,1,0,0:0:0:0:
224,160,298042,1,0,0:0:0:0:
224,160,298101,1,0,0:0:0:0:
288,160,298160,1,8,0:0:0:0:
288,160,298218,1,8,0:0:0:0:
288,160,298277,1,8,0:0:0:0:
224,160,298335,1,0,0:0:0:0:
288,160,298394,1,8,0:0:0:0:
224,160,298452,1,0,0:0:0:0:
288,160,298511,1,8,0:0:0:0:
224,160,298570,1,0,0:0:0:0:
288,160,298628,1,8,0:0:0:0:
288,160,298687,1,8,0:0:0:0:
224,160,298745,1,0,0:0:0:0:
224,160,298804,1,0,0:0:0:0:
288,160,298863,1,8,0:0:0:0:
224,160,298921,1,0,0:0:0:0:
224,160,298980,1,0,0:0:0:0:
224,160,299038,1,0,0:0:0:0:
288,160,299097,1,8,0:0:0:0:
288,160,299156,1,8,0:0:0:0:
288,160,299214,1,8,0:0:0:0:
224,160,299273,1,0,0:0:0:0:
288,160,299331,1,8,0:0:0:0:
224,160,299390,1,0,0:0:0:0:
288,160,299449,1,8,0:0:0:0:
224,160,299507,1,0,0:0:0:0:
288,160,299566,1,8,0:0:0:0:
288,160,299624,1,8,0:0:0:0:
224,160,299683,1,0,0:0:0:0:
224,160,299742,1,0,0:0:0:0:
288,160,299800,1,8,0:0:0:0:
224,160,299859,1,0,0:0:0:0:
224,160,299917,1,0,0:0:0:0:
224,160,299976,1,0,0:0:0:0:
288,160,300035,1,8,0:0:0:0:
288,160,300093,1,8,0:0:0:0:
224,160,300152,1,0,0:0:0:0:
288,160,300210,1,8,0:0:0:0:
288,160,300269,1,8,0:0:0:0:
288,160,300327,1,8,0:0:0:0:
224,160,300386,1,0,0:0:0:0:
224,160,300445,1,0,0:0:0:0:
288,160,300503,1,8,0:0:0:0:
224,160,300562,1,0,0:0:0:0:
224,160,300620,1,0,0:0:0:0:
224,160,300679,1,0,0:0:0:0:
288,160,300738,1,8,0:0:0:0:
288,160,300796,1,8,0:0:0:0:
288,160,300855,1,8,0:0:0:0:
288,160,300913,1,8,0:0:0:0:
224,160,300972,1,0,0:0:0:0:
224,160,301031,1,0,0:0:0:0:
224,160,301089,1,0,0:0:0:0:
224,160,301148,1,0,0:0:0:0:
224,160,301206,1,0,0:0:0:0:
224,160,301265,1,0,0:0:0:0:
224,160,301324,1,0,0:0:0:0:
224,160,301382,1,0,0:0:0:0:
288,160,301441,1,8,0:0:0:0:
288,160,301499,1,8,0:0:0:0:
288,160,301558,1,8,0:0:0:0:
288,160,301617,1,8,0:0:0:0:
224,160,301675,1,0,0:0:0:0:
224,160,301734,1,0,0:0:0:0:
224,160,301792,1,0,0:0:0:0:
224,160,301851,1,0,0:0:0:0:
288,160,301910,1,8,0:0:0:0:
224,160,302027,5,0,0:0:0:0:
224,160,302085,1,0,0:0:0:0:
288,160,302144,1,8,0:0:0:0:
224,160,302202,1,0,0:0:0:0:
288,160,302261,1,8,0:0:0:0:
224,160,302320,1,0,0:0:0:0:
288,160,302378,1,8,0:0:0:0:
288,160,302437,1,8,0:0:0:0:
224,160,302495,1,0,0:0:0:0:
224,160,302554,1,0,0:0:0:0:
288,160,302613,1,8,0:0:0:0:
224,160,302671,1,0,0:0:0:0:
224,160,302730,1,0,0:0:0:0:
224,160,302788,1,0,0:0:0:0:
288,160,302847,1,8,0:0:0:0:
288,160,302906,1,8,0:0:0:0:
224,160,302964,1,0,0:0:0:0:
288,160,303023,1,8,0:0:0:0:
288,160,303081,1,8,0:0:0:0:
288,160,303140,1,8,0:0:0:0:
224,160,303199,1,0,0:0:0:0:
224,160,303257,1,0,0:0:0:0:
288,160,303316,1,8,0:0:0:0:
288,160,303374,1,8,0:0:0:0:
224,160,303433,1,0,0:0:0:0:
224,160,303492,1,0,0:0:0:0:
288,160,303550,1,8,0:0:0:0:
224,160,303609,1,0,0:0:0:0:
288,160,303667,1,8,0:0:0:0:
288,160,303726,1,8,0:0:0:0:
224,160,303785,1,0,0:0:0:0:
224,160,303843,1,0,0:0:0:0:
224,160,303902,1,0,0:0:0:0:
224,160,303960,1,0,0:0:0:0:
224,160,304019,1,0,0:0:0:0:
224,160,304077,1,0,0:0:0:0:
224,160,304136,1,0,0:0:0:0:
224,160,304195,1,0,0:0:0:0:
288,160,304253,1,8,0:0:0:0:
224,160,304312,1,0,0:0:0:0:
224,160,304370,1,0,0:0:0:0:
224,160,304429,1,0,0:0:0:0:
224,160,304488,1,0,0:0:0:0:
224,160,304546,1,0,0:0:0:0:
224,160,304605,1,0,0:0:0:0:
224,160,304663,1,0,0:0:0:0:
288,160,304722,1,8,0:0:0:0:
288,160,304781,1,8,0:0:0:0:
288,160,304839,1,8,0:0:0:0:
288,160,304898,1,8,0:0:0:0:
224,160,304956,1,0,0:0:0:0:
224,160,305015,1,0,0:0:0:0:
224,160,305074,1,0,0:0:0:0:
224,160,305132,1,0,0:0:0:0:
288,160,305191,1,8,0:0:0:0:
288,160,305249,1,8,0:0:0:0:
288,160,305308,1,8,0:0:0:0:
288,160,305367,1,8,0:0:0:0:
224,160,305425,1,0,0:0:0:0:
224,160,305484,1,0,0:0:0:0:
224,160,305542,1,0,0:0:0:0:
224,160,305601,1,0,0:0:0:0:
288,160,305660,5,8,0:0:0:0:
288,160,305718,1,8,0:0:0:0:
288,160,305777,1,8,0:0:0:0:
288,160,305835,1,8,0:0:0:0:
288,160,305894,1,8,0:0:0:0:
288,160,305952,1,8,0:0:0:0:
288,160,306011,1,8,0:0:0:0:
288,160,306070,1,8,0:0:0:0:
288,160,306128,1,8,0:0:0:0:
288,160,306187,1,8,0:0:0:0:
288,160,306245,1,8,0:0:0:0:
288,160,306304,1,8,0:0:0:0:
288,160,306363,1,8,0:0:0:0:
288,160,306421,1,8,0:0:0:0:
288,160,306480,1,8,0:0:0:0:
288,160,306538,1,8,0:0:0:0:
288,160,306597,1,8,0:0:0:0:
288,160,306656,1,8,0:0:0:0:
288,160,306714,1,8,0:0:0:0:
288,160,306773,1,8,0:0:0:0:
224,160,306831,1,0,0:0:0:0:
224,160,306890,1,0,0:0:0:0:
224,160,306949,1,0,0:0:0:0:
224,160,307007,1,0,0:0:0:0:
288,160,307066,1,8,0:0:0:0:
224,160,307124,1,0,0:0:0:0:
224,160,307183,1,0,0:0:0:0:
224,160,307242,1,0,0:0:0:0:
224,160,307300,1,0,0:0:0:0:
224,160,307359,1,0,0:0:0:0:
224,160,307417,1,0,0:0:0:0:
224,160,307476,1,0,0:0:0:0:
288,160,307535,1,8,0:0:0:0:
288,160,307593,1,8,0:0:0:0:
288,160,307652,1,8,0:0:0:0:
288,160,307769,1,8,0:0:0:0:
224,160,307886,1,0,0:0:0:0:
224,160,308003,1,0,0:0:0:0:
288,160,308120,1,8,0:0:0:0:
224,160,308238,1,0,0:0:0:0:
224,160,308355,1,0,0:0:0:0:
288,160,308472,1,8,0:0:0:0:
288,160,308531,1,8,0:0:0:0:
288,160,308589,1,8,0:0:0:0:
288,160,308648,1,8,0:0:0:0:
224,160,308706,1,0,0:0:0:0:
224,160,308765,1,0,0:0:0:0:
288,160,308824,1,8,0:0:0:0:
288,160,308882,1,8,0:0:0:0:
288,160,308941,1,8,0:0:0:0:
288,160,308999,1,8,0:0:0:0:
224,160,309058,1,0,0:0:0:0:
224,160,309117,1,0,0:0:0:0:
288,160,309175,1,8,0:0:0:0:
224,160,309234,1,0,0:0:0:0:
224,160,309292,1,0,0:0:0:0:
224,160,309351,1,0,0:0:0:0:
288,224,309410,1,12,0:0:0:0:
224,224,312140,5,4,0:0:0:0:
224,160,312821,1,0,0:0:0:0:
288,224,313503,1,12,0:0:0:0:
224,160,314185,1,0,0:0:0:0:
224,224,314867,1,4,0:0:0:0:
224,160,315549,1,0,0:0:0:0:
224,160,315776,1,0,0:0:0:0:
224,160,316003,1,0,0:0:0:0:
288,224,316230,1,12,0:0:0:0:
224,160,316458,1,0,0:0:0:0:
224,160,316685,1,0,0:0:0:0:
288,160,316912,1,8,0:0:0:0:
224,160,317140,1,0,0:0:0:0:
288,160,317367,1,8,0:0:0:0:
288,160,317395,1,8,0:0:0:0:
224,224,317594,5,4,0:0:0:0:
224,224,318276,1,4,0:0:0:0:
288,224,318958,1,12,0:0:0:0:
224,224,319299,1,4,0:0:0:0:
224,224,319640,1,4,0:0:0:0:
224,224,319980,1,4,0:0:0:0:
224,224,320321,1,4,0:0:0:0:
224,160,321003,1,0,0:0:0:0:
288,224,321685,1,12,0:0:0:0:
224,160,321912,1,0,0:0:0:0:
224,160,322140,1,0,0:0:0:0:
288,160,322367,1,8,0:0:0:0:
224,160,322594,1,0,0:0:0:0:
288,160,322821,1,8,0:0:0:0:
288,160,322878,1,8,0:0:0:0:
224,224,323049,5,4,0:0:0:0:
224,160,323390,1,0,0:0:0:0:
224,224,323730,1,4,0:0:0:0:
17,96,325776,6,0,L|48:96,6,20.9999993591309
288,224,327140,5,12,0:0:0:0:
224,160,327367,1,0,0:0:0:0:
224,160,327594,1,0,0:0:0:0:
288,160,327821,1,8,0:0:0:0:
288,160,327864,1,8,0:0:0:0:
224,160,328049,1,0,0:0:0:0:
224,160,328276,1,0,0:0:0:0:
288,224,328503,1,12,0:0:0:0:
224,160,329185,1,0,0:0:0:0:
224,224,329867,1,4,0:0:0:0:
224,160,330208,1,0,0:0:0:0:
224,160,330549,1,0,0:0:0:0:
224,160,330890,1,0,0:0:0:0:
288,224,331230,1,12,0:0:0:0:
224,160,331912,1,0,0:0:0:0:
224,160,332424,1,0,0:0:0:0:
224,160,332466,1,0,0:0:0:0:
224,160,332509,1,0,0:0:0:0:
224,160,332551,1,0,0:0:0:0:
288,224,332594,5,12,0:0:0:0:
224,160,332821,5,0,0:0:0:0:
224,160,333049,1,0,0:0:0:0:
288,160,333276,5,8,0:0:0:0:
224,160,333503,5,0,0:0:0:0:
288,160,333730,1,8,0:0:0:0:
288,224,333958,5,12,0:0:0:0:
224,160,334185,5,0,0:0:0:0:
224,160,334412,1,0,0:0:0:0:
288,224,334640,5,12,0:0:0:0:
224,160,334867,5,0,0:0:0:0:
288,224,335094,5,12,0:0:0:0:
