osu file format v14

[General]
AudioFilename: Imil & Sunhiausa - Our Generation.mp3
AudioLeadIn: 0
PreviewTime: 180869
Countdown: 0
SampleSet: None
StackLeniency: 0.7
Mode: 3
LetterboxInBreaks: 0
SpecialStyle: 0
WidescreenStoryboard: 0

[Editor]
DistanceSpacing: 0.9
BeatDivisor: 8
GridSize: 8
TimelineZoom: 3.699998

[Metadata]
Title:Our Generation
TitleUnicode:Our Generation
Artist:Imil & Sunhiausa
ArtistUnicode:Imil & Sunhiausa
Creator:[Shana Lesus]
Version:Invalid Synchronization
Source:
Tags:wonki eyes melodic speedcore jeroen adriaanse a speedcore state of mind
BeatmapID:1039750
BeatmapSetID:487700

[Difficulty]
HPDrainRate:8
CircleSize:4
OverallDifficulty:8
ApproachRate:5
SliderMultiplier:1.4
SliderTickRate:1

[Events]
//Background and Video events
0,0,"s.jpg",0,0
//Break Periods
//Storyboard Layer 0 (Background)
//Storyboard Layer 1 (Fail)
//Storyboard Layer 2 (Pass)
//Storyboard Layer 3 (Foreground)
//Storyboard Layer 4 (Overlay)
//Storyboard Sound Samples

[TimingPoints]
0,289.855072463768,4,3,0,40,1,0
125217,-100,4,3,0,40,0,1
143188,-100,4,3,0,40,0,0
143768,-100,4,3,0,40,0,1
162318,-100,4,3,0,40,0,0
180869,-100,4,3,0,40,0,1
217971,-100,4,3,0,40,0,0

[HitObjects]
448,192,0,5,0,0:0:0:0:
64,192,0,128,0,579:0:0:0:0:
320,192,579,128,0,1159:0:0:0:0:
448,192,1159,1,0,0:0:0:0:
192,192,1159,128,0,1739:0:0:0:0:
64,192,1739,1,0,0:0:0:0:
448,192,2028,1,0,0:0:0:0:
320,192,2318,1,0,0:0:0:0:
64,192,2318,1,0,0:0:0:0:
192,192,2463,1,0,0:0:0:0:
448,192,2681,1,0,0:0:0:0:
64,192,2826,1,0,0:0:0:0:
320,192,2898,1,0,0:0:0:0:
192,192,3043,1,0,0:0:0:0:
448,192,3188,1,0,0:0:0:0:
64,192,3333,1,0,0:0:0:0:
448,192,3478,1,0,0:0:0:0:
320,192,3478,1,0,0:0:0:0:
192,192,3623,1,0,0:0:0:0:
320,192,3768,1,0,0:0:0:0:
192,192,3913,1,0,0:0:0:0:
448,192,4057,1,0,0:0:0:0:
64,192,4202,1,0,0:0:0:0:
320,192,4347,1,0,0:0:0:0:
448,192,4492,1,0,0:0:0:0:
192,192,4637,1,0,0:0:0:0:
64,192,4637,128,0,5217:0:0:0:0:
320,192,5217,128,0,5797:0:0:0:0:
192,192,5797,1,0,0:0:0:0:
448,192,5797,128,0,6376:0:0:0:0:
64,192,6376,1,0,0:0:0:0:
192,192,6666,1,0,0:0:0:0:
320,192,6811,1,0,0:0:0:0:
448,192,6956,1,0,0:0:0:0:
64,192,6956,1,0,0:0:0:0:
192,192,7318,1,0,0:0:0:0:
448,192,7463,1,0,0:0:0:0:
320,192,7536,1,0,0:0:0:0:
64,192,7681,1,0,0:0:0:0:
448,192,7826,1,0,0:0:0:0:
192,192,7971,1,0,0:0:0:0:
320,192,8115,1,0,0:0:0:0:
448,192,8115,1,0,0:0:0:0:
64,192,8260,1,0,0:0:0:0:
448,192,8405,1,0,0:0:0:0:
192,192,8550,1,0,0:0:0:0:
448,192,8695,1,0,0:0:0:0:
320,192,8840,1,0,0:0:0:0:
192,192,8985,128,0,9275:0:0:0:0:
320,192,9275,1,0,0:0:0:0:
64,192,9275,128,0,9565:0:0:0:0:
448,192,9565,128,0,9782:0:0:0:0:
192,192,9782,128,0,9999:0:0:0:0:
320,192,9999,128,0,10434:0:0:0:0:
64,192,10434,1,0,0:0:0:0:
448,192,10434,128,0,11014:0:0:0:0:
64,192,11014,128,0,11304:0:0:0:0:
320,192,11304,128,0,11594:0:0:0:0:
64,192,11594,1,0,0:0:0:0:
448,192,11594,1,0,0:0:0:0:
192,192,11739,1,0,0:0:0:0:
320,192,11956,1,0,0:0:0:0:
448,192,12101,1,0,0:0:0:0:
64,192,12173,1,0,0:0:0:0:
192,192,12318,1,0,0:0:0:0:
448,192,12463,1,0,0:0:0:0:
64,192,12608,1,0,0:0:0:0:
192,192,12753,1,0,0:0:0:0:
320,192,12753,1,0,0:0:0:0:
448,192,12898,1,0,0:0:0:0:
64,192,13043,1,0,0:0:0:0:
320,192,13188,1,0,0:0:0:0:
192,192,13333,1,0,0:0:0:0:
64,192,13478,1,0,0:0:0:0:
448,192,13623,1,0,0:0:0:0:
320,192,13768,1,0,0:0:0:0:
448,192,13913,1,0,0:0:0:0:
192,192,13913,128,0,14492:0:0:0:0:
448,192,14492,128,0,15072:0:0:0:0:
320,192,15072,1,0,0:0:0:0:
64,192,15072,128,0,15652:0:0:0:0:
448,192,15652,1,0,0:0:0:0:
192,192,15942,1,0,0:0:0:0:
320,192,16086,1,0,0:0:0:0:
320,192,16231,1,0,0:0:0:0:
192,192,16231,1,0,0:0:0:0:
64,192,16231,1,0,0:0:0:0:
448,192,16231,1,0,0:0:0:0:
64,192,16521,1,0,0:0:0:0:
448,192,16594,1,0,0:0:0:0:
192,192,16666,1,0,0:0:0:0:
448,192,16739,1,0,0:0:0:0:
320,192,16811,1,0,0:0:0:0:
64,192,16811,1,0,0:0:0:0:
192,192,16811,1,0,0:0:0:0:
192,192,16956,1,0,0:0:0:0:
448,192,16956,1,0,0:0:0:0:
448,192,17101,1,0,0:0:0:0:
64,192,17101,1,0,0:0:0:0:
320,192,17246,1,0,0:0:0:0:
192,192,17246,1,0,0:0:0:0:
192,192,17391,1,0,0:0:0:0:
64,192,17391,1,0,0:0:0:0:
320,192,17536,1,0,0:0:0:0:
64,192,17536,1,0,0:0:0:0:
448,192,17681,1,0,0:0:0:0:
320,192,17681,1,0,0:0:0:0:
192,192,17826,1,0,0:0:0:0:
64,192,17826,1,0,0:0:0:0:
448,192,17971,1,0,0:0:0:0:
320,192,17971,1,0,0:0:0:0:
64,192,17971,1,0,0:0:0:0:
192,192,17971,1,0,0:0:0:0:
192,192,18115,1,0,0:0:0:0:
448,192,18115,1,0,0:0:0:0:
64,192,18260,1,0,0:0:0:0:
448,192,18260,1,0,0:0:0:0:
320,192,18260,1,0,0:0:0:0:
320,192,18405,1,0,0:0:0:0:
192,192,18405,1,0,0:0:0:0:
192,192,18550,1,0,0:0:0:0:
64,192,18550,1,0,0:0:0:0:
448,192,18550,1,0,0:0:0:0:
320,192,18695,1,0,0:0:0:0:
192,192,18695,1,0,0:0:0:0:
64,192,18840,1,0,0:0:0:0:
192,192,18840,1,0,0:0:0:0:
448,192,18985,1,0,0:0:0:0:
320,192,18985,1,0,0:0:0:0:
192,192,19130,1,0,0:0:0:0:
64,192,19130,1,0,0:0:0:0:
320,192,19275,1,0,0:0:0:0:
192,192,19275,1,0,0:0:0:0:
64,192,19420,1,0,0:0:0:0:
448,192,19420,1,0,0:0:0:0:
192,192,19565,1,0,0:0:0:0:
320,192,19565,1,0,0:0:0:0:
448,192,19710,1,0,0:0:0:0:
320,192,19710,1,0,0:0:0:0:
192,192,19855,1,0,0:0:0:0:
64,192,19855,1,0,0:0:0:0:
320,192,19999,1,0,0:0:0:0:
192,192,19999,1,0,0:0:0:0:
448,192,20144,1,0,0:0:0:0:
64,192,20144,1,0,0:0:0:0:
192,192,20289,1,0,0:0:0:0:
448,192,20289,1,0,0:0:0:0:
64,192,20434,1,0,0:0:0:0:
320,192,20434,1,0,0:0:0:0:
320,192,20579,1,0,0:0:0:0:
192,192,20579,1,0,0:0:0:0:
448,192,20724,1,0,0:0:0:0:
192,192,20724,1,0,0:0:0:0:
320,192,20869,1,0,0:0:0:0:
448,192,20869,1,0,0:0:0:0:
320,192,21014,1,0,0:0:0:0:
64,192,21014,1,0,0:0:0:0:
192,192,21159,1,0,0:0:0:0:
448,192,21159,1,0,0:0:0:0:
320,192,21231,1,0,0:0:0:0:
64,192,21304,1,0,0:0:0:0:
448,192,21304,1,0,0:0:0:0:
192,192,21376,1,0,0:0:0:0:
64,192,21449,1,0,0:0:0:0:
320,192,21449,1,0,0:0:0:0:
192,192,21594,1,0,0:0:0:0:
448,192,21594,1,0,0:0:0:0:
320,192,21739,1,0,0:0:0:0:
64,192,21739,1,0,0:0:0:0:
448,192,21739,1,0,0:0:0:0:
192,192,21884,1,0,0:0:0:0:
448,192,21884,1,0,0:0:0:0:
320,192,22028,1,0,0:0:0:0:
64,192,22028,1,0,0:0:0:0:
192,192,22028,1,0,0:0:0:0:
448,192,22173,1,0,0:0:0:0:
192,192,22173,1,0,0:0:0:0:
448,192,22318,1,0,0:0:0:0:
64,192,22318,1,0,0:0:0:0:
320,192,22318,1,0,0:0:0:0:
320,192,22463,1,0,0:0:0:0:
192,192,22463,1,0,0:0:0:0:
192,192,22608,1,0,0:0:0:0:
64,192,22608,1,0,0:0:0:0:
448,192,22608,1,0,0:0:0:0:
64,192,22753,1,0,0:0:0:0:
192,192,22753,1,0,0:0:0:0:
320,192,22826,1,0,0:0:0:0:
448,192,22826,1,0,0:0:0:0:
192,192,22898,1,0,0:0:0:0:
64,192,22898,1,0,0:0:0:0:
448,192,23043,1,0,0:0:0:0:
320,192,23079,1,0,0:0:0:0:
192,192,23115,1,0,0:0:0:0:
64,192,23152,1,0,0:0:0:0:
448,192,23188,1,0,0:0:0:0:
320,192,23188,1,0,0:0:0:0:
320,192,23333,1,0,0:0:0:0:
192,192,23333,1,0,0:0:0:0:
448,192,23478,1,0,0:0:0:0:
64,192,23478,1,0,0:0:0:0:
192,192,23623,1,0,0:0:0:0:
64,192,23623,1,0,0:0:0:0:
320,192,23768,1,0,0:0:0:0:
448,192,23768,1,0,0:0:0:0:
64,192,23913,1,0,0:0:0:0:
448,192,23913,1,0,0:0:0:0:
192,192,24057,1,0,0:0:0:0:
320,192,24057,1,0,0:0:0:0:
448,192,24202,1,0,0:0:0:0:
320,192,24202,1,0,0:0:0:0:
64,192,24347,1,0,0:0:0:0:
192,192,24347,1,0,0:0:0:0:
448,192,24492,1,0,0:0:0:0:
192,192,24492,1,0,0:0:0:0:
320,192,24637,1,0,0:0:0:0:
64,192,24637,1,0,0:0:0:0:
192,192,24782,1,0,0:0:0:0:
448,192,24782,1,0,0:0:0:0:
448,192,24927,1,0,0:0:0:0:
320,192,24927,1,0,0:0:0:0:
64,192,25072,1,0,0:0:0:0:
192,192,25072,1,0,0:0:0:0:
320,192,25217,1,0,0:0:0:0:
448,192,25217,1,0,0:0:0:0:
192,192,25362,1,0,0:0:0:0:
448,192,25362,1,0,0:0:0:0:
64,192,25507,1,0,0:0:0:0:
320,192,25507,1,0,0:0:0:0:
448,192,25652,1,0,0:0:0:0:
192,192,25652,1,0,0:0:0:0:
192,192,25797,1,0,0:0:0:0:
64,192,25797,1,0,0:0:0:0:
320,192,25869,1,0,0:0:0:0:
64,192,25942,1,0,0:0:0:0:
448,192,25942,1,0,0:0:0:0:
192,192,26014,1,0,0:0:0:0:
320,192,26086,1,0,0:0:0:0:
448,192,26086,1,0,0:0:0:0:
192,192,26231,1,0,0:0:0:0:
64,192,26231,1,0,0:0:0:0:
192,192,26376,1,0,0:0:0:0:
320,192,26376,1,0,0:0:0:0:
448,192,26376,1,0,0:0:0:0:
448,192,26521,1,0,0:0:0:0:
64,192,26521,1,0,0:0:0:0:
64,192,26666,1,0,0:0:0:0:
320,192,26666,1,0,0:0:0:0:
192,192,26666,1,0,0:0:0:0:
320,192,26811,1,0,0:0:0:0:
192,192,26811,1,0,0:0:0:0:
192,192,26956,1,0,0:0:0:0:
448,192,26956,1,0,0:0:0:0:
64,192,26956,1,0,0:0:0:0:
320,192,27101,1,0,0:0:0:0:
448,192,27101,1,0,0:0:0:0:
64,192,27246,1,0,0:0:0:0:
192,192,27246,1,0,0:0:0:0:
448,192,27246,1,0,0:0:0:0:
320,192,27391,128,0,27826:0:0:0:0:
64,192,27391,1,0,0:0:0:0:
192,192,27826,1,0,0:0:0:0:
64,192,27826,1,0,0:0:0:0:
448,192,27826,1,0,0:0:0:0:
320,192,27971,1,0,0:0:0:0:
448,192,27971,1,0,0:0:0:0:
64,192,28115,1,0,0:0:0:0:
192,192,28115,1,0,0:0:0:0:
448,192,28260,1,0,0:0:0:0:
64,192,28260,1,0,0:0:0:0:
192,192,28405,1,0,0:0:0:0:
320,192,28405,1,0,0:0:0:0:
448,192,28550,1,0,0:0:0:0:
320,192,28550,1,0,0:0:0:0:
64,192,28695,1,0,0:0:0:0:
192,192,28695,1,0,0:0:0:0:
320,192,28840,1,0,0:0:0:0:
192,192,28840,1,0,0:0:0:0:
64,192,28985,1,0,0:0:0:0:
448,192,28985,1,0,0:0:0:0:
192,192,29130,1,0,0:0:0:0:
320,192,29130,1,0,0:0:0:0:
320,192,29275,1,0,0:0:0:0:
448,192,29275,1,0,0:0:0:0:
64,192,29420,1,0,0:0:0:0:
192,192,29420,1,0,0:0:0:0:
192,192,29565,1,0,0:0:0:0:
320,192,29565,1,0,0:0:0:0:
448,192,29710,1,0,0:0:0:0:
64,192,29710,1,0,0:0:0:0:
192,192,29855,1,0,0:0:0:0:
320,192,29855,1,0,0:0:0:0:
64,192,29999,1,0,0:0:0:0:
192,192,29999,1,0,0:0:0:0:
320,192,30144,1,0,0:0:0:0:
448,192,30144,1,0,0:0:0:0:
192,192,30289,1,0,0:0:0:0:
320,192,30289,1,0,0:0:0:0:
64,192,30434,1,0,0:0:0:0:
448,192,30434,1,0,0:0:0:0:
192,192,30507,1,0,0:0:0:0:
320,192,30579,1,0,0:0:0:0:
448,192,30579,1,0,0:0:0:0:
64,192,30652,1,0,0:0:0:0:
448,192,30724,1,0,0:0:0:0:
192,192,30724,1,0,0:0:0:0:
64,192,30869,1,0,0:0:0:0:
320,192,30869,1,0,0:0:0:0:
320,192,31014,1,0,0:0:0:0:
192,192,31014,1,0,0:0:0:0:
448,192,31014,1,0,0:0:0:0:
448,192,31159,1,0,0:0:0:0:
64,192,31159,1,0,0:0:0:0:
192,192,31304,1,0,0:0:0:0:
64,192,31304,1,0,0:0:0:0:
448,192,31304,1,0,0:0:0:0:
320,192,31449,1,0,0:0:0:0:
192,192,31449,1,0,0:0:0:0:
64,192,31594,1,0,0:0:0:0:
448,192,31594,1,0,0:0:0:0:
320,192,31594,1,0,0:0:0:0:
320,192,31739,1,0,0:0:0:0:
192,192,31739,1,0,0:0:0:0:
192,192,31884,1,0,0:0:0:0:
64,192,31884,1,0,0:0:0:0:
448,192,31884,128,0,32173:0:0:0:0:
64,192,32173,1,0,0:0:0:0:
320,192,32173,1,0,0:0:0:0:
192,192,32173,128,0,32463:0:0:0:0:
320,192,32463,1,0,0:0:0:0:
448,192,32463,1,0,0:0:0:0:
64,192,32608,1,0,0:0:0:0:
320,192,32608,1,0,0:0:0:0:
448,192,32753,1,0,0:0:0:0:
192,192,32753,1,0,0:0:0:0:
64,192,32898,1,0,0:0:0:0:
448,192,32898,1,0,0:0:0:0:
320,192,33043,1,0,0:0:0:0:
192,192,33043,1,0,0:0:0:0:
448,192,33188,1,0,0:0:0:0:
64,192,33188,1,0,0:0:0:0:
192,192,33333,1,0,0:0:0:0:
320,192,33333,1,0,0:0:0:0:
64,192,33478,1,0,0:0:0:0:
320,192,33478,1,0,0:0:0:0:
192,192,33623,1,0,0:0:0:0:
448,192,33623,1,0,0:0:0:0:
320,192,33768,1,0,0:0:0:0:
448,192,33768,1,0,0:0:0:0:
192,192,33913,1,0,0:0:0:0:
64,192,33913,1,0,0:0:0:0:
320,192,34057,1,0,0:0:0:0:
192,192,34057,1,0,0:0:0:0:
64,192,34202,1,0,0:0:0:0:
448,192,34202,1,0,0:0:0:0:
320,192,34347,1,0,0:0:0:0:
192,192,34347,1,0,0:0:0:0:
192,192,34492,1,0,0:0:0:0:
64,192,34492,1,0,0:0:0:0:
448,192,34637,1,0,0:0:0:0:
320,192,34637,1,0,0:0:0:0:
64,192,34782,1,0,0:0:0:0:
192,192,34782,1,0,0:0:0:0:
192,192,34927,1,0,0:0:0:0:
320,192,34927,1,0,0:0:0:0:
448,192,35072,1,0,0:0:0:0:
64,192,35072,1,0,0:0:0:0:
192,192,35144,1,0,0:0:0:0:
320,192,35217,1,0,0:0:0:0:
448,192,35217,1,0,0:0:0:0:
64,192,35289,1,0,0:0:0:0:
448,192,35362,1,0,0:0:0:0:
192,192,35362,1,0,0:0:0:0:
64,192,35507,1,0,0:0:0:0:
320,192,35507,1,0,0:0:0:0:
320,192,35652,1,0,0:0:0:0:
192,192,35652,1,0,0:0:0:0:
448,192,35652,1,0,0:0:0:0:
192,192,35797,1,0,0:0:0:0:
448,192,35797,1,0,0:0:0:0:
192,192,35942,1,0,0:0:0:0:
64,192,35942,1,0,0:0:0:0:
448,192,35978,1,0,0:0:0:0:
320,192,36014,1,0,0:0:0:0:
192,192,36050,1,0,0:0:0:0:
448,192,36086,1,0,0:0:0:0:
64,192,36123,1,0,0:0:0:0:
192,192,36159,1,0,0:0:0:0:
320,192,36195,1,0,0:0:0:0:
64,192,36231,1,0,0:0:0:0:
448,192,36268,1,0,0:0:0:0:
320,192,36304,1,0,0:0:0:0:
192,192,36340,1,0,0:0:0:0:
64,192,36376,1,0,0:0:0:0:
448,192,36413,1,0,0:0:0:0:
320,192,36449,1,0,0:0:0:0:
192,192,36485,1,0,0:0:0:0:
64,192,36521,1,0,0:0:0:0:
448,192,36521,1,0,0:0:0:0:
192,192,36666,1,0,0:0:0:0:
64,192,36811,1,0,0:0:0:0:
448,192,36811,1,0,0:0:0:0:
320,192,36956,1,0,0:0:0:0:
64,192,37101,1,0,0:0:0:0:
448,192,37101,1,0,0:0:0:0:
192,192,37101,1,0,0:0:0:0:
192,192,37246,1,0,0:0:0:0:
64,192,37246,1,0,0:0:0:0:
192,192,37391,1,0,0:0:0:0:
448,192,37391,1,0,0:0:0:0:
64,192,37536,1,0,0:0:0:0:
320,192,37536,1,0,0:0:0:0:
320,192,37681,1,0,0:0:0:0:
192,192,37681,1,0,0:0:0:0:
192,192,37826,1,0,0:0:0:0:
448,192,37826,1,0,0:0:0:0:
448,192,37971,1,0,0:0:0:0:
64,192,37971,1,0,0:0:0:0:
192,192,38115,1,0,0:0:0:0:
320,192,38115,1,0,0:0:0:0:
320,192,38260,1,0,0:0:0:0:
64,192,38260,1,0,0:0:0:0:
448,192,38260,1,0,0:0:0:0:
448,192,38405,1,0,0:0:0:0:
192,192,38405,1,0,0:0:0:0:
320,192,38550,1,0,0:0:0:0:
192,192,38550,1,0,0:0:0:0:
64,192,38695,1,0,0:0:0:0:
448,192,38695,1,0,0:0:0:0:
192,192,38840,1,0,0:0:0:0:
64,192,38840,1,0,0:0:0:0:
320,192,38840,1,0,0:0:0:0:
448,192,38985,1,0,0:0:0:0:
320,192,38985,1,0,0:0:0:0:
192,192,39057,1,0,0:0:0:0:
64,192,39057,1,0,0:0:0:0:
320,192,39130,1,0,0:0:0:0:
448,192,39130,1,0,0:0:0:0:
64,192,39275,1,0,0:0:0:0:
192,192,39311,1,0,0:0:0:0:
448,192,39347,1,0,0:0:0:0:
320,192,39384,1,0,0:0:0:0:
192,192,39420,1,0,0:0:0:0:
64,192,39420,1,0,0:0:0:0:
320,192,39565,1,0,0:0:0:0:
192,192,39565,1,0,0:0:0:0:
448,192,39710,1,0,0:0:0:0:
64,192,39710,1,0,0:0:0:0:
320,192,39782,1,0,0:0:0:0:
192,192,39855,1,0,0:0:0:0:
448,192,39855,1,0,0:0:0:0:
320,192,39927,1,0,0:0:0:0:
64,192,39999,1,0,0:0:0:0:
192,192,39999,1,0,0:0:0:0:
192,192,40144,1,0,0:0:0:0:
320,192,40144,1,0,0:0:0:0:
320,192,40289,1,0,0:0:0:0:
448,192,40289,1,0,0:0:0:0:
64,192,40289,1,0,0:0:0:0:
64,192,40434,1,0,0:0:0:0:
192,192,40434,1,0,0:0:0:0:
448,192,40579,1,0,0:0:0:0:
320,192,40579,1,0,0:0:0:0:
192,192,40579,1,0,0:0:0:0:
192,192,40724,1,0,0:0:0:0:
448,192,40724,1,0,0:0:0:0:
64,192,40869,1,0,0:0:0:0:
320,192,40869,1,0,0:0:0:0:
448,192,40869,1,0,0:0:0:0:
192,192,41014,1,0,0:0:0:0:
448,192,41014,1,0,0:0:0:0:
192,192,41159,1,0,0:0:0:0:
320,192,41159,1,0,0:0:0:0:
64,192,41159,128,0,41449:0:0:0:0:
448,192,41449,1,0,0:0:0:0:
320,192,41485,1,0,0:0:0:0:
192,192,41521,1,0,0:0:0:0:
64,192,41557,1,0,0:0:0:0:
448,192,41594,1,0,0:0:0:0:
192,192,41630,1,0,0:0:0:0:
320,192,41666,1,0,0:0:0:0:
448,192,41702,1,0,0:0:0:0:
192,192,41739,1,0,0:0:0:0:
64,192,41739,1,0,0:0:0:0:
192,192,41884,1,0,0:0:0:0:
320,192,41884,1,0,0:0:0:0:
320,192,42028,1,0,0:0:0:0:
448,192,42028,1,0,0:0:0:0:
64,192,42173,1,0,0:0:0:0:
192,192,42173,1,0,0:0:0:0:
320,192,42318,1,0,0:0:0:0:
448,192,42318,1,0,0:0:0:0:
64,192,42318,1,0,0:0:0:0:
192,192,42463,1,0,0:0:0:0:
448,192,42463,1,0,0:0:0:0:
192,192,42608,1,0,0:0:0:0:
320,192,42608,1,0,0:0:0:0:
320,192,42753,1,0,0:0:0:0:
448,192,42753,1,0,0:0:0:0:
192,192,42898,1,0,0:0:0:0:
64,192,42898,1,0,0:0:0:0:
448,192,42898,1,0,0:0:0:0:
320,192,43043,1,0,0:0:0:0:
192,192,43043,1,0,0:0:0:0:
448,192,43188,1,0,0:0:0:0:
320,192,43188,1,0,0:0:0:0:
64,192,43333,1,0,0:0:0:0:
192,192,43333,1,0,0:0:0:0:
320,192,43478,1,0,0:0:0:0:
448,192,43478,1,0,0:0:0:0:
64,192,43550,1,0,0:0:0:0:
192,192,43550,1,0,0:0:0:0:
448,192,43623,1,0,0:0:0:0:
320,192,43623,1,0,0:0:0:0:
64,192,43695,1,0,0:0:0:0:
192,192,43695,1,0,0:0:0:0:
448,192,43768,1,0,0:0:0:0:
320,192,43768,1,0,0:0:0:0:
192,192,43840,1,0,0:0:0:0:
64,192,43840,1,0,0:0:0:0:
448,192,43913,1,0,0:0:0:0:
320,192,43913,1,0,0:0:0:0:
192,192,43985,1,0,0:0:0:0:
64,192,43985,1,0,0:0:0:0:
320,192,44057,1,0,0:0:0:0:
448,192,44057,1,0,0:0:0:0:
320,192,44202,1,0,0:0:0:0:
192,192,44202,1,0,0:0:0:0:
192,192,44347,1,0,0:0:0:0:
448,192,44347,1,0,0:0:0:0:
320,192,44420,1,0,0:0:0:0:
192,192,44492,1,0,0:0:0:0:
64,192,44492,1,0,0:0:0:0:
448,192,44565,1,0,0:0:0:0:
64,192,44637,1,0,0:0:0:0:
320,192,44637,1,0,0:0:0:0:
192,192,44782,1,0,0:0:0:0:
320,192,44782,1,0,0:0:0:0:
448,192,44927,1,0,0:0:0:0:
64,192,44927,1,0,0:0:0:0:
192,192,44927,1,0,0:0:0:0:
192,192,45072,1,0,0:0:0:0:
448,192,45072,1,0,0:0:0:0:
64,192,45217,1,0,0:0:0:0:
320,192,45217,1,0,0:0:0:0:
448,192,45217,1,0,0:0:0:0:
448,192,45362,1,0,0:0:0:0:
192,192,45398,1,0,0:0:0:0:
320,192,45434,1,0,0:0:0:0:
64,192,45471,1,0,0:0:0:0:
192,192,45507,1,0,0:0:0:0:
448,192,45507,1,0,0:0:0:0:
64,192,45652,1,0,0:0:0:0:
320,192,45688,1,0,0:0:0:0:
192,192,45724,1,0,0:0:0:0:
448,192,45760,1,0,0:0:0:0:
320,192,45797,1,0,0:0:0:0:
64,192,45797,1,0,0:0:0:0:
64,192,45942,1,0,0:0:0:0:
448,192,45978,1,0,0:0:0:0:
192,192,46014,1,0,0:0:0:0:
320,192,46050,1,0,0:0:0:0:
64,192,46086,1,0,0:0:0:0:
448,192,46086,1,0,0:0:0:0:
448,192,46231,1,0,0:0:0:0:
64,192,46268,1,0,0:0:0:0:
320,192,46304,1,0,0:0:0:0:
192,192,46340,1,0,0:0:0:0:
448,192,46376,1,0,0:0:0:0:
64,192,46376,1,0,0:0:0:0:
192,192,46521,1,0,0:0:0:0:
320,192,46521,1,0,0:0:0:0:
64,192,46666,1,0,0:0:0:0:
192,192,46666,1,0,0:0:0:0:
448,192,46811,1,0,0:0:0:0:
320,192,46811,1,0,0:0:0:0:
448,192,46956,1,0,0:0:0:0:
64,192,46956,1,0,0:0:0:0:
192,192,47101,1,0,0:0:0:0:
320,192,47101,1,0,0:0:0:0:
448,192,47246,1,0,0:0:0:0:
192,192,47246,1,0,0:0:0:0:
64,192,47391,1,0,0:0:0:0:
320,192,47391,1,0,0:0:0:0:
448,192,47536,1,0,0:0:0:0:
64,192,47536,1,0,0:0:0:0:
192,192,47536,1,0,0:0:0:0:
320,192,47681,1,0,0:0:0:0:
448,192,47681,1,0,0:0:0:0:
320,192,47826,1,0,0:0:0:0:
64,192,47826,1,0,0:0:0:0:
192,192,47971,1,0,0:0:0:0:
448,192,47971,1,0,0:0:0:0:
320,192,48115,1,0,0:0:0:0:
64,192,48115,1,0,0:0:0:0:
192,192,48115,128,0,48405:0:0:0:0:
64,192,48405,1,0,0:0:0:0:
448,192,48405,1,0,0:0:0:0:
320,192,48405,128,0,48695:0:0:0:0:
192,192,48695,1,0,0:0:0:0:
448,192,48695,1,0,0:0:0:0:
64,192,48695,1,0,0:0:0:0:
320,192,48840,1,0,0:0:0:0:
64,192,48840,1,0,0:0:0:0:
192,192,48985,1,0,0:0:0:0:
320,192,48985,1,0,0:0:0:0:
448,192,49057,1,0,0:0:0:0:
64,192,49130,1,0,0:0:0:0:
320,192,49130,1,0,0:0:0:0:
192,192,49202,1,0,0:0:0:0:
320,192,49275,1,0,0:0:0:0:
448,192,49275,1,0,0:0:0:0:
64,192,49420,1,0,0:0:0:0:
192,192,49420,1,0,0:0:0:0:
448,192,49565,1,0,0:0:0:0:
320,192,49565,1,0,0:0:0:0:
64,192,49565,1,0,0:0:0:0:
320,192,49710,1,0,0:0:0:0:
192,192,49710,1,0,0:0:0:0:
64,192,49855,1,0,0:0:0:0:
192,192,49855,1,0,0:0:0:0:
448,192,49855,1,0,0:0:0:0:
448,192,49999,1,0,0:0:0:0:
320,192,49999,1,0,0:0:0:0:
192,192,50144,1,0,0:0:0:0:
64,192,50144,1,0,0:0:0:0:
320,192,50144,1,0,0:0:0:0:
448,192,50289,1,0,0:0:0:0:
320,192,50289,1,0,0:0:0:0:
64,192,50434,1,0,0:0:0:0:
192,192,50471,1,0,0:0:0:0:
448,192,50507,1,0,0:0:0:0:
320,192,50543,1,0,0:0:0:0:
64,192,50579,1,0,0:0:0:0:
192,192,50615,1,0,0:0:0:0:
448,192,50652,1,0,0:0:0:0:
320,192,50688,1,0,0:0:0:0:
64,192,50724,1,0,0:0:0:0:
192,192,50760,1,0,0:0:0:0:
320,192,50797,1,0,0:0:0:0:
448,192,50833,1,0,0:0:0:0:
64,192,50869,1,0,0:0:0:0:
192,192,50905,1,0,0:0:0:0:
320,192,50942,1,0,0:0:0:0:
448,192,50978,1,0,0:0:0:0:
64,192,51014,1,0,0:0:0:0:
192,192,51014,1,0,0:0:0:0:
192,192,51159,1,0,0:0:0:0:
448,192,51159,1,0,0:0:0:0:
320,192,51304,1,0,0:0:0:0:
64,192,51304,1,0,0:0:0:0:
192,192,51449,1,0,0:0:0:0:
320,192,51449,1,0,0:0:0:0:
448,192,51594,1,0,0:0:0:0:
64,192,51594,1,0,0:0:0:0:
192,192,51594,1,0,0:0:0:0:
320,192,51739,1,0,0:0:0:0:
448,192,51739,1,0,0:0:0:0:
320,192,51884,1,0,0:0:0:0:
64,192,51884,1,0,0:0:0:0:
448,192,52028,1,0,0:0:0:0:
192,192,52028,1,0,0:0:0:0:
320,192,52173,1,0,0:0:0:0:
64,192,52173,1,0,0:0:0:0:
448,192,52173,1,0,0:0:0:0:
192,192,52318,1,0,0:0:0:0:
64,192,52318,1,0,0:0:0:0:
320,192,52463,1,0,0:0:0:0:
448,192,52463,1,0,0:0:0:0:
192,192,52608,1,0,0:0:0:0:
320,192,52608,1,0,0:0:0:0:
448,192,52753,1,0,0:0:0:0:
192,192,52753,1,0,0:0:0:0:
64,192,52753,1,0,0:0:0:0:
64,192,52898,1,0,0:0:0:0:
320,192,52898,1,0,0:0:0:0:
192,192,53043,1,0,0:0:0:0:
448,192,53043,1,0,0:0:0:0:
320,192,53188,1,0,0:0:0:0:
64,192,53188,1,0,0:0:0:0:
64,192,53333,5,0,0:0:0:0:
448,192,53333,1,0,0:0:0:0:
192,192,53333,128,0,53623:0:0:0:0:
64,192,53623,1,0,0:0:0:0:
320,192,53623,1,0,0:0:0:0:
448,192,53623,128,0,53913:0:0:0:0:
320,192,53768,1,0,0:0:0:0:
320,192,53913,1,0,0:0:0:0:
192,192,53913,1,0,0:0:0:0:
64,192,53913,128,0,54202:0:0:0:0:
448,192,54057,1,0,0:0:0:0:
320,192,54202,1,0,0:0:0:0:
448,192,54202,1,0,0:0:0:0:
192,192,54202,128,0,54492:0:0:0:0:
320,192,54347,1,0,0:0:0:0:
64,192,54492,1,0,0:0:0:0:
448,192,54492,1,0,0:0:0:0:
320,192,54528,1,0,0:0:0:0:
192,192,54565,1,0,0:0:0:0:
64,192,54601,1,0,0:0:0:0:
448,192,54637,1,0,0:0:0:0:
320,192,54673,1,0,0:0:0:0:
192,192,54710,1,0,0:0:0:0:
64,192,54746,1,0,0:0:0:0:
448,192,54782,1,0,0:0:0:0:
320,192,54818,1,0,0:0:0:0:
192,192,54855,1,0,0:0:0:0:
64,192,54891,1,0,0:0:0:0:
448,192,54927,1,0,0:0:0:0:
320,192,54963,1,0,0:0:0:0:
192,192,54999,1,0,0:0:0:0:
64,192,55036,1,0,0:0:0:0:
448,192,55072,1,0,0:0:0:0:
320,192,55072,1,0,0:0:0:0:
192,192,55217,1,0,0:0:0:0:
448,192,55362,1,0,0:0:0:0:
64,192,55362,1,0,0:0:0:0:
192,192,55362,1,0,0:0:0:0:
320,192,55507,1,0,0:0:0:0:
320,192,55652,1,0,0:0:0:0:
192,192,55652,1,0,0:0:0:0:
64,192,55652,1,0,0:0:0:0:
448,192,55652,128,0,56231:0:0:0:0:
192,192,56231,1,0,0:0:0:0:
64,192,56231,1,0,0:0:0:0:
320,192,56231,128,0,56811:0:0:0:0:
64,192,56811,1,0,0:0:0:0:
448,192,56811,1,0,0:0:0:0:
192,192,56811,128,0,57391:0:0:0:0:
320,192,57391,1,0,0:0:0:0:
448,192,57391,1,0,0:0:0:0:
64,192,57391,128,0,57971:0:0:0:0:
192,192,57971,1,0,0:0:0:0:
320,192,57971,1,0,0:0:0:0:
448,192,57971,128,0,58550:0:0:0:0:
192,192,58550,1,0,0:0:0:0:
64,192,58550,1,0,0:0:0:0:
320,192,58550,128,0,59130:0:0:0:0:
192,192,59130,128,0,59710:0:0:0:0:
64,192,59130,1,0,0:0:0:0:
448,192,59130,1,0,0:0:0:0:
448,192,59710,1,0,0:0:0:0:
64,192,59710,128,0,60289:0:0:0:0:
320,192,60289,1,0,0:0:0:0:
448,192,60289,128,0,60869:0:0:0:0:
64,192,60579,128,0,60869:0:0:0:0:
192,192,60869,1,0,0:0:0:0:
320,192,60869,128,0,61449:0:0:0:0:
448,192,61159,128,0,61449:0:0:0:0:
64,192,61449,1,0,0:0:0:0:
192,192,61449,128,0,62028:0:0:0:0:
320,192,61739,128,0,62028:0:0:0:0:
448,192,62028,128,0,64492:0:0:0:0:
64,192,62028,128,0,62608:0:0:0:0:
192,192,62318,128,0,62608:0:0:0:0:
320,192,62608,128,0,62753:0:0:0:0:
64,192,62898,128,0,63043:0:0:0:0:
64,192,63188,128,0,63333:0:0:0:0:
64,192,63478,128,0,63623:0:0:0:0:
320,192,63768,128,0,63913:0:0:0:0:
192,192,63913,128,0,64057:0:0:0:0:
64,192,64057,128,0,64202:0:0:0:0:
320,192,64057,128,0,64492:0:0:0:0:
192,192,64202,128,0,64347:0:0:0:0:
64,192,64347,128,0,64492:0:0:0:0:
192,192,64492,1,0,0:0:0:0:
320,192,64528,1,0,0:0:0:0:
448,192,64565,1,0,0:0:0:0:
64,192,64601,1,0,0:0:0:0:
192,192,64637,1,0,0:0:0:0:
448,192,64673,1,0,0:0:0:0:
320,192,64710,1,0,0:0:0:0:
64,192,64746,1,0,0:0:0:0:
192,192,64782,1,0,0:0:0:0:
448,192,64818,1,0,0:0:0:0:
320,192,64855,1,0,0:0:0:0:
192,192,64891,1,0,0:0:0:0:
64,192,64927,1,0,0:0:0:0:
448,192,64927,128,0,67246:0:0:0:0:
64,192,65362,1,0,0:0:0:0:
192,192,65507,1,0,0:0:0:0:
320,192,65797,1,0,0:0:0:0:
64,192,65942,1,0,0:0:0:0:
192,192,66231,1,0,0:0:0:0:
320,192,66376,1,0,0:0:0:0:
192,192,66666,1,0,0:0:0:0:
320,192,66956,1,0,0:0:0:0:
320,192,67246,1,0,0:0:0:0:
64,192,67246,128,0,69565:0:0:0:0:
192,192,67536,1,0,0:0:0:0:
448,192,67826,1,0,0:0:0:0:
320,192,68115,1,0,0:0:0:0:
448,192,68260,1,0,0:0:0:0:
320,192,68550,1,0,0:0:0:0:
192,192,68695,1,0,0:0:0:0:
320,192,68985,1,0,0:0:0:0:
448,192,69275,1,0,0:0:0:0:
192,192,69565,1,0,0:0:0:0:
320,192,69565,128,0,71884:0:0:0:0:
64,192,69855,1,0,0:0:0:0:
448,192,70144,1,0,0:0:0:0:
64,192,70434,1,0,0:0:0:0:
192,192,70579,1,0,0:0:0:0:
448,192,70869,1,0,0:0:0:0:
192,192,71014,1,0,0:0:0:0:
64,192,71304,1,0,0:0:0:0:
192,192,71449,1,0,0:0:0:0:
448,192,71594,1,0,0:0:0:0:
192,192,71739,1,0,0:0:0:0:
448,192,71884,1,0,0:0:0:0:
64,192,71884,128,0,74202:0:0:0:0:
192,192,72173,1,0,0:0:0:0:
320,192,72463,1,0,0:0:0:0:
448,192,72753,1,0,0:0:0:0:
192,192,72898,1,0,0:0:0:0:
448,192,73188,1,0,0:0:0:0:
320,192,73333,1,0,0:0:0:0:
192,192,73623,1,0,0:0:0:0:
448,192,73913,1,0,0:0:0:0:
320,192,74202,1,0,0:0:0:0:
192,192,74202,128,0,76521:0:0:0:0:
64,192,74492,1,0,0:0:0:0:
320,192,74782,1,0,0:0:0:0:
448,192,75072,1,0,0:0:0:0:
64,192,75217,1,0,0:0:0:0:
320,192,75507,1,0,0:0:0:0:
64,192,75652,1,0,0:0:0:0:
448,192,75942,1,0,0:0:0:0:
320,192,76231,1,0,0:0:0:0:
64,192,76521,1,0,0:0:0:0:
448,192,76521,128,0,78840:0:0:0:0:
320,192,76811,1,0,0:0:0:0:
64,192,77101,1,0,0:0:0:0:
192,192,77391,1,0,0:0:0:0:
320,192,77536,1,0,0:0:0:0:
64,192,77826,1,0,0:0:0:0:
320,192,77971,1,0,0:0:0:0:
192,192,78260,1,0,0:0:0:0:
320,192,78550,1,0,0:0:0:0:
64,192,78550,1,0,0:0:0:0:
320,192,78840,1,0,0:0:0:0:
192,192,78840,128,0,81159:0:0:0:0:
448,192,79130,1,0,0:0:0:0:
64,192,79420,1,0,0:0:0:0:
320,192,79710,1,0,0:0:0:0:
64,192,79855,1,0,0:0:0:0:
448,192,80144,1,0,0:0:0:0:
64,192,80289,1,0,0:0:0:0:
320,192,80289,1,0,0:0:0:0:
448,192,80579,1,0,0:0:0:0:
64,192,80579,1,0,0:0:0:0:
320,192,80869,1,0,0:0:0:0:
64,192,81159,1,0,0:0:0:0:
320,192,81159,128,0,83550:0:0:0:0:
192,192,81449,1,0,0:0:0:0:
448,192,81594,1,0,0:0:0:0:
64,192,82028,1,0,0:0:0:0:
448,192,82173,1,0,0:0:0:0:
192,192,82463,1,0,0:0:0:0:
64,192,82608,128,0,83550:0:0:0:0:
448,192,82608,1,0,0:0:0:0:
192,192,82898,1,0,0:0:0:0:
448,192,83188,1,0,0:0:0:0:
192,192,83550,1,0,0:0:0:0:
448,192,83550,128,0,85289:0:0:0:0:
320,192,85289,128,0,85579:0:0:0:0:
192,192,85579,128,0,85869:0:0:0:0:
448,192,85869,1,0,0:0:0:0:
64,192,85869,128,0,88188:0:0:0:0:
320,192,88188,128,0,89927:0:0:0:0:
192,192,88188,1,0,0:0:0:0:
448,192,89927,128,0,90217:0:0:0:0:
192,192,90217,128,0,90507:0:0:0:0:
448,192,90507,1,0,0:0:0:0:
64,192,90507,128,0,92536:0:0:0:0:
448,192,92536,128,0,92753:0:0:0:0:
320,192,92753,128,0,94492:0:0:0:0:
64,192,92753,1,0,0:0:0:0:
192,192,94492,128,0,94782:0:0:0:0:
64,192,94782,128,0,95072:0:0:0:0:
448,192,95072,128,0,97463:0:0:0:0:
320,192,95072,1,0,0:0:0:0:
192,192,97463,128,0,99202:0:0:0:0:
320,192,97463,1,0,0:0:0:0:
320,192,99202,128,0,99420:0:0:0:0:
64,192,99420,128,0,99710:0:0:0:0:
448,192,99710,128,0,105797:0:0:0:0:
192,192,99710,1,0,0:0:0:0:
320,192,99710,128,0,101159:0:0:0:0:
192,192,101159,128,0,102028:0:0:0:0:
64,192,101376,128,0,102028:0:0:0:0:
320,192,101594,128,0,102028:0:0:0:0:
64,192,105797,128,0,106231:0:0:0:0:
192,192,106666,1,0,0:0:0:0:
448,192,106666,1,0,0:0:0:0:
64,192,106666,128,0,106811:0:0:0:0:
320,192,106811,1,0,0:0:0:0:
448,192,106811,128,0,106956:0:0:0:0:
192,192,106956,1,0,0:0:0:0:
64,192,106956,128,0,107101:0:0:0:0:
448,192,107101,1,0,0:0:0:0:
320,192,107101,128,0,107246:0:0:0:0:
64,192,107246,1,0,0:0:0:0:
192,192,107246,128,0,107391:0:0:0:0:
320,192,107391,1,0,0:0:0:0:
448,192,107391,128,0,107536:0:0:0:0:
192,192,107536,1,0,0:0:0:0:
64,192,107536,128,0,107681:0:0:0:0:
448,192,107681,1,0,0:0:0:0:
320,192,107681,128,0,107826:0:0:0:0:
192,192,107826,1,0,0:0:0:0:
64,192,107826,128,0,107971:0:0:0:0:
320,192,107971,1,0,0:0:0:0:
448,192,107971,128,0,108115:0:0:0:0:
64,192,108115,1,0,0:0:0:0:
320,192,108115,128,0,108260:0:0:0:0:
192,192,108260,128,0,108405:0:0:0:0:
64,192,108405,1,0,0:0:0:0:
448,192,108405,128,0,108550:0:0:0:0:
320,192,108550,1,0,0:0:0:0:
64,192,108550,128,0,108695:0:0:0:0:
192,192,108695,1,0,0:0:0:0:
448,192,108695,128,0,108840:0:0:0:0:
64,192,108840,1,0,0:0:0:0:
192,192,108840,128,0,108985:0:0:0:0:
320,192,108985,1,0,0:0:0:0:
448,192,108985,128,0,109130:0:0:0:0:
192,192,109130,128,0,109275:0:0:0:0:
64,192,109130,1,0,0:0:0:0:
320,192,109275,128,0,109420:0:0:0:0:
448,192,109275,1,0,0:0:0:0:
64,192,109420,128,0,109565:0:0:0:0:
192,192,109420,1,0,0:0:0:0:
448,192,109565,128,0,109710:0:0:0:0:
320,192,109565,1,0,0:0:0:0:
192,192,109710,128,0,109855:0:0:0:0:
64,192,109710,1,0,0:0:0:0:
320,192,109855,128,0,109999:0:0:0:0:
448,192,109855,1,0,0:0:0:0:
64,192,109999,128,0,110144:0:0:0:0:
192,192,109999,1,0,0:0:0:0:
320,192,110144,1,0,0:0:0:0:
448,192,110144,128,0,110289:0:0:0:0:
192,192,110289,128,0,110434:0:0:0:0:
64,192,110289,1,0,0:0:0:0:
320,192,110434,1,0,0:0:0:0:
448,192,110434,128,0,110579:0:0:0:0:
192,192,110579,1,0,0:0:0:0:
64,192,110579,128,0,110724:0:0:0:0:
192,192,110724,128,0,110869:0:0:0:0:
448,192,110724,1,0,0:0:0:0:
64,192,110869,1,0,0:0:0:0:
320,192,110869,128,0,111014:0:0:0:0:
448,192,111014,128,0,111159:0:0:0:0:
192,192,111014,1,0,0:0:0:0:
64,192,111159,128,0,111304:0:0:0:0:
320,192,111159,1,0,0:0:0:0:
192,192,111304,1,0,0:0:0:0:
448,192,111304,128,0,111449:0:0:0:0:
64,192,111449,1,0,0:0:0:0:
320,192,111449,128,0,111594:0:0:0:0:
448,192,111594,1,0,0:0:0:0:
192,192,111594,128,0,111739:0:0:0:0:
64,192,111739,1,0,0:0:0:0:
320,192,111739,128,0,111884:0:0:0:0:
448,192,111884,1,0,0:0:0:0:
64,192,111884,128,0,112028:0:0:0:0:
192,192,112028,1,0,0:0:0:0:
448,192,112028,128,0,112173:0:0:0:0:
64,192,112173,1,0,0:0:0:0:
320,192,112173,128,0,112318:0:0:0:0:
192,192,112318,1,0,0:0:0:0:
448,192,112318,128,0,112463:0:0:0:0:
320,192,112463,1,0,0:0:0:0:
64,192,112463,128,0,112608:0:0:0:0:
448,192,112608,1,0,0:0:0:0:
192,192,112608,128,0,112753:0:0:0:0:
64,192,112753,1,0,0:0:0:0:
320,192,112753,128,0,112898:0:0:0:0:
448,192,112898,1,0,0:0:0:0:
192,192,112898,128,0,113043:0:0:0:0:
64,192,113043,1,0,0:0:0:0:
448,192,113043,128,0,113188:0:0:0:0:
320,192,113188,1,0,0:0:0:0:
64,192,113188,128,0,113333:0:0:0:0:
192,192,113333,1,0,0:0:0:0:
448,192,113333,128,0,113478:0:0:0:0:
64,192,113478,1,0,0:0:0:0:
192,192,113478,128,0,113623:0:0:0:0:
448,192,113623,1,0,0:0:0:0:
320,192,113623,128,0,113768:0:0:0:0:
192,192,113768,1,0,0:0:0:0:
64,192,113768,128,0,113913:0:0:0:0:
320,192,113913,1,0,0:0:0:0:
448,192,113913,128,0,114057:0:0:0:0:
64,192,114057,1,0,0:0:0:0:
192,192,114057,128,0,114202:0:0:0:0:
448,192,114202,1,0,0:0:0:0:
320,192,114202,128,0,114347:0:0:0:0:
192,192,114347,1,0,0:0:0:0:
64,192,114347,128,0,114492:0:0:0:0:
320,192,114492,1,0,0:0:0:0:
448,192,114492,128,0,114637:0:0:0:0:
64,192,114637,1,0,0:0:0:0:
320,192,114637,128,0,114782:0:0:0:0:
448,192,114782,1,0,0:0:0:0:
192,192,114782,128,0,114927:0:0:0:0:
64,192,114927,1,0,0:0:0:0:
320,192,114927,128,0,115072:0:0:0:0:
448,192,115072,1,0,0:0:0:0:
192,192,115072,128,0,115217:0:0:0:0:
320,192,115217,1,0,0:0:0:0:
64,192,115217,128,0,115362:0:0:0:0:
192,192,115362,1,0,0:0:0:0:
448,192,115362,128,0,115507:0:0:0:0:
64,192,115507,1,0,0:0:0:0:
320,192,115507,128,0,115652:0:0:0:0:
192,192,115652,128,0,115797:0:0:0:0:
448,192,115797,128,0,115942:0:0:0:0:
192,192,115942,1,0,0:0:0:0:
64,192,115942,1,0,0:0:0:0:
320,192,116086,1,0,0:0:0:0:
192,192,116231,1,0,0:0:0:0:
448,192,116376,1,0,0:0:0:0:
192,192,116521,1,0,0:0:0:0:
64,192,116521,1,0,0:0:0:0:
320,192,116666,1,0,0:0:0:0:
64,192,116811,1,0,0:0:0:0:
448,192,116956,1,0,0:0:0:0:
192,192,117101,1,0,0:0:0:0:
64,192,117101,1,0,0:0:0:0:
320,192,117246,1,0,0:0:0:0:
192,192,117391,1,0,0:0:0:0:
448,192,117536,1,0,0:0:0:0:
192,192,117681,1,0,0:0:0:0:
64,192,117681,1,0,0:0:0:0:
320,192,117826,1,0,0:0:0:0:
448,192,117971,1,0,0:0:0:0:
192,192,118115,1,0,0:0:0:0:
320,192,118260,1,0,0:0:0:0:
448,192,118260,1,0,0:0:0:0:
64,192,118405,1,0,0:0:0:0:
320,192,118550,1,0,0:0:0:0:
192,192,118695,1,0,0:0:0:0:
448,192,118840,1,0,0:0:0:0:
320,192,118840,1,0,0:0:0:0:
64,192,118985,1,0,0:0:0:0:
448,192,119130,1,0,0:0:0:0:
192,192,119275,1,0,0:0:0:0:
320,192,119420,1,0,0:0:0:0:
448,192,119420,1,0,0:0:0:0:
64,192,119565,1,0,0:0:0:0:
320,192,119710,1,0,0:0:0:0:
320,192,119855,1,0,0:0:0:0:
192,192,119999,1,0,0:0:0:0:
448,192,119999,1,0,0:0:0:0:
64,192,120144,1,0,0:0:0:0:
320,192,120289,1,0,0:0:0:0:
192,192,120289,1,0,0:0:0:0:
448,192,120434,1,0,0:0:0:0:
320,192,120579,1,0,0:0:0:0:
64,192,120579,1,0,0:0:0:0:
192,192,120724,1,0,0:0:0:0:
448,192,120869,1,0,0:0:0:0:
192,192,121014,1,0,0:0:0:0:
320,192,121159,1,0,0:0:0:0:
448,192,121159,1,0,0:0:0:0:
64,192,121304,1,0,0:0:0:0:
448,192,121449,1,0,0:0:0:0:
320,192,121594,1,0,0:0:0:0:
192,192,121739,1,0,0:0:0:0:
64,192,121739,1,0,0:0:0:0:
448,192,121884,1,0,0:0:0:0:
192,192,122028,1,0,0:0:0:0:
64,192,122173,1,0,0:0:0:0:
320,192,122318,1,0,0:0:0:0:
448,192,122318,1,0,0:0:0:0:
192,192,122463,1,0,0:0:0:0:
448,192,122608,1,0,0:0:0:0:
320,192,122753,1,0,0:0:0:0:
192,192,122898,1,0,0:0:0:0:
64,192,122898,1,0,0:0:0:0:
448,192,123043,1,0,0:0:0:0:
192,192,123188,1,0,0:0:0:0:
64,192,123333,1,0,0:0:0:0:
320,192,123478,1,0,0:0:0:0:
448,192,123478,1,0,0:0:0:0:
64,192,123623,1,0,0:0:0:0:
320,192,123768,1,0,0:0:0:0:
64,192,123913,1,0,0:0:0:0:
448,192,124057,1,0,0:0:0:0:
192,192,124057,1,0,0:0:0:0:
64,192,124202,1,0,0:0:0:0:
320,192,124347,1,0,0:0:0:0:
192,192,124492,1,0,0:0:0:0:
320,192,124637,1,0,0:0:0:0:
448,192,124637,1,0,0:0:0:0:
64,192,124673,1,0,0:0:0:0:
192,192,124710,1,0,0:0:0:0:
448,192,124746,1,0,0:0:0:0:
320,192,124782,1,0,0:0:0:0:
192,192,124818,1,0,0:0:0:0:
64,192,124855,1,0,0:0:0:0:
448,192,124891,1,0,0:0:0:0:
320,192,124927,1,0,0:0:0:0:
192,192,124963,1,0,0:0:0:0:
64,192,124999,1,0,0:0:0:0:
448,192,125036,1,0,0:0:0:0:
320,192,125072,1,0,0:0:0:0:
64,192,125108,1,0,0:0:0:0:
192,192,125144,1,0,0:0:0:0:
320,192,125181,1,0,0:0:0:0:
448,192,125217,1,0,0:0:0:0:
64,192,125217,1,0,0:0:0:0:
192,192,125217,1,0,0:0:0:0:
192,192,125362,1,0,0:0:0:0:
320,192,125362,1,0,0:0:0:0:
320,192,125507,1,0,0:0:0:0:
448,192,125507,1,0,0:0:0:0:
64,192,125652,1,0,0:0:0:0:
192,192,125652,1,0,0:0:0:0:
448,192,125797,1,0,0:0:0:0:
320,192,125797,1,0,0:0:0:0:
64,192,125797,1,0,0:0:0:0:
320,192,125942,1,0,0:0:0:0:
192,192,125942,1,0,0:0:0:0:
64,192,126086,1,0,0:0:0:0:
448,192,126086,1,0,0:0:0:0:
192,192,126231,1,0,0:0:0:0:
320,192,126231,1,0,0:0:0:0:
448,192,126376,1,0,0:0:0:0:
192,192,126376,1,0,0:0:0:0:
64,192,126376,1,0,0:0:0:0:
64,192,126521,1,0,0:0:0:0:
320,192,126521,1,0,0:0:0:0:
320,192,126666,1,0,0:0:0:0:
192,192,126666,1,0,0:0:0:0:
64,192,126811,1,0,0:0:0:0:
448,192,126811,1,0,0:0:0:0:
320,192,126956,1,0,0:0:0:0:
192,192,126956,1,0,0:0:0:0:
64,192,126956,1,0,0:0:0:0:
320,192,127101,1,0,0:0:0:0:
448,192,127101,1,0,0:0:0:0:
192,192,127173,1,0,0:0:0:0:
64,192,127173,1,0,0:0:0:0:
320,192,127246,1,0,0:0:0:0:
448,192,127246,1,0,0:0:0:0:
64,192,127391,1,0,0:0:0:0:
448,192,127427,1,0,0:0:0:0:
192,192,127463,1,0,0:0:0:0:
320,192,127499,1,0,0:0:0:0:
64,192,127536,1,0,0:0:0:0:
192,192,127536,1,0,0:0:0:0:
448,192,127536,1,0,0:0:0:0:
320,192,127681,1,0,0:0:0:0:
192,192,127681,1,0,0:0:0:0:
320,192,127826,1,0,0:0:0:0:
448,192,127826,1,0,0:0:0:0:
64,192,127971,1,0,0:0:0:0:
192,192,127971,1,0,0:0:0:0:
320,192,128115,1,0,0:0:0:0:
192,192,128115,1,0,0:0:0:0:
448,192,128115,1,0,0:0:0:0:
448,192,128260,1,0,0:0:0:0:
64,192,128260,1,0,0:0:0:0:
192,192,128405,1,0,0:0:0:0:
320,192,128405,1,0,0:0:0:0:
320,192,128550,1,0,0:0:0:0:
448,192,128550,1,0,0:0:0:0:
192,192,128695,1,0,0:0:0:0:
64,192,128695,1,0,0:0:0:0:
448,192,128695,1,0,0:0:0:0:
64,192,128840,1,0,0:0:0:0:
320,192,128840,1,0,0:0:0:0:
192,192,128985,1,0,0:0:0:0:
448,192,128985,1,0,0:0:0:0:
448,192,129130,1,0,0:0:0:0:
192,192,129130,1,0,0:0:0:0:
320,192,129275,1,0,0:0:0:0:
64,192,129275,128,0,129565:0:0:0:0:
448,192,129275,1,0,0:0:0:0:
320,192,129565,1,0,0:0:0:0:
448,192,129601,1,0,0:0:0:0:
192,192,129637,1,0,0:0:0:0:
64,192,129673,1,0,0:0:0:0:
320,192,129710,1,0,0:0:0:0:
448,192,129746,1,0,0:0:0:0:
192,192,129782,1,0,0:0:0:0:
64,192,129818,1,0,0:0:0:0:
320,192,129855,1,0,0:0:0:0:
448,192,129855,1,0,0:0:0:0:
192,192,129999,1,0,0:0:0:0:
64,192,129999,1,0,0:0:0:0:
448,192,130144,1,0,0:0:0:0:
320,192,130144,1,0,0:0:0:0:
64,192,130289,1,0,0:0:0:0:
192,192,130289,1,0,0:0:0:0:
320,192,130434,1,0,0:0:0:0:
448,192,130434,1,0,0:0:0:0:
64,192,130434,1,0,0:0:0:0:
192,192,130579,1,0,0:0:0:0:
448,192,130579,1,0,0:0:0:0:
64,192,130724,1,0,0:0:0:0:
320,192,130724,1,0,0:0:0:0:
448,192,130869,1,0,0:0:0:0:
64,192,130869,1,0,0:0:0:0:
192,192,131014,1,0,0:0:0:0:
320,192,131014,1,0,0:0:0:0:
64,192,131014,1,0,0:0:0:0:
320,192,131159,1,0,0:0:0:0:
448,192,131159,1,0,0:0:0:0:
64,192,131304,1,0,0:0:0:0:
192,192,131304,1,0,0:0:0:0:
448,192,131449,1,0,0:0:0:0:
320,192,131449,1,0,0:0:0:0:
448,192,131594,1,0,0:0:0:0:
64,192,131594,1,0,0:0:0:0:
320,192,131666,1,0,0:0:0:0:
192,192,131666,1,0,0:0:0:0:
448,192,131739,1,0,0:0:0:0:
64,192,131739,1,0,0:0:0:0:
320,192,131811,1,0,0:0:0:0:
192,192,131811,1,0,0:0:0:0:
448,192,131884,1,0,0:0:0:0:
64,192,131884,1,0,0:0:0:0:
320,192,131956,1,0,0:0:0:0:
192,192,131956,1,0,0:0:0:0:
448,192,132028,1,0,0:0:0:0:
64,192,132028,1,0,0:0:0:0:
320,192,132101,1,0,0:0:0:0:
192,192,132101,1,0,0:0:0:0:
64,192,132173,1,0,0:0:0:0:
448,192,132173,1,0,0:0:0:0:
320,192,132318,1,0,0:0:0:0:
448,192,132318,1,0,0:0:0:0:
320,192,132463,1,0,0:0:0:0:
192,192,132463,1,0,0:0:0:0:
64,192,132608,1,0,0:0:0:0:
192,192,132608,1,0,0:0:0:0:
448,192,132753,1,0,0:0:0:0:
320,192,132753,1,0,0:0:0:0:
64,192,132753,1,0,0:0:0:0:
64,192,132898,1,0,0:0:0:0:
192,192,132898,1,0,0:0:0:0:
448,192,133043,1,0,0:0:0:0:
320,192,133043,1,0,0:0:0:0:
64,192,133188,1,0,0:0:0:0:
192,192,133188,1,0,0:0:0:0:
448,192,133333,1,0,0:0:0:0:
320,192,133333,1,0,0:0:0:0:
192,192,133333,1,0,0:0:0:0:
64,192,133478,1,0,0:0:0:0:
192,192,133514,1,0,0:0:0:0:
448,192,133550,1,0,0:0:0:0:
320,192,133586,1,0,0:0:0:0:
64,192,133623,1,0,0:0:0:0:
192,192,133623,1,0,0:0:0:0:
448,192,133768,1,0,0:0:0:0:
320,192,133804,1,0,0:0:0:0:
64,192,133840,1,0,0:0:0:0:
192,192,133876,1,0,0:0:0:0:
448,192,133913,1,0,0:0:0:0:
320,192,133913,1,0,0:0:0:0:
64,192,134057,1,0,0:0:0:0:
192,192,134094,1,0,0:0:0:0:
320,192,134130,1,0,0:0:0:0:
448,192,134166,1,0,0:0:0:0:
64,192,134202,1,0,0:0:0:0:
192,192,134202,1,0,0:0:0:0:
448,192,134347,1,0,0:0:0:0:
320,192,134384,1,0,0:0:0:0:
192,192,134420,1,0,0:0:0:0:
64,192,134456,1,0,0:0:0:0:
320,192,134492,1,0,0:0:0:0:
448,192,134492,1,0,0:0:0:0:
192,192,134637,1,0,0:0:0:0:
64,192,134637,1,0,0:0:0:0:
448,192,134782,1,0,0:0:0:0:
192,192,134782,1,0,0:0:0:0:
64,192,134927,1,0,0:0:0:0:
320,192,134927,1,0,0:0:0:0:
192,192,135072,1,0,0:0:0:0:
448,192,135072,1,0,0:0:0:0:
64,192,135072,1,0,0:0:0:0:
320,192,135217,1,0,0:0:0:0:
192,192,135217,1,0,0:0:0:0:
64,192,135362,1,0,0:0:0:0:
320,192,135362,1,0,0:0:0:0:
448,192,135507,1,0,0:0:0:0:
64,192,135507,1,0,0:0:0:0:
192,192,135652,1,0,0:0:0:0:
320,192,135652,1,0,0:0:0:0:
64,192,135652,1,0,0:0:0:0:
320,192,135797,1,0,0:0:0:0:
448,192,135797,1,0,0:0:0:0:
64,192,135942,1,0,0:0:0:0:
192,192,135942,1,0,0:0:0:0:
448,192,136086,1,0,0:0:0:0:
192,192,136086,1,0,0:0:0:0:
448,192,136231,1,0,0:0:0:0:
320,192,136231,128,0,136521:0:0:0:0:
64,192,136231,128,0,136376:0:0:0:0:
192,192,136521,128,0,136811:0:0:0:0:
448,192,136521,128,0,136666:0:0:0:0:
64,192,136521,1,0,0:0:0:0:
320,192,136666,128,0,136811:0:0:0:0:
448,192,136811,1,0,0:0:0:0:
64,192,136811,1,0,0:0:0:0:
64,192,136956,1,0,0:0:0:0:
192,192,136956,1,0,0:0:0:0:
320,192,137101,1,0,0:0:0:0:
448,192,137101,1,0,0:0:0:0:
64,192,137246,1,0,0:0:0:0:
320,192,137246,1,0,0:0:0:0:
448,192,137391,1,0,0:0:0:0:
192,192,137391,1,0,0:0:0:0:
64,192,137391,1,0,0:0:0:0:
320,192,137536,1,0,0:0:0:0:
192,192,137536,1,0,0:0:0:0:
64,192,137681,1,0,0:0:0:0:
448,192,137681,1,0,0:0:0:0:
448,192,137826,1,0,0:0:0:0:
320,192,137826,1,0,0:0:0:0:
192,192,137971,1,0,0:0:0:0:
64,192,137971,1,0,0:0:0:0:
448,192,137971,1,0,0:0:0:0:
448,192,138115,1,0,0:0:0:0:
320,192,138115,1,0,0:0:0:0:
64,192,138260,1,0,0:0:0:0:
192,192,138260,1,0,0:0:0:0:
64,192,138405,1,0,0:0:0:0:
192,192,138405,1,0,0:0:0:0:
448,192,138550,1,0,0:0:0:0:
320,192,138586,1,0,0:0:0:0:
64,192,138623,1,0,0:0:0:0:
192,192,138659,1,0,0:0:0:0:
448,192,138695,1,0,0:0:0:0:
320,192,138731,1,0,0:0:0:0:
64,192,138768,1,0,0:0:0:0:
192,192,138804,1,0,0:0:0:0:
448,192,138840,1,0,0:0:0:0:
320,192,138876,1,0,0:0:0:0:
64,192,138913,1,0,0:0:0:0:
192,192,138949,1,0,0:0:0:0:
448,192,138985,1,0,0:0:0:0:
320,192,139021,1,0,0:0:0:0:
192,192,139057,1,0,0:0:0:0:
64,192,139094,1,0,0:0:0:0:
320,192,139130,1,0,0:0:0:0:
448,192,139130,1,0,0:0:0:0:
320,192,139275,1,0,0:0:0:0:
192,192,139275,1,0,0:0:0:0:
448,192,139420,1,0,0:0:0:0:
192,192,139420,1,0,0:0:0:0:
64,192,139565,1,0,0:0:0:0:
320,192,139565,1,0,0:0:0:0:
320,192,139710,1,0,0:0:0:0:
448,192,139710,1,0,0:0:0:0:
192,192,139710,1,0,0:0:0:0:
192,192,139855,1,0,0:0:0:0:
64,192,139855,1,0,0:0:0:0:
448,192,139999,1,0,0:0:0:0:
320,192,139999,1,0,0:0:0:0:
192,192,140144,1,0,0:0:0:0:
448,192,140144,1,0,0:0:0:0:
320,192,140289,1,0,0:0:0:0:
64,192,140289,1,0,0:0:0:0:
448,192,140289,1,0,0:0:0:0:
64,192,140434,1,0,0:0:0:0:
192,192,140434,1,0,0:0:0:0:
448,192,140579,1,0,0:0:0:0:
320,192,140579,1,0,0:0:0:0:
192,192,140724,1,0,0:0:0:0:
64,192,140724,1,0,0:0:0:0:
448,192,140869,1,0,0:0:0:0:
192,192,140869,1,0,0:0:0:0:
320,192,140869,1,0,0:0:0:0:
64,192,141014,1,0,0:0:0:0:
320,192,141014,1,0,0:0:0:0:
320,192,141159,1,0,0:0:0:0:
448,192,141159,1,0,0:0:0:0:
192,192,141304,1,0,0:0:0:0:
64,192,141304,1,0,0:0:0:0:
192,192,141449,1,0,0:0:0:0:
448,192,141449,1,0,0:0:0:0:
64,192,141449,1,0,0:0:0:0:
320,192,141594,1,0,0:0:0:0:
320,192,141739,1,0,0:0:0:0:
64,192,141739,1,0,0:0:0:0:
448,192,141739,1,0,0:0:0:0:
192,192,141884,1,0,0:0:0:0:
192,192,142028,1,0,0:0:0:0:
448,192,142028,1,0,0:0:0:0:
64,192,142028,1,0,0:0:0:0:
320,192,142173,1,0,0:0:0:0:
320,192,142318,1,0,0:0:0:0:
64,192,142318,1,0,0:0:0:0:
448,192,142318,1,0,0:0:0:0:
192,192,142463,1,0,0:0:0:0:
448,192,142608,1,0,0:0:0:0:
192,192,142608,1,0,0:0:0:0:
64,192,142608,1,0,0:0:0:0:
320,192,142753,1,0,0:0:0:0:
192,192,142898,1,0,0:0:0:0:
448,192,142898,1,0,0:0:0:0:
64,192,143043,1,0,0:0:0:0:
448,192,143188,1,0,0:0:0:0:
320,192,143188,1,0,0:0:0:0:
192,192,143188,1,0,0:0:0:0:
320,192,143478,1,0,0:0:0:0:
64,192,143478,1,0,0:0:0:0:
192,192,143478,1,0,0:0:0:0:
448,192,143768,1,0,0:0:0:0:
320,192,143768,1,0,0:0:0:0:
64,192,143768,1,0,0:0:0:0:
192,192,143913,1,0,0:0:0:0:
320,192,143913,1,0,0:0:0:0:
448,192,144057,1,0,0:0:0:0:
64,192,144057,1,0,0:0:0:0:
192,192,144202,1,0,0:0:0:0:
320,192,144202,1,0,0:0:0:0:
448,192,144347,1,0,0:0:0:0:
64,192,144347,1,0,0:0:0:0:
192,192,144492,1,0,0:0:0:0:
448,192,144492,1,0,0:0:0:0:
64,192,144637,1,0,0:0:0:0:
192,192,144637,1,0,0:0:0:0:
320,192,144782,1,0,0:0:0:0:
448,192,144782,1,0,0:0:0:0:
64,192,144927,1,0,0:0:0:0:
448,192,144927,1,0,0:0:0:0:
192,192,144927,1,0,0:0:0:0:
192,192,145072,1,0,0:0:0:0:
320,192,145072,1,0,0:0:0:0:
320,192,145217,1,0,0:0:0:0:
64,192,145217,1,0,0:0:0:0:
64,192,145362,1,0,0:0:0:0:
448,192,145362,1,0,0:0:0:0:
192,192,145507,1,0,0:0:0:0:
448,192,145507,1,0,0:0:0:0:
320,192,145652,1,0,0:0:0:0:
448,192,145652,1,0,0:0:0:0:
192,192,145724,1,0,0:0:0:0:
64,192,145724,1,0,0:0:0:0:
448,192,145797,1,0,0:0:0:0:
320,192,145797,1,0,0:0:0:0:
64,192,145942,1,0,0:0:0:0:
192,192,145978,1,0,0:0:0:0:
320,192,146014,1,0,0:0:0:0:
448,192,146050,1,0,0:0:0:0:
64,192,146086,1,0,0:0:0:0:
192,192,146086,1,0,0:0:0:0:
192,192,146231,1,0,0:0:0:0:
320,192,146231,1,0,0:0:0:0:
448,192,146376,1,0,0:0:0:0:
320,192,146376,1,0,0:0:0:0:
64,192,146521,1,0,0:0:0:0:
320,192,146521,1,0,0:0:0:0:
192,192,146666,1,0,0:0:0:0:
448,192,146666,1,0,0:0:0:0:
320,192,146811,1,0,0:0:0:0:
192,192,146811,1,0,0:0:0:0:
64,192,146956,1,0,0:0:0:0:
448,192,146956,1,0,0:0:0:0:
448,192,147101,1,0,0:0:0:0:
192,192,147101,1,0,0:0:0:0:
320,192,147246,1,0,0:0:0:0:
192,192,147246,1,0,0:0:0:0:
64,192,147246,1,0,0:0:0:0:
64,192,147391,1,0,0:0:0:0:
448,192,147391,1,0,0:0:0:0:
320,192,147536,1,0,0:0:0:0:
192,192,147536,1,0,0:0:0:0:
192,192,147681,1,0,0:0:0:0:
64,192,147681,1,0,0:0:0:0:
448,192,147826,1,0,0:0:0:0:
320,192,147826,1,0,0:0:0:0:
64,192,147898,1,0,0:0:0:0:
192,192,147898,1,0,0:0:0:0:
448,192,147971,1,0,0:0:0:0:
320,192,147971,1,0,0:0:0:0:
64,192,148043,1,0,0:0:0:0:
192,192,148043,1,0,0:0:0:0:
448,192,148115,1,0,0:0:0:0:
320,192,148115,1,0,0:0:0:0:
64,192,148188,1,0,0:0:0:0:
192,192,148188,1,0,0:0:0:0:
320,192,148260,1,0,0:0:0:0:
448,192,148260,1,0,0:0:0:0:
192,192,148333,1,0,0:0:0:0:
64,192,148333,1,0,0:0:0:0:
448,192,148405,1,0,0:0:0:0:
320,192,148405,1,0,0:0:0:0:
320,192,148550,1,0,0:0:0:0:
192,192,148550,1,0,0:0:0:0:
64,192,148695,1,0,0:0:0:0:
320,192,148695,1,0,0:0:0:0:
448,192,148840,1,0,0:0:0:0:
192,192,148840,1,0,0:0:0:0:
192,192,148985,1,0,0:0:0:0:
320,192,148985,1,0,0:0:0:0:
320,192,149130,1,0,0:0:0:0:
448,192,149130,1,0,0:0:0:0:
64,192,149275,1,0,0:0:0:0:
192,192,149275,1,0,0:0:0:0:
448,192,149420,1,0,0:0:0:0:
320,192,149420,1,0,0:0:0:0:
192,192,149565,1,0,0:0:0:0:
64,192,149565,1,0,0:0:0:0:
448,192,149565,1,0,0:0:0:0:
64,192,149710,1,0,0:0:0:0:
320,192,149710,1,0,0:0:0:0:
448,192,149855,1,0,0:0:0:0:
192,192,149855,1,0,0:0:0:0:
192,192,149999,1,0,0:0:0:0:
320,192,149999,1,0,0:0:0:0:
448,192,150144,1,0,0:0:0:0:
320,192,150144,1,0,0:0:0:0:
64,192,150217,1,0,0:0:0:0:
192,192,150217,1,0,0:0:0:0:
448,192,150289,1,0,0:0:0:0:
320,192,150289,1,0,0:0:0:0:
192,192,150362,1,0,0:0:0:0:
64,192,150362,1,0,0:0:0:0:
448,192,150434,1,0,0:0:0:0:
64,192,150471,1,0,0:0:0:0:
320,192,150507,1,0,0:0:0:0:
192,192,150543,1,0,0:0:0:0:
448,192,150579,1,0,0:0:0:0:
64,192,150615,1,0,0:0:0:0:
320,192,150652,1,0,0:0:0:0:
192,192,150688,1,0,0:0:0:0:
64,192,150724,1,0,0:0:0:0:
448,192,150724,1,0,0:0:0:0:
64,192,150869,1,0,0:0:0:0:
192,192,150869,1,0,0:0:0:0:
448,192,151014,1,0,0:0:0:0:
320,192,151014,1,0,0:0:0:0:
192,192,151159,1,0,0:0:0:0:
448,192,151159,1,0,0:0:0:0:
320,192,151304,1,0,0:0:0:0:
64,192,151304,1,0,0:0:0:0:
448,192,151449,1,0,0:0:0:0:
192,192,151449,1,0,0:0:0:0:
320,192,151594,1,0,0:0:0:0:
64,192,151594,1,0,0:0:0:0:
320,192,151739,1,0,0:0:0:0:
192,192,151739,1,0,0:0:0:0:
64,192,151884,1,0,0:0:0:0:
448,192,151884,1,0,0:0:0:0:
192,192,151884,1,0,0:0:0:0:
320,192,152028,1,0,0:0:0:0:
448,192,152028,1,0,0:0:0:0:
448,192,152173,1,0,0:0:0:0:
64,192,152173,1,0,0:0:0:0:
320,192,152318,1,0,0:0:0:0:
192,192,152318,1,0,0:0:0:0:
64,192,152463,1,0,0:0:0:0:
192,192,152463,1,0,0:0:0:0:
448,192,152463,128,0,153043:0:0:0:0:
320,192,152608,1,0,0:0:0:0:
64,192,152753,128,0,153043:0:0:0:0:
192,192,152753,1,0,0:0:0:0:
320,192,152898,1,0,0:0:0:0:
320,192,153043,1,0,0:0:0:0:
192,192,153043,1,0,0:0:0:0:
192,192,153188,1,0,0:0:0:0:
320,192,153188,1,0,0:0:0:0:
64,192,153333,1,0,0:0:0:0:
192,192,153333,1,0,0:0:0:0:
320,192,153478,1,0,0:0:0:0:
448,192,153478,1,0,0:0:0:0:
448,192,153623,1,0,0:0:0:0:
320,192,153623,1,0,0:0:0:0:
448,192,153768,1,0,0:0:0:0:
192,192,153768,1,0,0:0:0:0:
64,192,153913,1,0,0:0:0:0:
320,192,153913,1,0,0:0:0:0:
320,192,154057,1,0,0:0:0:0:
64,192,154057,1,0,0:0:0:0:
192,192,154202,1,0,0:0:0:0:
448,192,154202,1,0,0:0:0:0:
64,192,154202,1,0,0:0:0:0:
448,192,154347,1,0,0:0:0:0:
320,192,154347,1,0,0:0:0:0:
320,192,154492,1,0,0:0:0:0:
64,192,154492,1,0,0:0:0:0:
64,192,154637,1,0,0:0:0:0:
192,192,154637,1,0,0:0:0:0:
448,192,154782,1,0,0:0:0:0:
320,192,154782,1,0,0:0:0:0:
192,192,154927,1,0,0:0:0:0:
320,192,154927,1,0,0:0:0:0:
448,192,155072,1,0,0:0:0:0:
64,192,155072,1,0,0:0:0:0:
192,192,155217,1,0,0:0:0:0:
320,192,155217,1,0,0:0:0:0:
64,192,155362,1,0,0:0:0:0:
320,192,155362,1,0,0:0:0:0:
448,192,155362,1,0,0:0:0:0:
320,192,155507,1,0,0:0:0:0:
64,192,155507,1,0,0:0:0:0:
192,192,155652,1,0,0:0:0:0:
448,192,155652,1,0,0:0:0:0:
448,192,155797,1,0,0:0:0:0:
320,192,155797,1,0,0:0:0:0:
448,192,155942,1,0,0:0:0:0:
320,192,155942,1,0,0:0:0:0:
64,192,156086,1,0,0:0:0:0:
192,192,156086,1,0,0:0:0:0:
192,192,156231,1,0,0:0:0:0:
320,192,156231,1,0,0:0:0:0:
448,192,156376,1,0,0:0:0:0:
64,192,156376,1,0,0:0:0:0:
192,192,156521,1,0,0:0:0:0:
320,192,156521,1,0,0:0:0:0:
64,192,156521,1,0,0:0:0:0:
320,192,156666,1,0,0:0:0:0:
448,192,156666,1,0,0:0:0:0:
64,192,156811,1,0,0:0:0:0:
192,192,156811,1,0,0:0:0:0:
320,192,156956,1,0,0:0:0:0:
64,192,156956,1,0,0:0:0:0:
192,192,157101,1,0,0:0:0:0:
448,192,157101,1,0,0:0:0:0:
64,192,157101,128,0,157391:0:0:0:0:
320,192,157391,1,0,0:0:0:0:
448,192,157427,1,0,0:0:0:0:
192,192,157463,1,0,0:0:0:0:
64,192,157499,1,0,0:0:0:0:
320,192,157536,1,0,0:0:0:0:
448,192,157572,1,0,0:0:0:0:
192,192,157608,1,0,0:0:0:0:
64,192,157644,1,0,0:0:0:0:
320,192,157681,1,0,0:0:0:0:
448,192,157681,1,0,0:0:0:0:
448,192,157826,1,0,0:0:0:0:
320,192,157826,1,0,0:0:0:0:
64,192,157971,1,0,0:0:0:0:
448,192,157971,1,0,0:0:0:0:
192,192,158115,1,0,0:0:0:0:
320,192,158115,1,0,0:0:0:0:
320,192,158260,1,0,0:0:0:0:
192,192,158260,1,0,0:0:0:0:
448,192,158405,1,0,0:0:0:0:
64,192,158405,1,0,0:0:0:0:
448,192,158550,1,0,0:0:0:0:
192,192,158550,1,0,0:0:0:0:
192,192,158695,1,0,0:0:0:0:
448,192,158695,1,0,0:0:0:0:
320,192,158840,1,0,0:0:0:0:
64,192,158840,1,0,0:0:0:0:
448,192,158840,1,0,0:0:0:0:
320,192,158985,1,0,0:0:0:0:
64,192,158985,1,0,0:0:0:0:
64,192,159130,1,0,0:0:0:0:
448,192,159130,1,0,0:0:0:0:
320,192,159275,1,0,0:0:0:0:
192,192,159275,1,0,0:0:0:0:
448,192,159420,1,0,0:0:0:0:
320,192,159420,1,0,0:0:0:0:
192,192,159565,1,0,0:0:0:0:
448,192,159565,1,0,0:0:0:0:
64,192,159710,1,0,0:0:0:0:
320,192,159710,1,0,0:0:0:0:
320,192,159855,1,0,0:0:0:0:
192,192,159855,1,0,0:0:0:0:
192,192,159999,1,0,0:0:0:0:
448,192,159999,1,0,0:0:0:0:
320,192,159999,128,0,160289:0:0:0:0:
64,192,160144,1,0,0:0:0:0:
448,192,160289,1,0,0:0:0:0:
64,192,160289,1,0,0:0:0:0:
192,192,160289,128,0,160579:0:0:0:0:
320,192,160434,1,0,0:0:0:0:
320,192,160579,1,0,0:0:0:0:
64,192,160579,1,0,0:0:0:0:
448,192,160579,128,0,160869:0:0:0:0:
192,192,160724,1,0,0:0:0:0:
192,192,160869,1,0,0:0:0:0:
320,192,160869,1,0,0:0:0:0:
64,192,160869,128,0,161159:0:0:0:0:
448,192,161014,1,0,0:0:0:0:
448,192,161159,1,0,0:0:0:0:
192,192,161159,1,0,0:0:0:0:
320,192,161304,1,0,0:0:0:0:
64,192,161449,1,0,0:0:0:0:
448,192,161449,1,0,0:0:0:0:
192,192,161594,1,0,0:0:0:0:
320,192,161739,1,0,0:0:0:0:
448,192,161739,1,0,0:0:0:0:
64,192,161775,1,0,0:0:0:0:
192,192,161811,1,0,0:0:0:0:
320,192,161847,1,0,0:0:0:0:
448,192,161884,1,0,0:0:0:0:
192,192,161920,1,0,0:0:0:0:
64,192,161956,1,0,0:0:0:0:
320,192,161992,1,0,0:0:0:0:
448,192,162028,1,0,0:0:0:0:
64,192,162065,1,0,0:0:0:0:
320,192,162101,1,0,0:0:0:0:
192,192,162137,1,0,0:0:0:0:
448,192,162173,1,0,0:0:0:0:
64,192,162210,1,0,0:0:0:0:
192,192,162246,1,0,0:0:0:0:
320,192,162282,1,0,0:0:0:0:
448,192,162318,128,0,164057:0:0:0:0:
64,192,162318,128,0,162463:0:0:0:0:
320,192,162463,1,0,0:0:0:0:
192,192,162608,1,0,0:0:0:0:
64,192,162753,1,0,0:0:0:0:
192,192,162898,128,0,163043:0:0:0:0:
320,192,163043,1,0,0:0:0:0:
64,192,163188,1,0,0:0:0:0:
192,192,163333,1,0,0:0:0:0:
320,192,163478,128,0,163623:0:0:0:0:
64,192,163623,1,0,0:0:0:0:
320,192,163768,1,0,0:0:0:0:
192,192,163913,1,0,0:0:0:0:
320,192,164057,128,0,164347:0:0:0:0:
64,192,164057,128,0,164202:0:0:0:0:
448,192,164202,1,0,0:0:0:0:
64,192,164347,128,0,164637:0:0:0:0:
192,192,164347,1,0,0:0:0:0:
448,192,164492,1,0,0:0:0:0:
192,192,164492,1,0,0:0:0:0:
192,192,164637,128,0,166956:0:0:0:0:
448,192,164637,128,0,164782:0:0:0:0:
320,192,164782,1,0,0:0:0:0:
64,192,164927,1,0,0:0:0:0:
448,192,165072,1,0,0:0:0:0:
320,192,165217,128,0,165362:0:0:0:0:
64,192,165362,1,0,0:0:0:0:
448,192,165507,1,0,0:0:0:0:
64,192,165652,1,0,0:0:0:0:
448,192,165797,128,0,165942:0:0:0:0:
320,192,165942,1,0,0:0:0:0:
64,192,166086,128,0,166231:0:0:0:0:
448,192,166231,128,0,166376:0:0:0:0:
320,192,166376,128,0,166521:0:0:0:0:
64,192,166376,1,0,0:0:0:0:
64,192,166521,128,0,166666:0:0:0:0:
448,192,166666,128,0,166811:0:0:0:0:
320,192,166666,1,0,0:0:0:0:
64,192,166811,1,0,0:0:0:0:
320,192,166956,128,0,168695:0:0:0:0:
64,192,166956,128,0,167101:0:0:0:0:
448,192,167101,1,0,0:0:0:0:
192,192,167246,1,0,0:0:0:0:
448,192,167391,1,0,0:0:0:0:
64,192,167536,128,0,167681:0:0:0:0:
192,192,167681,1,0,0:0:0:0:
448,192,167826,1,0,0:0:0:0:
64,192,167971,1,0,0:0:0:0:
448,192,168115,128,0,168260:0:0:0:0:
192,192,168260,1,0,0:0:0:0:
64,192,168405,1,0,0:0:0:0:
448,192,168550,1,0,0:0:0:0:
192,192,168695,128,0,168985:0:0:0:0:
64,192,168695,128,0,168840:0:0:0:0:
320,192,168840,1,0,0:0:0:0:
448,192,168985,128,0,169275:0:0:0:0:
64,192,168985,1,0,0:0:0:0:
320,192,169130,128,0,169275:0:0:0:0:
64,192,169275,128,0,171594:0:0:0:0:
192,192,169275,128,0,169420:0:0:0:0:
448,192,169420,1,0,0:0:0:0:
320,192,169565,1,0,0:0:0:0:
192,192,169710,1,0,0:0:0:0:
448,192,169855,128,0,169999:0:0:0:0:
192,192,169999,1,0,0:0:0:0:
320,192,170144,1,0,0:0:0:0:
448,192,170289,1,0,0:0:0:0:
320,192,170434,128,0,170579:0:0:0:0:
192,192,170579,128,0,170724:0:0:0:0:
448,192,170579,1,0,0:0:0:0:
448,192,170724,128,0,170869:0:0:0:0:
320,192,170869,128,0,171014:0:0:0:0:
192,192,171014,128,0,171159:0:0:0:0:
448,192,171014,1,0,0:0:0:0:
320,192,171159,1,0,0:0:0:0:
192,192,171304,1,0,0:0:0:0:
448,192,171449,1,0,0:0:0:0:
320,192,171594,128,0,173333:0:0:0:0:
192,192,171594,1,0,0:0:0:0:
448,192,171594,1,0,0:0:0:0:
64,192,171739,1,0,0:0:0:0:
192,192,171884,1,0,0:0:0:0:
448,192,172028,1,0,0:0:0:0:
192,192,172173,1,0,0:0:0:0:
64,192,172173,1,0,0:0:0:0:
64,192,172318,1,0,0:0:0:0:
448,192,172463,1,0,0:0:0:0:
192,192,172608,1,0,0:0:0:0:
448,192,172753,1,0,0:0:0:0:
64,192,172753,1,0,0:0:0:0:
64,192,172898,1,0,0:0:0:0:
448,192,173043,1,0,0:0:0:0:
64,192,173188,1,0,0:0:0:0:
192,192,173333,128,0,173623:0:0:0:0:
64,192,173333,1,0,0:0:0:0:
448,192,173333,1,0,0:0:0:0:
448,192,173478,1,0,0:0:0:0:
448,192,173623,128,0,173913:0:0:0:0:
320,192,173623,1,0,0:0:0:0:
192,192,173768,1,0,0:0:0:0:
64,192,173913,128,0,176231:0:0:0:0:
320,192,173913,1,0,0:0:0:0:
192,192,173913,1,0,0:0:0:0:
192,192,174057,1,0,0:0:0:0:
448,192,174202,1,0,0:0:0:0:
320,192,174347,1,0,0:0:0:0:
192,192,174492,1,0,0:0:0:0:
448,192,174492,1,0,0:0:0:0:
448,192,174637,1,0,0:0:0:0:
192,192,174782,1,0,0:0:0:0:
320,192,174927,1,0,0:0:0:0:
192,192,175072,1,0,0:0:0:0:
448,192,175072,1,0,0:0:0:0:
448,192,175217,1,0,0:0:0:0:
192,192,175362,1,0,0:0:0:0:
320,192,175362,1,0,0:0:0:0:
192,192,175507,1,0,0:0:0:0:
448,192,175507,1,0,0:0:0:0:
448,192,175652,1,0,0:0:0:0:
320,192,175652,1,0,0:0:0:0:
192,192,175797,1,0,0:0:0:0:
320,192,175942,1,0,0:0:0:0:
192,192,175942,1,0,0:0:0:0:
448,192,176086,1,0,0:0:0:0:
448,192,176231,128,0,177971:0:0:0:0:
320,192,176231,1,0,0:0:0:0:
192,192,176231,1,0,0:0:0:0:
64,192,176376,1,0,0:0:0:0:
320,192,176521,1,0,0:0:0:0:
192,192,176666,1,0,0:0:0:0:
64,192,176811,1,0,0:0:0:0:
320,192,176811,1,0,0:0:0:0:
320,192,176956,1,0,0:0:0:0:
192,192,177101,1,0,0:0:0:0:
320,192,177246,1,0,0:0:0:0:
64,192,177391,1,0,0:0:0:0:
192,192,177391,1,0,0:0:0:0:
320,192,177536,1,0,0:0:0:0:
192,192,177681,1,0,0:0:0:0:
64,192,177826,1,0,0:0:0:0:
64,192,177971,128,0,178260:0:0:0:0:
320,192,177971,1,0,0:0:0:0:
192,192,177971,1,0,0:0:0:0:
448,192,178115,1,0,0:0:0:0:
320,192,178260,128,0,178550:0:0:0:0:
192,192,178260,1,0,0:0:0:0:
448,192,178260,1,0,0:0:0:0:
64,192,178405,1,0,0:0:0:0:
192,192,178405,1,0,0:0:0:0:
192,192,178550,128,0,180869:0:0:0:0:
448,192,178550,1,0,0:0:0:0:
64,192,178550,1,0,0:0:0:0:
320,192,178695,1,0,0:0:0:0:
448,192,178840,1,0,0:0:0:0:
320,192,178985,1,0,0:0:0:0:
64,192,179130,1,0,0:0:0:0:
448,192,179130,1,0,0:0:0:0:
320,192,179275,1,0,0:0:0:0:
64,192,179420,1,0,0:0:0:0:
448,192,179565,1,0,0:0:0:0:
320,192,179710,1,0,0:0:0:0:
64,192,179710,1,0,0:0:0:0:
448,192,179855,1,0,0:0:0:0:
320,192,179999,1,0,0:0:0:0:
64,192,179999,1,0,0:0:0:0:
448,192,180144,1,0,0:0:0:0:
64,192,180289,1,0,0:0:0:0:
448,192,180289,1,0,0:0:0:0:
320,192,180434,1,0,0:0:0:0:
64,192,180579,1,0,0:0:0:0:
320,192,180579,1,0,0:0:0:0:
448,192,180724,1,0,0:0:0:0:
64,192,180724,1,0,0:0:0:0:
448,192,180869,1,0,0:0:0:0:
320,192,180869,1,0,0:0:0:0:
64,192,180869,1,0,0:0:0:0:
192,192,181014,1,0,0:0:0:0:
448,192,181014,1,0,0:0:0:0:
448,192,181159,1,0,0:0:0:0:
64,192,181159,1,0,0:0:0:0:
320,192,181159,1,0,0:0:0:0:
320,192,181304,1,0,0:0:0:0:
192,192,181304,1,0,0:0:0:0:
192,192,181449,1,0,0:0:0:0:
64,192,181449,1,0,0:0:0:0:
448,192,181449,1,0,0:0:0:0:
320,192,181594,1,0,0:0:0:0:
64,192,181594,1,0,0:0:0:0:
448,192,181739,1,0,0:0:0:0:
64,192,181739,1,0,0:0:0:0:
320,192,181739,1,0,0:0:0:0:
192,192,181884,1,0,0:0:0:0:
320,192,181884,1,0,0:0:0:0:
320,192,182028,1,0,0:0:0:0:
448,192,182028,1,0,0:0:0:0:
64,192,182028,1,0,0:0:0:0:
192,192,182028,1,0,0:0:0:0:
192,192,182173,1,0,0:0:0:0:
64,192,182173,1,0,0:0:0:0:
64,192,182318,1,0,0:0:0:0:
448,192,182318,1,0,0:0:0:0:
320,192,182318,1,0,0:0:0:0:
448,192,182463,1,0,0:0:0:0:
320,192,182463,1,0,0:0:0:0:
192,192,182608,1,0,0:0:0:0:
448,192,182608,1,0,0:0:0:0:
64,192,182608,1,0,0:0:0:0:
64,192,182753,1,0,0:0:0:0:
320,192,182753,1,0,0:0:0:0:
192,192,182898,1,0,0:0:0:0:
320,192,182898,1,0,0:0:0:0:
448,192,182898,1,0,0:0:0:0:
448,192,183043,1,0,0:0:0:0:
64,192,183043,1,0,0:0:0:0:
320,192,183188,1,0,0:0:0:0:
64,192,183188,1,0,0:0:0:0:
448,192,183188,1,0,0:0:0:0:
192,192,183188,1,0,0:0:0:0:
192,192,183333,1,0,0:0:0:0:
320,192,183333,1,0,0:0:0:0:
320,192,183478,1,0,0:0:0:0:
448,192,183478,1,0,0:0:0:0:
64,192,183478,1,0,0:0:0:0:
192,192,183623,1,0,0:0:0:0:
64,192,183623,1,0,0:0:0:0:
448,192,183768,1,0,0:0:0:0:
64,192,183768,1,0,0:0:0:0:
192,192,183768,1,0,0:0:0:0:
320,192,183913,1,0,0:0:0:0:
448,192,183913,1,0,0:0:0:0:
192,192,184057,1,0,0:0:0:0:
64,192,184057,1,0,0:0:0:0:
448,192,184057,1,0,0:0:0:0:
320,192,184202,1,0,0:0:0:0:
64,192,184202,1,0,0:0:0:0:
64,192,184347,1,0,0:0:0:0:
448,192,184347,1,0,0:0:0:0:
320,192,184347,1,0,0:0:0:0:
192,192,184347,1,0,0:0:0:0:
448,192,184492,1,0,0:0:0:0:
320,192,184492,1,0,0:0:0:0:
192,192,184565,1,0,0:0:0:0:
64,192,184565,1,0,0:0:0:0:
320,192,184637,1,0,0:0:0:0:
448,192,184637,1,0,0:0:0:0:
64,192,184782,1,0,0:0:0:0:
192,192,184818,1,0,0:0:0:0:
320,192,184855,1,0,0:0:0:0:
448,192,184891,1,0,0:0:0:0:
192,192,184927,1,0,0:0:0:0:
64,192,184927,128,0,185217:0:0:0:0:
320,192,185217,1,0,0:0:0:0:
192,192,185217,1,0,0:0:0:0:
448,192,185217,128,0,185507:0:0:0:0:
192,192,185507,1,0,0:0:0:0:
64,192,185507,1,0,0:0:0:0:
320,192,185507,1,0,0:0:0:0:
448,192,185652,1,0,0:0:0:0:
64,192,185652,1,0,0:0:0:0:
320,192,185797,1,0,0:0:0:0:
192,192,185797,1,0,0:0:0:0:
448,192,185797,1,0,0:0:0:0:
64,192,185942,1,0,0:0:0:0:
320,192,185942,1,0,0:0:0:0:
192,192,186086,1,0,0:0:0:0:
448,192,186086,1,0,0:0:0:0:
64,192,186086,1,0,0:0:0:0:
320,192,186231,1,0,0:0:0:0:
192,192,186231,1,0,0:0:0:0:
64,192,186376,1,0,0:0:0:0:
448,192,186376,1,0,0:0:0:0:
320,192,186376,1,0,0:0:0:0:
192,192,186521,1,0,0:0:0:0:
448,192,186521,1,0,0:0:0:0:
320,192,186666,1,0,0:0:0:0:
64,192,186666,1,0,0:0:0:0:
192,192,186666,1,0,0:0:0:0:
448,192,186666,1,0,0:0:0:0:
448,192,186811,1,0,0:0:0:0:
64,192,186811,1,0,0:0:0:0:
320,192,186956,1,0,0:0:0:0:
192,192,186956,1,0,0:0:0:0:
64,192,186956,1,0,0:0:0:0:
64,192,187101,1,0,0:0:0:0:
320,192,187101,1,0,0:0:0:0:
448,192,187246,1,0,0:0:0:0:
192,192,187246,1,0,0:0:0:0:
64,192,187246,1,0,0:0:0:0:
320,192,187391,1,0,0:0:0:0:
192,192,187391,1,0,0:0:0:0:
64,192,187536,1,0,0:0:0:0:
448,192,187536,1,0,0:0:0:0:
320,192,187536,1,0,0:0:0:0:
192,192,187681,1,0,0:0:0:0:
448,192,187681,1,0,0:0:0:0:
64,192,187681,1,0,0:0:0:0:
320,192,187826,1,0,0:0:0:0:
448,192,187826,1,0,0:0:0:0:
64,192,187826,1,0,0:0:0:0:
192,192,187826,1,0,0:0:0:0:
320,192,187971,1,0,0:0:0:0:
192,192,187971,1,0,0:0:0:0:
64,192,188115,1,0,0:0:0:0:
320,192,188115,1,0,0:0:0:0:
448,192,188115,1,0,0:0:0:0:
448,192,188260,1,0,0:0:0:0:
320,192,188260,1,0,0:0:0:0:
320,192,188405,1,0,0:0:0:0:
192,192,188405,1,0,0:0:0:0:
64,192,188405,1,0,0:0:0:0:
64,192,188550,1,0,0:0:0:0:
448,192,188550,1,0,0:0:0:0:
192,192,188695,1,0,0:0:0:0:
320,192,188695,1,0,0:0:0:0:
64,192,188695,1,0,0:0:0:0:
448,192,188840,1,0,0:0:0:0:
192,192,188840,1,0,0:0:0:0:
320,192,188985,1,0,0:0:0:0:
64,192,188985,1,0,0:0:0:0:
448,192,188985,1,0,0:0:0:0:
192,192,188985,1,0,0:0:0:0:
64,192,189130,1,0,0:0:0:0:
320,192,189130,1,0,0:0:0:0:
64,192,189275,1,0,0:0:0:0:
448,192,189275,1,0,0:0:0:0:
320,192,189275,1,0,0:0:0:0:
192,192,189420,1,0,0:0:0:0:
64,192,189420,1,0,0:0:0:0:
448,192,189420,1,0,0:0:0:0:
448,192,189565,1,0,0:0:0:0:
320,192,189565,1,0,0:0:0:0:
64,192,189601,1,0,0:0:0:0:
192,192,189637,1,0,0:0:0:0:
320,192,189673,1,0,0:0:0:0:
448,192,189710,1,0,0:0:0:0:
64,192,189746,1,0,0:0:0:0:
192,192,189782,1,0,0:0:0:0:
320,192,189818,1,0,0:0:0:0:
448,192,189855,1,0,0:0:0:0:
64,192,189891,1,0,0:0:0:0:
192,192,189927,1,0,0:0:0:0:
320,192,189963,1,0,0:0:0:0:
448,192,189999,1,0,0:0:0:0:
64,192,190036,1,0,0:0:0:0:
192,192,190072,1,0,0:0:0:0:
320,192,190108,1,0,0:0:0:0:
64,192,190144,1,0,0:0:0:0:
448,192,190144,1,0,0:0:0:0:
320,192,190289,1,0,0:0:0:0:
192,192,190289,1,0,0:0:0:0:
192,192,190434,1,0,0:0:0:0:
64,192,190434,1,0,0:0:0:0:
448,192,190434,1,0,0:0:0:0:
192,192,190579,1,0,0:0:0:0:
320,192,190579,1,0,0:0:0:0:
448,192,190724,1,0,0:0:0:0:
320,192,190724,1,0,0:0:0:0:
64,192,190724,1,0,0:0:0:0:
192,192,190869,1,0,0:0:0:0:
64,192,190869,1,0,0:0:0:0:
320,192,191014,1,0,0:0:0:0:
448,192,191014,1,0,0:0:0:0:
192,192,191014,1,0,0:0:0:0:
64,192,191159,1,0,0:0:0:0:
448,192,191159,1,0,0:0:0:0:
448,192,191304,1,0,0:0:0:0:
320,192,191304,1,0,0:0:0:0:
64,192,191304,1,0,0:0:0:0:
192,192,191304,1,0,0:0:0:0:
320,192,191449,1,0,0:0:0:0:
192,192,191449,1,0,0:0:0:0:
192,192,191594,1,0,0:0:0:0:
64,192,191594,1,0,0:0:0:0:
448,192,191594,1,0,0:0:0:0:
448,192,191739,1,0,0:0:0:0:
320,192,191739,1,0,0:0:0:0:
64,192,191884,1,0,0:0:0:0:
192,192,191920,1,0,0:0:0:0:
320,192,191956,1,0,0:0:0:0:
448,192,191992,1,0,0:0:0:0:
64,192,192028,1,0,0:0:0:0:
192,192,192065,1,0,0:0:0:0:
448,192,192101,1,0,0:0:0:0:
320,192,192137,1,0,0:0:0:0:
64,192,192173,1,0,0:0:0:0:
192,192,192210,1,0,0:0:0:0:
448,192,192246,1,0,0:0:0:0:
320,192,192282,1,0,0:0:0:0:
192,192,192318,1,0,0:0:0:0:
64,192,192355,1,0,0:0:0:0:
448,192,192391,1,0,0:0:0:0:
320,192,192427,1,0,0:0:0:0:
192,192,192463,1,0,0:0:0:0:
64,192,192463,1,0,0:0:0:0:
448,192,192608,1,0,0:0:0:0:
320,192,192608,1,0,0:0:0:0:
64,192,192753,1,0,0:0:0:0:
192,192,192753,1,0,0:0:0:0:
448,192,192753,1,0,0:0:0:0:
320,192,192898,1,0,0:0:0:0:
192,192,192898,1,0,0:0:0:0:
320,192,193043,1,0,0:0:0:0:
448,192,193043,1,0,0:0:0:0:
64,192,193043,1,0,0:0:0:0:
192,192,193188,1,0,0:0:0:0:
64,192,193188,1,0,0:0:0:0:
320,192,193333,1,0,0:0:0:0:
192,192,193333,1,0,0:0:0:0:
448,192,193333,1,0,0:0:0:0:
448,192,193478,1,0,0:0:0:0:
64,192,193478,1,0,0:0:0:0:
320,192,193623,1,0,0:0:0:0:
192,192,193623,1,0,0:0:0:0:
64,192,193623,1,0,0:0:0:0:
448,192,193623,1,0,0:0:0:0:
192,192,193768,1,0,0:0:0:0:
320,192,193768,1,0,0:0:0:0:
448,192,193913,1,0,0:0:0:0:
64,192,193913,1,0,0:0:0:0:
320,192,193913,1,0,0:0:0:0:
448,192,194057,1,0,0:0:0:0:
192,192,194057,1,0,0:0:0:0:
64,192,194057,1,0,0:0:0:0:
448,192,194202,1,0,0:0:0:0:
320,192,194202,1,0,0:0:0:0:
192,192,194275,1,0,0:0:0:0:
64,192,194275,1,0,0:0:0:0:
448,192,194347,1,0,0:0:0:0:
320,192,194347,1,0,0:0:0:0:
192,192,194420,1,0,0:0:0:0:
64,192,194492,1,0,0:0:0:0:
448,192,194528,1,0,0:0:0:0:
192,192,194565,1,0,0:0:0:0:
320,192,194601,1,0,0:0:0:0:
448,192,194637,1,0,0:0:0:0:
64,192,194673,1,0,0:0:0:0:
192,192,194710,1,0,0:0:0:0:
320,192,194746,1,0,0:0:0:0:
64,192,194782,1,0,0:0:0:0:
448,192,194782,1,0,0:0:0:0:
192,192,194782,1,0,0:0:0:0:
192,192,194927,1,0,0:0:0:0:
64,192,194927,1,0,0:0:0:0:
320,192,195072,1,0,0:0:0:0:
192,192,195072,1,0,0:0:0:0:
448,192,195072,1,0,0:0:0:0:
448,192,195217,1,0,0:0:0:0:
320,192,195217,1,0,0:0:0:0:
64,192,195362,1,0,0:0:0:0:
448,192,195362,1,0,0:0:0:0:
192,192,195362,1,0,0:0:0:0:
320,192,195507,1,0,0:0:0:0:
64,192,195507,1,0,0:0:0:0:
192,192,195652,1,0,0:0:0:0:
448,192,195652,1,0,0:0:0:0:
320,192,195652,1,0,0:0:0:0:
448,192,195797,1,0,0:0:0:0:
320,192,195797,1,0,0:0:0:0:
320,192,195942,1,0,0:0:0:0:
192,192,195942,1,0,0:0:0:0:
448,192,195942,1,0,0:0:0:0:
64,192,195942,1,0,0:0:0:0:
192,192,196086,1,0,0:0:0:0:
64,192,196086,1,0,0:0:0:0:
448,192,196231,1,0,0:0:0:0:
320,192,196231,1,0,0:0:0:0:
64,192,196231,1,0,0:0:0:0:
320,192,196376,1,0,0:0:0:0:
192,192,196376,1,0,0:0:0:0:
64,192,196521,1,0,0:0:0:0:
192,192,196521,1,0,0:0:0:0:
448,192,196521,1,0,0:0:0:0:
320,192,196594,1,0,0:0:0:0:
448,192,196666,1,0,0:0:0:0:
64,192,196666,1,0,0:0:0:0:
192,192,196739,1,0,0:0:0:0:
448,192,196811,1,0,0:0:0:0:
320,192,196811,1,0,0:0:0:0:
192,192,196884,1,0,0:0:0:0:
448,192,196956,1,0,0:0:0:0:
64,192,196956,1,0,0:0:0:0:
320,192,197028,1,0,0:0:0:0:
448,192,197101,1,0,0:0:0:0:
64,192,197101,1,0,0:0:0:0:
192,192,197101,1,0,0:0:0:0:
320,192,197246,1,0,0:0:0:0:
64,192,197391,1,0,0:0:0:0:
448,192,197391,1,0,0:0:0:0:
320,192,197391,1,0,0:0:0:0:
192,192,197536,1,0,0:0:0:0:
448,192,197681,1,0,0:0:0:0:
64,192,197681,1,0,0:0:0:0:
192,192,197681,1,0,0:0:0:0:
448,192,197826,1,0,0:0:0:0:
64,192,197971,1,0,0:0:0:0:
448,192,197971,1,0,0:0:0:0:
192,192,197971,1,0,0:0:0:0:
64,192,198115,1,0,0:0:0:0:
320,192,198260,1,0,0:0:0:0:
448,192,198260,1,0,0:0:0:0:
64,192,198260,1,0,0:0:0:0:
192,192,198405,1,0,0:0:0:0:
64,192,198550,1,0,0:0:0:0:
448,192,198550,1,0,0:0:0:0:
192,192,198550,1,0,0:0:0:0:
192,192,198695,1,0,0:0:0:0:
320,192,198695,1,0,0:0:0:0:
448,192,198840,1,0,0:0:0:0:
320,192,198876,1,0,0:0:0:0:
192,192,198913,1,0,0:0:0:0:
64,192,198949,1,0,0:0:0:0:
448,192,198985,1,0,0:0:0:0:
320,192,199021,1,0,0:0:0:0:
192,192,199057,1,0,0:0:0:0:
64,192,199094,1,0,0:0:0:0:
448,192,199130,1,0,0:0:0:0:
320,192,199166,1,0,0:0:0:0:
64,192,199202,1,0,0:0:0:0:
192,192,199239,1,0,0:0:0:0:
320,192,199275,1,0,0:0:0:0:
448,192,199311,1,0,0:0:0:0:
64,192,199347,1,0,0:0:0:0:
192,192,199384,1,0,0:0:0:0:
320,192,199420,1,0,0:0:0:0:
448,192,199420,1,0,0:0:0:0:
320,192,199565,1,0,0:0:0:0:
64,192,199565,1,0,0:0:0:0:
448,192,199710,1,0,0:0:0:0:
192,192,199710,1,0,0:0:0:0:
64,192,199710,1,0,0:0:0:0:
192,192,199855,1,0,0:0:0:0:
320,192,199855,1,0,0:0:0:0:
448,192,199999,1,0,0:0:0:0:
64,192,199999,1,0,0:0:0:0:
320,192,199999,1,0,0:0:0:0:
192,192,200144,1,0,0:0:0:0:
320,192,200144,1,0,0:0:0:0:
64,192,200289,1,0,0:0:0:0:
320,192,200289,1,0,0:0:0:0:
192,192,200289,1,0,0:0:0:0:
192,192,200434,1,0,0:0:0:0:
448,192,200434,1,0,0:0:0:0:
448,192,200579,1,0,0:0:0:0:
320,192,200579,1,0,0:0:0:0:
64,192,200579,1,0,0:0:0:0:
192,192,200579,1,0,0:0:0:0:
448,192,200724,1,0,0:0:0:0:
64,192,200724,1,0,0:0:0:0:
64,192,200869,1,0,0:0:0:0:
320,192,200869,1,0,0:0:0:0:
192,192,200869,1,0,0:0:0:0:
192,192,201014,1,0,0:0:0:0:
448,192,201014,1,0,0:0:0:0:
192,192,201159,1,0,0:0:0:0:
64,192,201159,1,0,0:0:0:0:
448,192,201159,1,0,0:0:0:0:
64,192,201304,1,0,0:0:0:0:
320,192,201304,1,0,0:0:0:0:
448,192,201449,1,0,0:0:0:0:
64,192,201449,1,0,0:0:0:0:
192,192,201449,1,0,0:0:0:0:
192,192,201594,1,0,0:0:0:0:
320,192,201594,1,0,0:0:0:0:
64,192,201739,1,0,0:0:0:0:
320,192,201739,1,0,0:0:0:0:
192,192,201739,1,0,0:0:0:0:
448,192,201739,1,0,0:0:0:0:
192,192,201884,1,0,0:0:0:0:
64,192,201884,1,0,0:0:0:0:
192,192,202028,1,0,0:0:0:0:
448,192,202028,1,0,0:0:0:0:
320,192,202028,1,0,0:0:0:0:
320,192,202173,1,0,0:0:0:0:
64,192,202173,1,0,0:0:0:0:
448,192,202318,1,0,0:0:0:0:
192,192,202318,1,0,0:0:0:0:
64,192,202318,1,0,0:0:0:0:
448,192,202463,1,0,0:0:0:0:
64,192,202463,1,0,0:0:0:0:
320,192,202608,1,0,0:0:0:0:
192,192,202608,1,0,0:0:0:0:
448,192,202608,1,0,0:0:0:0:
64,192,202753,1,0,0:0:0:0:
192,192,202753,1,0,0:0:0:0:
64,192,202898,1,0,0:0:0:0:
448,192,202898,1,0,0:0:0:0:
192,192,202898,1,0,0:0:0:0:
320,192,202898,1,0,0:0:0:0:
192,192,203043,1,0,0:0:0:0:
320,192,203043,1,0,0:0:0:0:
64,192,203188,1,0,0:0:0:0:
320,192,203188,1,0,0:0:0:0:
448,192,203188,1,0,0:0:0:0:
448,192,203333,1,0,0:0:0:0:
192,192,203333,1,0,0:0:0:0:
64,192,203333,1,0,0:0:0:0:
320,192,203478,1,0,0:0:0:0:
448,192,203478,1,0,0:0:0:0:
192,192,203550,1,0,0:0:0:0:
64,192,203550,1,0,0:0:0:0:
320,192,203623,1,0,0:0:0:0:
448,192,203623,1,0,0:0:0:0:
192,192,203695,1,0,0:0:0:0:
64,192,203695,1,0,0:0:0:0:
448,192,203768,1,0,0:0:0:0:
320,192,203768,1,0,0:0:0:0:
192,192,203840,1,0,0:0:0:0:
64,192,203840,1,0,0:0:0:0:
320,192,203913,1,0,0:0:0:0:
448,192,203913,1,0,0:0:0:0:
192,192,203985,1,0,0:0:0:0:
64,192,204057,1,0,0:0:0:0:
448,192,204057,1,0,0:0:0:0:
320,192,204057,1,0,0:0:0:0:
192,192,204202,1,0,0:0:0:0:
320,192,204202,1,0,0:0:0:0:
448,192,204347,1,0,0:0:0:0:
192,192,204347,1,0,0:0:0:0:
64,192,204347,1,0,0:0:0:0:
64,192,204492,1,0,0:0:0:0:
320,192,204492,1,0,0:0:0:0:
320,192,204637,1,0,0:0:0:0:
64,192,204637,1,0,0:0:0:0:
192,192,204637,1,0,0:0:0:0:
448,192,204782,1,0,0:0:0:0:
192,192,204782,1,0,0:0:0:0:
320,192,204927,1,0,0:0:0:0:
192,192,204927,1,0,0:0:0:0:
448,192,204927,1,0,0:0:0:0:
64,192,205072,1,0,0:0:0:0:
320,192,205072,1,0,0:0:0:0:
192,192,205217,1,0,0:0:0:0:
448,192,205217,1,0,0:0:0:0:
64,192,205217,1,0,0:0:0:0:
320,192,205217,1,0,0:0:0:0:
320,192,205362,1,0,0:0:0:0:
192,192,205362,1,0,0:0:0:0:
320,192,205507,1,0,0:0:0:0:
64,192,205507,1,0,0:0:0:0:
448,192,205507,1,0,0:0:0:0:
320,192,205652,1,0,0:0:0:0:
448,192,205652,1,0,0:0:0:0:
192,192,205797,1,0,0:0:0:0:
64,192,205797,1,0,0:0:0:0:
448,192,205797,1,0,0:0:0:0:
320,192,205942,1,0,0:0:0:0:
192,192,205942,1,0,0:0:0:0:
448,192,206086,1,0,0:0:0:0:
64,192,206086,1,0,0:0:0:0:
192,192,206086,1,0,0:0:0:0:
192,192,206231,1,0,0:0:0:0:
320,192,206231,1,0,0:0:0:0:
320,192,206376,1,0,0:0:0:0:
448,192,206376,1,0,0:0:0:0:
64,192,206376,1,0,0:0:0:0:
192,192,206376,1,0,0:0:0:0:
320,192,206521,1,0,0:0:0:0:
448,192,206521,1,0,0:0:0:0:
448,192,206666,1,0,0:0:0:0:
320,192,206666,1,0,0:0:0:0:
192,192,206666,1,0,0:0:0:0:
192,192,206811,1,0,0:0:0:0:
320,192,206811,1,0,0:0:0:0:
64,192,206956,1,0,0:0:0:0:
320,192,206956,1,0,0:0:0:0:
320,192,207101,1,0,0:0:0:0:
64,192,207101,1,0,0:0:0:0:
448,192,207101,1,0,0:0:0:0:
192,192,207246,1,0,0:0:0:0:
448,192,207246,1,0,0:0:0:0:
192,192,207391,1,0,0:0:0:0:
320,192,207391,1,0,0:0:0:0:
448,192,207536,1,0,0:0:0:0:
320,192,207572,1,0,0:0:0:0:
64,192,207608,1,0,0:0:0:0:
192,192,207644,1,0,0:0:0:0:
448,192,207681,1,0,0:0:0:0:
320,192,207717,1,0,0:0:0:0:
64,192,207753,1,0,0:0:0:0:
192,192,207789,1,0,0:0:0:0:
448,192,207826,1,0,0:0:0:0:
320,192,207862,1,0,0:0:0:0:
64,192,207898,1,0,0:0:0:0:
192,192,207934,1,0,0:0:0:0:
448,192,207971,1,0,0:0:0:0:
320,192,208007,1,0,0:0:0:0:
64,192,208043,1,0,0:0:0:0:
192,192,208079,1,0,0:0:0:0:
320,192,208115,1,0,0:0:0:0:
448,192,208152,1,0,0:0:0:0:
192,192,208188,1,0,0:0:0:0:
64,192,208224,1,0,0:0:0:0:
320,192,208260,1,0,0:0:0:0:
448,192,208297,1,0,0:0:0:0:
192,192,208333,1,0,0:0:0:0:
64,192,208369,1,0,0:0:0:0:
320,192,208405,1,0,0:0:0:0:
448,192,208442,1,0,0:0:0:0:
192,192,208478,1,0,0:0:0:0:
64,192,208514,1,0,0:0:0:0:
320,192,208550,1,0,0:0:0:0:
448,192,208586,1,0,0:0:0:0:
192,192,208623,1,0,0:0:0:0:
64,192,208659,1,0,0:0:0:0:
448,192,208695,1,0,0:0:0:0:
320,192,208695,1,0,0:0:0:0:
64,192,208840,1,0,0:0:0:0:
192,192,208840,1,0,0:0:0:0:
320,192,208985,1,0,0:0:0:0:
192,192,208985,1,0,0:0:0:0:
448,192,208985,1,0,0:0:0:0:
448,192,209130,1,0,0:0:0:0:
64,192,209130,1,0,0:0:0:0:
320,192,209275,1,0,0:0:0:0:
64,192,209275,1,0,0:0:0:0:
192,192,209275,1,0,0:0:0:0:
192,192,209420,1,0,0:0:0:0:
448,192,209420,1,0,0:0:0:0:
64,192,209565,1,0,0:0:0:0:
320,192,209565,1,0,0:0:0:0:
448,192,209565,1,0,0:0:0:0:
320,192,209710,1,0,0:0:0:0:
192,192,209710,1,0,0:0:0:0:
448,192,209855,1,0,0:0:0:0:
192,192,209855,1,0,0:0:0:0:
64,192,209855,1,0,0:0:0:0:
320,192,209855,1,0,0:0:0:0:
448,192,209999,1,0,0:0:0:0:
192,192,209999,1,0,0:0:0:0:
64,192,210144,1,0,0:0:0:0:
320,192,210144,1,0,0:0:0:0:
448,192,210144,1,0,0:0:0:0:
320,192,210289,1,0,0:0:0:0:
64,192,210289,1,0,0:0:0:0:
448,192,210434,1,0,0:0:0:0:
192,192,210434,1,0,0:0:0:0:
64,192,210434,1,0,0:0:0:0:
320,192,210579,1,0,0:0:0:0:
192,192,210579,1,0,0:0:0:0:
64,192,210724,1,0,0:0:0:0:
320,192,210724,1,0,0:0:0:0:
448,192,210724,1,0,0:0:0:0:
448,192,210869,1,0,0:0:0:0:
192,192,210869,1,0,0:0:0:0:
64,192,211014,1,0,0:0:0:0:
448,192,211014,1,0,0:0:0:0:
320,192,211014,1,0,0:0:0:0:
192,192,211014,1,0,0:0:0:0:
64,192,211159,1,0,0:0:0:0:
320,192,211159,1,0,0:0:0:0:
64,192,211304,1,0,0:0:0:0:
448,192,211304,1,0,0:0:0:0:
192,192,211304,1,0,0:0:0:0:
320,192,211449,1,0,0:0:0:0:
64,192,211449,1,0,0:0:0:0:
320,192,211594,1,0,0:0:0:0:
448,192,211594,1,0,0:0:0:0:
192,192,211594,1,0,0:0:0:0:
448,192,211739,1,0,0:0:0:0:
192,192,211739,1,0,0:0:0:0:
64,192,211884,1,0,0:0:0:0:
448,192,211884,1,0,0:0:0:0:
320,192,211884,1,0,0:0:0:0:
64,192,212028,1,0,0:0:0:0:
192,192,212028,1,0,0:0:0:0:
192,192,212173,1,0,0:0:0:0:
64,192,212173,1,0,0:0:0:0:
448,192,212173,1,0,0:0:0:0:
320,192,212173,1,0,0:0:0:0:
320,192,212318,1,0,0:0:0:0:
448,192,212318,1,0,0:0:0:0:
192,192,212463,1,0,0:0:0:0:
64,192,212463,1,0,0:0:0:0:
448,192,212463,1,0,0:0:0:0:
320,192,212608,1,0,0:0:0:0:
192,192,212608,1,0,0:0:0:0:
448,192,212753,1,0,0:0:0:0:
64,192,212753,1,0,0:0:0:0:
192,192,212753,1,0,0:0:0:0:
320,192,212898,1,0,0:0:0:0:
64,192,212898,1,0,0:0:0:0:
192,192,212971,1,0,0:0:0:0:
320,192,213043,1,0,0:0:0:0:
448,192,213043,1,0,0:0:0:0:
64,192,213043,1,0,0:0:0:0:
64,192,213188,1,0,0:0:0:0:
192,192,213224,1,0,0:0:0:0:
320,192,213260,1,0,0:0:0:0:
448,192,213297,1,0,0:0:0:0:
64,192,213333,1,0,0:0:0:0:
192,192,213333,1,0,0:0:0:0:
448,192,213478,1,0,0:0:0:0:
320,192,213478,1,0,0:0:0:0:
192,192,213623,1,0,0:0:0:0:
64,192,213623,1,0,0:0:0:0:
320,192,213623,1,0,0:0:0:0:
64,192,213768,1,0,0:0:0:0:
448,192,213768,1,0,0:0:0:0:
192,192,213913,1,0,0:0:0:0:
448,192,213913,1,0,0:0:0:0:
64,192,213913,1,0,0:0:0:0:
320,192,214057,1,0,0:0:0:0:
192,192,214057,1,0,0:0:0:0:
64,192,214202,1,0,0:0:0:0:
448,192,214202,1,0,0:0:0:0:
320,192,214202,1,0,0:0:0:0:
192,192,214347,1,0,0:0:0:0:
448,192,214347,1,0,0:0:0:0:
320,192,214492,1,0,0:0:0:0:
448,192,214492,1,0,0:0:0:0:
64,192,214492,1,0,0:0:0:0:
192,192,214492,1,0,0:0:0:0:
192,192,214637,1,0,0:0:0:0:
64,192,214637,1,0,0:0:0:0:
192,192,214782,1,0,0:0:0:0:
320,192,214782,1,0,0:0:0:0:
448,192,214782,1,0,0:0:0:0:
64,192,214927,1,0,0:0:0:0:
448,192,214927,1,0,0:0:0:0:
192,192,215072,1,0,0:0:0:0:
64,192,215072,1,0,0:0:0:0:
320,192,215072,1,0,0:0:0:0:
448,192,215217,1,0,0:0:0:0:
320,192,215217,1,0,0:0:0:0:
192,192,215362,1,0,0:0:0:0:
64,192,215362,1,0,0:0:0:0:
448,192,215362,1,0,0:0:0:0:
448,192,215507,1,0,0:0:0:0:
320,192,215507,1,0,0:0:0:0:
64,192,215652,1,0,0:0:0:0:
192,192,215652,1,0,0:0:0:0:
448,192,215652,1,0,0:0:0:0:
320,192,215652,1,0,0:0:0:0:
192,192,215797,1,0,0:0:0:0:
448,192,215942,1,0,0:0:0:0:
320,192,216086,1,0,0:0:0:0:
192,192,216231,1,0,0:0:0:0:
64,192,216231,1,0,0:0:0:0:
448,192,216231,1,0,0:0:0:0:
320,192,216376,1,0,0:0:0:0:
64,192,216521,1,0,0:0:0:0:
448,192,216666,1,0,0:0:0:0:
192,192,216811,1,0,0:0:0:0:
320,192,216811,1,0,0:0:0:0:
64,192,216956,1,0,0:0:0:0:
320,192,217101,1,0,0:0:0:0:
192,192,217246,1,0,0:0:0:0:
320,192,217391,1,0,0:0:0:0:
448,192,217391,1,0,0:0:0:0:
64,192,217391,1,0,0:0:0:0:
192,192,217439,1,0,0:0:0:0:
320,192,217487,1,0,0:0:0:0:
448,192,217536,1,0,0:0:0:0:
64,192,217584,1,0,0:0:0:0:
192,192,217632,1,0,0:0:0:0:
320,192,217681,1,0,0:0:0:0:
448,192,217729,1,0,0:0:0:0:
64,192,217777,1,0,0:0:0:0:
192,192,217826,1,0,0:0:0:0:
320,192,217874,1,0,0:0:0:0:
448,192,217922,1,0,0:0:0:0:
64,192,217971,1,0,0:0:0:0:
192,192,218007,1,0,0:0:0:0:
448,192,218043,1,0,0:0:0:0:
320,192,218079,1,0,0:0:0:0:
192,192,218115,1,0,0:0:0:0:
64,192,218152,1,0,0:0:0:0:
448,192,218188,1,0,0:0:0:0:
320,192,218224,1,0,0:0:0:0:
192,192,218260,1,0,0:0:0:0:
448,192,218297,1,0,0:0:0:0:
64,192,218333,1,0,0:0:0:0:
320,192,218369,1,0,0:0:0:0:
192,192,218405,1,0,0:0:0:0:
448,192,218442,1,0,0:0:0:0:
64,192,218478,1,0,0:0:0:0:
192,192,218514,1,0,0:0:0:0:
320,192,218550,1,0,0:0:0:0:
448,192,218550,1,0,0:0:0:0:
64,192,218623,1,0,0:0:0:0:
192,192,218623,1,0,0:0:0:0:
320,192,218695,1,0,0:0:0:0:
448,192,218695,1,0,0:0:0:0:
192,192,218768,1,0,0:0:0:0:
64,192,218768,1,0,0:0:0:0:
320,192,218840,1,0,0:0:0:0:
448,192,218840,1,0,0:0:0:0:
192,192,218913,1,0,0:0:0:0:
64,192,218913,1,0,0:0:0:0:
320,192,218985,1,0,0:0:0:0:
448,192,218985,1,0,0:0:0:0:
64,192,219057,1,0,0:0:0:0:
192,192,219057,1,0,0:0:0:0:
320,192,219130,1,0,0:0:0:0:
448,192,219130,1,0,0:0:0:0:
320,192,219275,1,0,0:0:0:0:
192,192,219275,1,0,0:0:0:0:
192,192,219420,1,0,0:0:0:0:
64,192,219420,1,0,0:0:0:0:
448,192,219420,1,0,0:0:0:0:
448,192,219565,1,0,0:0:0:0:
320,192,219565,1,0,0:0:0:0:
64,192,219565,1,0,0:0:0:0:
192,192,219710,1,0,0:0:0:0:
64,192,219710,1,0,0:0:0:0:
448,192,219710,1,0,0:0:0:0:
320,192,219710,1,0,0:0:0:0:
448,192,219855,1,0,0:0:0:0:
320,192,219999,1,0,0:0:0:0:
192,192,219999,1,0,0:0:0:0:
64,192,220144,1,0,0:0:0:0:
448,192,220289,1,0,0:0:0:0:
192,192,220289,1,0,0:0:0:0:
64,192,220434,1,0,0:0:0:0:
320,192,220434,1,0,0:0:0:0:
320,192,220579,1,0,0:0:0:0:
448,192,220579,1,0,0:0:0:0:
192,192,220652,1,0,0:0:0:0:
64,192,220724,1,0,0:0:0:0:
320,192,220724,1,0,0:0:0:0:
192,192,220797,1,0,0:0:0:0:
64,192,220869,1,0,0:0:0:0:
448,192,220869,1,0,0:0:0:0:
320,192,220869,1,0,0:0:0:0:
192,192,221014,1,0,0:0:0:0:
64,192,221014,1,0,0:0:0:0:
448,192,221159,1,0,0:0:0:0:
320,192,221159,1,0,0:0:0:0:
192,192,221304,1,0,0:0:0:0:
64,192,221304,1,0,0:0:0:0:
320,192,221449,1,0,0:0:0:0:
448,192,221449,1,0,0:0:0:0:
64,192,221594,1,0,0:0:0:0:
320,192,221594,1,0,0:0:0:0:
448,192,221739,1,0,0:0:0:0:
192,192,221739,1,0,0:0:0:0:
192,192,221884,1,0,0:0:0:0:
320,192,221884,1,0,0:0:0:0:
448,192,222028,1,0,0:0:0:0:
64,192,222028,1,0,0:0:0:0:
192,192,222028,1,0,0:0:0:0:
320,192,222028,1,0,0:0:0:0:
320,192,222173,1,0,0:0:0:0:
448,192,222173,1,0,0:0:0:0:
192,192,222246,1,0,0:0:0:0:
64,192,222246,1,0,0:0:0:0:
320,192,222318,1,0,0:0:0:0:
448,192,222318,1,0,0:0:0:0:
448,192,222463,1,0,0:0:0:0:
320,192,222499,1,0,0:0:0:0:
192,192,222536,1,0,0:0:0:0:
64,192,222572,1,0,0:0:0:0:
320,192,222608,1,0,0:0:0:0:
448,192,222608,1,0,0:0:0:0:
192,192,222753,1,0,0:0:0:0:
320,192,222753,1,0,0:0:0:0:
64,192,222898,1,0,0:0:0:0:
448,192,222898,1,0,0:0:0:0:
192,192,222898,1,0,0:0:0:0:
320,192,223043,1,0,0:0:0:0:
192,192,223043,1,0,0:0:0:0:
192,192,223188,1,0,0:0:0:0:
64,192,223188,1,0,0:0:0:0:
448,192,223188,1,0,0:0:0:0:
320,192,223188,1,0,0:0:0:0:
448,192,223333,1,0,0:0:0:0:
320,192,223333,1,0,0:0:0:0:
64,192,223478,1,0,0:0:0:0:
448,192,223478,1,0,0:0:0:0:
320,192,223623,1,0,0:0:0:0:
192,192,223623,1,0,0:0:0:0:
448,192,223768,1,0,0:0:0:0:
64,192,223768,1,0,0:0:0:0:
192,192,223913,1,0,0:0:0:0:
320,192,223913,1,0,0:0:0:0:
320,192,224057,1,0,0:0:0:0:
448,192,224057,1,0,0:0:0:0:
64,192,224202,1,0,0:0:0:0:
192,192,224202,1,0,0:0:0:0:
448,192,224347,1,0,0:0:0:0:
320,192,224347,1,0,0:0:0:0:
64,192,224347,1,0,0:0:0:0:
192,192,224347,1,0,0:0:0:0:
192,192,224492,1,0,0:0:0:0:
448,192,224492,1,0,0:0:0:0:
320,192,224637,1,0,0:0:0:0:
64,192,224637,1,0,0:0:0:0:
64,192,224782,1,0,0:0:0:0:
192,192,224782,1,0,0:0:0:0:
448,192,224927,1,0,0:0:0:0:
320,192,224963,1,0,0:0:0:0:
192,192,224999,1,0,0:0:0:0:
64,192,225036,1,0,0:0:0:0:
448,192,225072,1,0,0:0:0:0:
320,192,225108,1,0,0:0:0:0:
192,192,225144,1,0,0:0:0:0:
64,192,225181,1,0,0:0:0:0:
448,192,225217,1,0,0:0:0:0:
320,192,225253,1,0,0:0:0:0:
192,192,225289,1,0,0:0:0:0:
64,192,225326,1,0,0:0:0:0:
448,192,225362,1,0,0:0:0:0:
320,192,225362,1,0,0:0:0:0:
64,192,225507,1,0,0:0:0:0:
192,192,225543,1,0,0:0:0:0:
320,192,225579,1,0,0:0:0:0:
448,192,225615,1,0,0:0:0:0:
64,192,225652,1,0,0:0:0:0:
192,192,225688,1,0,0:0:0:0:
320,192,225724,1,0,0:0:0:0:
448,192,225760,1,0,0:0:0:0:
64,192,225797,1,0,0:0:0:0:
192,192,225833,1,0,0:0:0:0:
320,192,225869,1,0,0:0:0:0:
448,192,225905,1,0,0:0:0:0:
192,192,225942,1,0,0:0:0:0:
64,192,225942,1,0,0:0:0:0:
448,192,226086,1,0,0:0:0:0:
320,192,226123,1,0,0:0:0:0:
64,192,226159,1,0,0:0:0:0:
192,192,226195,1,0,0:0:0:0:
448,192,226231,1,0,0:0:0:0:
320,192,226268,1,0,0:0:0:0:
64,192,226304,1,0,0:0:0:0:
192,192,226340,1,0,0:0:0:0:
448,192,226376,1,0,0:0:0:0:
320,192,226413,1,0,0:0:0:0:
64,192,226449,1,0,0:0:0:0:
192,192,226485,1,0,0:0:0:0:
448,192,226521,1,0,0:0:0:0:
320,192,226557,1,0,0:0:0:0:
192,192,226594,1,0,0:0:0:0:
64,192,226630,1,0,0:0:0:0:
448,192,226666,1,0,0:0:0:0:
320,192,226666,1,0,0:0:0:0:
192,192,226956,1,0,0:0:0:0:
320,192,226956,1,0,0:0:0:0:
64,192,227246,1,0,0:0:0:0:
448,192,227246,1,0,0:0:0:0:
320,192,227391,1,0,0:0:0:0:
64,192,227536,1,0,0:0:0:0:
192,192,227536,1,0,0:0:0:0:
320,192,227681,1,0,0:0:0:0:
448,192,227826,1,0,0:0:0:0:
192,192,227826,1,0,0:0:0:0:
64,192,227971,1,0,0:0:0:0:
320,192,227971,1,0,0:0:0:0:
320,192,228115,1,0,0:0:0:0:
192,192,228115,1,0,0:0:0:0:
448,192,228260,1,0,0:0:0:0:
320,192,228260,1,0,0:0:0:0:
192,192,228405,1,0,0:0:0:0:
64,192,228405,1,0,0:0:0:0:
448,192,228405,1,0,0:0:0:0:
320,192,228550,1,0,0:0:0:0:
64,192,228550,1,0,0:0:0:0:
448,192,228695,1,0,0:0:0:0:
192,192,228695,1,0,0:0:0:0:
192,192,228840,1,0,0:0:0:0:
320,192,228840,1,0,0:0:0:0:
64,192,228985,1,0,0:0:0:0:
320,192,228985,1,0,0:0:0:0:
448,192,228985,1,0,0:0:0:0:
192,192,228985,1,0,0:0:0:0:
192,192,229275,1,0,0:0:0:0:
448,192,229275,1,0,0:0:0:0:
64,192,229275,1,0,0:0:0:0:
448,192,229565,1,0,0:0:0:0:
64,192,229565,1,0,0:0:0:0:
192,192,229710,1,0,0:0:0:0:
320,192,229710,1,0,0:0:0:0:
192,192,229855,1,0,0:0:0:0:
448,192,229855,1,0,0:0:0:0:
320,192,229927,1,0,0:0:0:0:
64,192,229999,1,0,0:0:0:0:
448,192,229999,1,0,0:0:0:0:
192,192,230072,1,0,0:0:0:0:
192,192,230144,1,0,0:0:0:0:
448,192,230144,1,0,0:0:0:0:
64,192,230144,1,0,0:0:0:0:
320,192,230144,1,0,0:0:0:0:
320,192,230289,1,0,0:0:0:0:
448,192,230289,1,0,0:0:0:0:
64,192,230434,1,0,0:0:0:0:
320,192,230434,1,0,0:0:0:0:
448,192,230579,1,0,0:0:0:0:
192,192,230579,1,0,0:0:0:0:
320,192,230724,1,0,0:0:0:0:
192,192,230724,1,0,0:0:0:0:
448,192,230869,1,0,0:0:0:0:
64,192,230869,1,0,0:0:0:0:
64,192,231014,1,0,0:0:0:0:
192,192,231014,1,0,0:0:0:0:
320,192,231159,1,0,0:0:0:0:
448,192,231159,1,0,0:0:0:0:
192,192,231304,1,0,0:0:0:0:
320,192,231304,1,0,0:0:0:0:
64,192,231304,1,0,0:0:0:0:
448,192,231304,1,0,0:0:0:0:
448,192,231449,1,0,0:0:0:0:
320,192,231485,1,0,0:0:0:0:
192,192,231521,1,0,0:0:0:0:
64,192,231557,1,0,0:0:0:0:
448,192,231594,1,0,0:0:0:0:
320,192,231594,1,0,0:0:0:0:
64,192,231739,1,0,0:0:0:0:
192,192,231775,1,0,0:0:0:0:
320,192,231811,1,0,0:0:0:0:
448,192,231847,1,0,0:0:0:0:
192,192,231884,1,0,0:0:0:0:
64,192,231884,1,0,0:0:0:0:
192,192,232028,1,0,0:0:0:0:
320,192,232028,1,0,0:0:0:0:
320,192,232173,1,0,0:0:0:0:
448,192,232173,1,0,0:0:0:0:
64,192,232173,1,0,0:0:0:0:
192,192,232318,1,0,0:0:0:0:
64,192,232318,1,0,0:0:0:0:
192,192,232463,1,0,0:0:0:0:
320,192,232463,1,0,0:0:0:0:
448,192,232463,1,0,0:0:0:0:
64,192,232463,1,0,0:0:0:0:
448,192,232608,1,0,0:0:0:0:
320,192,232608,1,0,0:0:0:0:
192,192,232753,1,0,0:0:0:0:
320,192,232753,1,0,0:0:0:0:
64,192,232753,1,0,0:0:0:0:
192,192,232898,1,0,0:0:0:0:
64,192,232898,1,0,0:0:0:0:
448,192,233043,1,0,0:0:0:0:
320,192,233043,1,0,0:0:0:0:
64,192,233043,1,0,0:0:0:0:
320,192,233188,1,0,0:0:0:0:
192,192,233188,1,0,0:0:0:0:
192,192,233333,1,0,0:0:0:0:
64,192,233333,1,0,0:0:0:0:
448,192,233333,1,0,0:0:0:0:
64,192,233478,1,0,0:0:0:0:
320,192,233478,1,0,0:0:0:0:
448,192,233623,1,0,0:0:0:0:
64,192,233623,1,0,0:0:0:0:
320,192,233623,1,0,0:0:0:0:
192,192,233623,1,0,0:0:0:0:
320,192,233768,1,0,0:0:0:0:
448,192,233768,1,0,0:0:0:0:
64,192,233913,1,0,0:0:0:0:
448,192,233913,1,0,0:0:0:0:
192,192,233913,1,0,0:0:0:0:
320,192,234057,1,0,0:0:0:0:
64,192,234057,1,0,0:0:0:0:
192,192,234202,1,0,0:0:0:0:
448,192,234202,1,0,0:0:0:0:
320,192,234202,1,0,0:0:0:0:
64,192,234347,1,0,0:0:0:0:
320,192,234347,1,0,0:0:0:0:
64,192,234492,1,0,0:0:0:0:
448,192,234492,1,0,0:0:0:0:
192,192,234492,1,0,0:0:0:0:
64,192,234637,1,0,0:0:0:0:
320,192,234637,1,0,0:0:0:0:
192,192,234710,1,0,0:0:0:0:
320,192,234782,1,0,0:0:0:0:
64,192,234782,1,0,0:0:0:0:
448,192,234782,1,0,0:0:0:0:
192,192,234855,1,0,0:0:0:0:
448,192,234927,1,0,0:0:0:0:
64,192,234927,1,0,0:0:0:0:
320,192,235072,1,0,0:0:0:0:
448,192,235072,1,0,0:0:0:0:
64,192,235072,1,0,0:0:0:0:
320,192,235217,1,0,0:0:0:0:
192,192,235217,1,0,0:0:0:0:
64,192,235362,1,0,0:0:0:0:
192,192,235398,1,0,0:0:0:0:
320,192,235434,1,0,0:0:0:0:
448,192,235471,1,0,0:0:0:0:
64,192,235507,1,0,0:0:0:0:
192,192,235543,1,0,0:0:0:0:
320,192,235579,1,0,0:0:0:0:
448,192,235615,1,0,0:0:0:0:
64,192,235652,1,0,0:0:0:0:
192,192,235688,1,0,0:0:0:0:
320,192,235724,1,0,0:0:0:0:
448,192,235760,1,0,0:0:0:0:
64,192,235797,1,0,0:0:0:0:
192,192,235833,1,0,0:0:0:0:
320,192,235869,1,0,0:0:0:0:
448,192,235905,1,0,0:0:0:0:
192,192,235942,1,0,0:0:0:0:
64,192,235942,1,0,0:0:0:0:
448,192,236014,1,0,0:0:0:0:
320,192,236014,1,0,0:0:0:0:
192,192,236086,1,0,0:0:0:0:
64,192,236086,1,0,0:0:0:0:
448,192,236159,1,0,0:0:0:0:
320,192,236159,1,0,0:0:0:0:
64,192,236231,1,0,0:0:0:0:
192,192,236231,1,0,0:0:0:0:
320,192,236304,1,0,0:0:0:0:
448,192,236304,1,0,0:0:0:0:
64,192,236376,1,0,0:0:0:0:
192,192,236376,1,0,0:0:0:0:
320,192,236449,1,0,0:0:0:0:
448,192,236449,1,0,0:0:0:0:
192,192,236521,1,0,0:0:0:0:
64,192,236521,1,0,0:0:0:0:
64,192,236666,1,0,0:0:0:0:
192,192,236666,1,0,0:0:0:0:
320,192,236666,1,0,0:0:0:0:
320,192,236811,1,0,0:0:0:0:
192,192,236811,1,0,0:0:0:0:
64,192,236956,1,0,0:0:0:0:
320,192,236956,1,0,0:0:0:0:
448,192,236956,1,0,0:0:0:0:
192,192,237101,1,0,0:0:0:0:
448,192,237101,1,0,0:0:0:0:
320,192,237101,1,0,0:0:0:0:
64,192,237101,1,0,0:0:0:0:
448,192,237246,1,0,0:0:0:0:
64,192,237246,1,0,0:0:0:0:
64,192,237391,1,0,0:0:0:0:
320,192,237391,1,0,0:0:0:0:
192,192,237391,1,0,0:0:0:0:
448,192,237536,1,0,0:0:0:0:
320,192,237536,1,0,0:0:0:0:
192,192,237681,1,0,0:0:0:0:
64,192,237681,1,0,0:0:0:0:
320,192,237826,1,0,0:0:0:0:
448,192,237826,1,0,0:0:0:0:
64,192,237971,1,0,0:0:0:0:
448,192,237971,1,0,0:0:0:0:
192,192,237971,1,0,0:0:0:0:
320,192,238115,1,0,0:0:0:0:
192,192,238115,1,0,0:0:0:0:
64,192,238260,1,0,0:0:0:0:
320,192,238260,1,0,0:0:0:0:
448,192,238260,1,0,0:0:0:0:
192,192,238260,1,0,0:0:0:0:
448,192,238405,1,0,0:0:0:0:
192,192,238405,1,0,0:0:0:0:
320,192,238478,1,0,0:0:0:0:
64,192,238550,1,0,0:0:0:0:
192,192,238550,1,0,0:0:0:0:
448,192,238550,1,0,0:0:0:0:
448,192,238695,1,0,0:0:0:0:
320,192,238731,1,0,0:0:0:0:
192,192,238768,1,0,0:0:0:0:
64,192,238804,1,0,0:0:0:0:
320,192,238840,1,0,0:0:0:0:
448,192,238840,1,0,0:0:0:0:
64,192,238985,1,0,0:0:0:0:
320,192,238985,1,0,0:0:0:0:
192,192,238985,1,0,0:0:0:0:
448,192,239130,1,0,0:0:0:0:
192,192,239130,1,0,0:0:0:0:
64,192,239275,1,0,0:0:0:0:
320,192,239275,1,0,0:0:0:0:
448,192,239275,1,0,0:0:0:0:
64,192,239420,1,0,0:0:0:0:
192,192,239420,1,0,0:0:0:0:
448,192,239420,1,0,0:0:0:0:
320,192,239420,1,0,0:0:0:0:
320,192,239565,1,0,0:0:0:0:
192,192,239565,1,0,0:0:0:0:
64,192,239710,1,0,0:0:0:0:
192,192,239710,1,0,0:0:0:0:
448,192,239710,1,0,0:0:0:0:
320,192,239855,1,0,0:0:0:0:
448,192,239855,1,0,0:0:0:0:
64,192,239999,1,0,0:0:0:0:
192,192,239999,1,0,0:0:0:0:
448,192,240144,1,0,0:0:0:0:
320,192,240144,1,0,0:0:0:0:
64,192,240289,1,0,0:0:0:0:
320,192,240289,1,0,0:0:0:0:
192,192,240289,1,0,0:0:0:0:
448,192,240434,1,0,0:0:0:0:
64,192,240434,1,0,0:0:0:0:
192,192,240579,1,0,0:0:0:0:
448,192,240579,1,0,0:0:0:0:
320,192,240579,1,0,0:0:0:0:
64,192,240579,1,0,0:0:0:0:
64,192,240724,1,0,0:0:0:0:
320,192,240724,1,0,0:0:0:0:
448,192,240869,1,0,0:0:0:0:
320,192,240905,1,0,0:0:0:0:
192,192,240942,1,0,0:0:0:0:
64,192,240978,1,0,0:0:0:0:
448,192,241014,1,0,0:0:0:0:
320,192,241050,1,0,0:0:0:0:
192,192,241086,1,0,0:0:0:0:
64,192,241123,1,0,0:0:0:0:
448,192,241159,1,0,0:0:0:0:
320,192,241159,1,0,0:0:0:0:
64,192,241304,1,0,0:0:0:0:
192,192,241304,1,0,0:0:0:0:
320,192,241304,1,0,0:0:0:0:
448,192,241449,1,0,0:0:0:0:
64,192,241449,1,0,0:0:0:0:
192,192,241594,1,0,0:0:0:0:
320,192,241594,1,0,0:0:0:0:
448,192,241739,1,0,0:0:0:0:
64,192,241739,1,0,0:0:0:0:
192,192,241739,1,0,0:0:0:0:
320,192,241739,1,0,0:0:0:0:
320,192,241884,1,0,0:0:0:0:
192,192,241884,1,0,0:0:0:0:
448,192,242028,1,0,0:0:0:0:
192,192,242028,1,0,0:0:0:0:
64,192,242028,1,0,0:0:0:0:
320,192,242173,1,0,0:0:0:0:
64,192,242173,1,0,0:0:0:0:
448,192,242318,1,0,0:0:0:0:
192,192,242318,1,0,0:0:0:0:
320,192,242463,1,0,0:0:0:0:
192,192,242463,1,0,0:0:0:0:
448,192,242608,1,0,0:0:0:0:
192,192,242608,1,0,0:0:0:0:
64,192,242608,1,0,0:0:0:0:
320,192,242753,1,0,0:0:0:0:
448,192,242753,1,0,0:0:0:0:
64,192,242898,1,0,0:0:0:0:
192,192,242898,1,0,0:0:0:0:
320,192,242898,1,0,0:0:0:0:
448,192,242971,1,0,0:0:0:0:
320,192,243043,1,0,0:0:0:0:
64,192,243043,1,0,0:0:0:0:
192,192,243115,1,0,0:0:0:0:
320,192,243188,1,0,0:0:0:0:
448,192,243188,1,0,0:0:0:0:
64,192,243260,1,0,0:0:0:0:
448,192,243333,1,0,0:0:0:0:
192,192,243333,1,0,0:0:0:0:
320,192,243405,1,0,0:0:0:0:
192,192,243478,1,0,0:0:0:0:
64,192,243478,1,0,0:0:0:0:
320,192,243623,1,0,0:0:0:0:
192,192,243623,1,0,0:0:0:0:
448,192,243623,1,0,0:0:0:0:
192,192,243768,1,0,0:0:0:0:
64,192,243768,1,0,0:0:0:0:
320,192,243913,1,0,0:0:0:0:
192,192,243913,1,0,0:0:0:0:
64,192,244057,1,0,0:0:0:0:
192,192,244057,1,0,0:0:0:0:
448,192,244057,1,0,0:0:0:0:
320,192,244057,1,0,0:0:0:0:
448,192,244202,1,0,0:0:0:0:
320,192,244202,1,0,0:0:0:0:
448,192,244347,1,0,0:0:0:0:
192,192,244347,1,0,0:0:0:0:
64,192,244347,1,0,0:0:0:0:
320,192,244492,1,0,0:0:0:0:
192,192,244492,1,0,0:0:0:0:
448,192,244637,1,0,0:0:0:0:
320,192,244637,1,0,0:0:0:0:
64,192,244637,1,0,0:0:0:0:
64,192,244782,1,0,0:0:0:0:
192,192,244818,1,0,0:0:0:0:
448,192,244855,1,0,0:0:0:0:
320,192,244891,1,0,0:0:0:0:
192,192,244927,1,0,0:0:0:0:
64,192,244927,1,0,0:0:0:0:
448,192,245072,1,0,0:0:0:0:
320,192,245108,1,0,0:0:0:0:
64,192,245144,1,0,0:0:0:0:
192,192,245181,1,0,0:0:0:0:
448,192,245217,1,0,0:0:0:0:
320,192,245217,1,0,0:0:0:0:
64,192,245362,1,0,0:0:0:0:
192,192,245398,1,0,0:0:0:0:
320,192,245434,1,0,0:0:0:0:
448,192,245471,1,0,0:0:0:0:
192,192,245507,1,0,0:0:0:0:
64,192,245507,1,0,0:0:0:0:
448,192,245652,1,0,0:0:0:0:
320,192,245688,1,0,0:0:0:0:
192,192,245724,1,0,0:0:0:0:
64,192,245760,1,0,0:0:0:0:
448,192,245797,1,0,0:0:0:0:
320,192,245797,1,0,0:0:0:0:
192,192,245942,1,0,0:0:0:0:
320,192,245942,1,0,0:0:0:0:
448,192,246086,1,0,0:0:0:0:
64,192,246086,1,0,0:0:0:0:
320,192,246231,1,0,0:0:0:0:
64,192,246231,1,0,0:0:0:0:
448,192,246376,1,0,0:0:0:0:
192,192,246376,1,0,0:0:0:0:
64,192,246376,1,0,0:0:0:0:
320,192,246376,1,0,0:0:0:0:
320,192,246521,1,0,0:0:0:0:
448,192,246521,1,0,0:0:0:0:
192,192,246666,1,0,0:0:0:0:
64,192,246666,1,0,0:0:0:0:
320,192,246811,1,0,0:0:0:0:
192,192,246811,1,0,0:0:0:0:
448,192,246956,1,0,0:0:0:0:
64,192,246956,1,0,0:0:0:0:
320,192,247101,1,0,0:0:0:0:
64,192,247101,1,0,0:0:0:0:
192,192,247246,1,0,0:0:0:0:
448,192,247246,1,0,0:0:0:0:
64,192,247391,1,0,0:0:0:0:
448,192,247391,1,0,0:0:0:0:
320,192,247536,1,0,0:0:0:0:
192,192,247536,1,0,0:0:0:0:
448,192,247536,1,0,0:0:0:0:
64,192,247536,1,0,0:0:0:0:
64,192,247681,1,0,0:0:0:0:
192,192,247826,1,0,0:0:0:0:
448,192,247826,1,0,0:0:0:0:
64,192,247971,1,0,0:0:0:0:
320,192,248115,1,0,0:0:0:0:
192,192,248115,1,0,0:0:0:0:
448,192,248260,1,0,0:0:0:0:
192,192,248260,1,0,0:0:0:0:
320,192,248405,1,0,0:0:0:0:
64,192,248405,1,0,0:0:0:0:
448,192,248405,1,0,0:0:0:0:
192,192,248550,1,0,0:0:0:0:
64,192,248550,1,0,0:0:0:0:
448,192,248695,1,0,0:0:0:0:
320,192,248695,1,0,0:0:0:0:
64,192,248695,1,0,0:0:0:0:
192,192,248695,1,0,0:0:0:0:
192,192,248840,1,0,0:0:0:0:
320,192,248840,1,0,0:0:0:0:
320,192,248985,1,0,0:0:0:0:
64,192,248985,1,0,0:0:0:0:
448,192,249130,1,0,0:0:0:0:
192,192,249130,1,0,0:0:0:0:
192,192,249275,1,0,0:0:0:0:
64,192,249275,1,0,0:0:0:0:
448,192,249420,1,0,0:0:0:0:
320,192,249420,1,0,0:0:0:0:
320,192,249565,1,0,0:0:0:0:
64,192,249565,1,0,0:0:0:0:
192,192,249710,1,0,0:0:0:0:
448,192,249710,1,0,0:0:0:0:
448,192,249855,1,0,0:0:0:0:
320,192,249891,1,0,0:0:0:0:
192,192,249927,1,0,0:0:0:0:
64,192,249963,1,0,0:0:0:0:
448,192,249999,1,0,0:0:0:0:
320,192,250036,1,0,0:0:0:0:
192,192,250072,1,0,0:0:0:0:
64,192,250108,1,0,0:0:0:0:
448,192,250144,1,0,0:0:0:0:
320,192,250181,1,0,0:0:0:0:
192,192,250217,1,0,0:0:0:0:
64,192,250253,1,0,0:0:0:0:
448,192,250289,1,0,0:0:0:0:
320,192,250326,1,0,0:0:0:0:
192,192,250362,1,0,0:0:0:0:
64,192,250398,1,0,0:0:0:0:
320,192,250434,1,0,0:0:0:0:
448,192,250434,1,0,0:0:0:0:
192,192,250579,1,0,0:0:0:0:
448,192,250579,1,0,0:0:0:0:
64,192,250724,1,0,0:0:0:0:
320,192,250724,1,0,0:0:0:0:
192,192,250869,1,0,0:0:0:0:
320,192,250869,1,0,0:0:0:0:
448,192,251014,1,0,0:0:0:0:
64,192,251014,1,0,0:0:0:0:
192,192,251014,1,0,0:0:0:0:
320,192,251014,1,0,0:0:0:0:
192,192,251159,1,0,0:0:0:0:
320,192,251159,1,0,0:0:0:0:
64,192,251304,1,0,0:0:0:0:
448,192,251304,1,0,0:0:0:0:
320,192,251449,1,0,0:0:0:0:
448,192,251449,1,0,0:0:0:0:
192,192,251594,1,0,0:0:0:0:
64,192,251594,1,0,0:0:0:0:
448,192,251739,1,0,0:0:0:0:
192,192,251739,1,0,0:0:0:0:
64,192,251884,1,0,0:0:0:0:
320,192,251884,1,0,0:0:0:0:
192,192,252028,1,0,0:0:0:0:
64,192,252028,1,0,0:0:0:0:
448,192,252173,1,0,0:0:0:0:
320,192,252173,1,0,0:0:0:0:
64,192,252173,1,0,0:0:0:0:
192,192,252173,1,0,0:0:0:0:
320,192,252318,1,0,0:0:0:0:
64,192,252318,1,0,0:0:0:0:
448,192,252318,1,0,0:0:0:0:
64,192,252463,1,0,0:0:0:0:
448,192,252463,1,0,0:0:0:0:
320,192,252608,1,0,0:0:0:0:
192,192,252608,1,0,0:0:0:0:
192,192,252753,1,0,0:0:0:0:
64,192,252753,1,0,0:0:0:0:
320,192,252753,1,0,0:0:0:0:
448,192,252898,1,0,0:0:0:0:
64,192,253043,1,0,0:0:0:0:
320,192,253043,1,0,0:0:0:0:
448,192,253043,1,0,0:0:0:0:
192,192,253188,1,0,0:0:0:0:
448,192,253333,1,0,0:0:0:0:
64,192,253333,1,0,0:0:0:0:
320,192,253333,1,0,0:0:0:0:
192,192,253478,1,0,0:0:0:0:
64,192,253623,1,0,0:0:0:0:
320,192,253623,1,0,0:0:0:0:
192,192,253768,1,0,0:0:0:0:
448,192,253768,1,0,0:0:0:0:
448,192,253913,1,0,0:0:0:0:
64,192,253913,1,0,0:0:0:0:
320,192,254057,1,0,0:0:0:0:
192,192,254057,1,0,0:0:0:0:
64,192,254202,5,0,0:0:0:0:
192,192,254202,1,0,0:0:0:0:
448,192,254202,1,0,0:0:0:0:
448,192,254347,1,0,0:0:0:0:
320,192,254347,1,0,0:0:0:0:
320,192,254492,1,0,0:0:0:0:
64,192,254492,1,0,0:0:0:0:
448,192,254637,1,0,0:0:0:0:
320,192,254782,1,0,0:0:0:0:
192,192,254782,1,0,0:0:0:0:
64,192,254927,1,0,0:0:0:0:
448,192,255072,1,0,0:0:0:0:
320,192,255120,1,0,0:0:0:0:
192,192,255169,1,0,0:0:0:0:
64,192,255217,1,0,0:0:0:0:
448,192,255265,1,0,0:0:0:0:
320,192,255314,1,0,0:0:0:0:
192,192,255362,1,0,0:0:0:0:
64,192,255410,1,0,0:0:0:0:
448,192,255458,1,0,0:0:0:0:
320,192,255507,1,0,0:0:0:0:
192,192,255555,1,0,0:0:0:0:
64,192,255603,1,0,0:0:0:0:
448,192,255652,128,0,257391:0:0:0:0:
320,192,255652,1,0,0:0:0:0:
192,192,257391,128,0,259710:0:0:0:0:
320,192,259710,128,0,262318:0:0:0:0:
64,192,262318,128,0,264347:0:0:0:0:
448,192,264347,128,0,266666:0:0:0:0:
192,192,266666,128,0,268985:0:0:0:0:
320,192,268985,128,0,271304:0:0:0:0:
