osu file format v14

[General]
AudioFilename: audio.mp3
AudioLeadIn: 0
PreviewTime: 103278
Countdown: 0
SampleSet: Soft
StackLeniency: 0.7
Mode: 0
LetterboxInBreaks: 0
WidescreenStoryboard: 0

[Editor]
DistanceSpacing: 6
BeatDivisor: 8
GridSize: 4
TimelineZoom: 4.199997

[Metadata]
Title:Beacon
TitleUnicode:Beacon
Artist:Imari
ArtistUnicode:Imari
Creator:LAN3XU5
Version:Beacon of Hope
Source:
Tags:
BeatmapID:2027946
BeatmapSetID:969286

[Difficulty]
HPDrainRate:7
CircleSize:4
OverallDifficulty:9
ApproachRate:9.5
SliderMultiplier:1.4
SliderTickRate:1

[Events]
//Background and Video events
0,0,"New Project (9).jpg",0,0
//Break Periods
2,54174,73170
2,101511,102753
2,175281,181121
//Storyboard Layer 0 (Background)
//Storyboard Layer 1 (Fail)
//Storyboard Layer 2 (Pass)
//Storyboard Layer 3 (Foreground)
//Storyboard Layer 4 (Overlay)
//Storyboard Sound Samples

[TimingPoints]
6885,491.803278688525,4,2,0,100,1,0
6885,-200,4,2,0,50,0,0
7991,-200,4,2,0,10,0,0
8360,-200,4,2,0,50,0,0
9958,-200,4,2,0,10,0,0
10327,-200,4,2,0,50,0,0
11925,-200,4,2,0,10,0,0
12171,-200,4,2,0,50,0,0
13893,-200,4,2,0,10,0,0
14262,-200,4,2,0,50,0,0
15860,-200,4,2,0,10,0,0
16229,-200,4,2,0,50,0,0
17827,-200,4,2,0,10,0,0
18196,-200,4,2,0,50,0,0
19794,-200,4,2,0,10,0,0
20040,-200,4,2,0,50,0,0
21762,-200,4,2,0,10,0,0
22130,-200,4,2,0,50,0,0
23729,-200,4,2,0,10,0,0
24098,-200,4,2,0,50,0,0
25696,-200,4,2,0,10,0,0
26065,-200,4,2,0,50,0,0
27663,-200,4,2,0,10,0,0
28524,-200,4,2,0,50,0,0
31598,-200,4,2,0,10,0,0
31966,-200,4,2,0,50,0,0
33565,-200,4,2,0,10,0,0
33934,-200,4,2,0,50,0,0
35532,-200,4,2,0,10,0,0
35778,-200,4,2,0,50,0,0
37499,-200,4,2,0,10,0,0
37868,-200,4,2,0,50,0,0
39466,-200,4,2,0,10,0,0
39835,-200,4,2,0,50,0,0
41434,-200,4,2,0,10,0,0
41803,-200,4,2,0,50,0,0
43401,-200,4,2,0,10,0,0
43647,-200,4,2,0,50,0,0
45368,-200,4,2,0,10,0,0
45737,-200,4,2,0,50,0,0
47335,-200,4,2,0,10,0,0
47704,-200,4,2,0,50,0,0
49303,-200,4,2,0,10,0,0
49671,-200,4,2,0,50,0,0
51270,-200,4,2,0,10,0,0
52130,-200,4,2,0,50,0,0
74016,-200,4,2,0,10,0,0
74753,-200,4,2,0,50,0,0
79917,-200,4,2,0,10,0,0
79999,-200,4,2,0,50,0,0
80245,-200,4,2,0,10,0,0
80327,-200,4,2,0,50,0,0
80573,-200,4,2,0,10,0,0
80655,-200,4,2,0,50,0,0
80901,-200,4,2,0,10,0,0
81065,-200,4,2,0,50,0,0
81885,-200,4,2,0,10,0,0
82622,-200,4,2,0,50,0,0
87786,-200,4,2,0,10,0,0
87868,-200,4,2,0,50,0,0
88114,-200,4,2,0,10,0,0
88196,-200,4,2,0,50,0,0
88442,-200,4,2,0,10,0,0
88524,-200,4,2,0,50,0,0
88770,-200,4,2,0,10,0,0
88934,-200,4,2,0,50,0,0
89753,-200,4,2,0,10,0,0
90491,-200,4,2,0,50,0,0
92212,-200,4,2,0,10,0,0
92458,-200,4,2,0,50,0,0
93196,-200,4,2,0,10,0,0
93442,-200,4,2,0,50,0,0
94180,-200,4,2,0,10,0,0
94425,-200,4,2,0,50,0,0
95655,-200,4,2,0,10,0,0
95737,-200,4,2,0,50,0,0
95983,-200,4,2,0,10,0,0
96065,-200,4,2,0,50,0,0
96311,-200,4,2,0,10,0,0
96393,-200,4,2,0,50,0,0
96639,-200,4,2,0,10,0,0
96803,-200,4,2,0,50,0,0
97622,-200,4,2,0,10,0,0
98360,-200,4,2,0,50,0,0
105163,-200,4,2,0,10,0,0
105245,-200,4,2,0,50,0,1
105491,-200,4,2,0,10,0,1
106229,-200,4,2,0,50,0,1
111393,-200,4,2,0,10,0,1
111475,-200,4,2,0,50,0,1
111721,-200,4,2,0,10,0,1
111803,-200,4,2,0,50,0,1
112048,-200,4,2,0,10,0,1
112130,-200,4,2,0,50,0,1
112376,-200,4,2,0,10,0,1
112540,-200,4,2,0,50,0,1
113360,-200,4,2,0,10,0,1
114098,-200,4,2,0,50,0,1
119262,-200,4,2,0,10,0,1
119344,-200,4,2,0,50,0,1
119589,-200,4,2,0,10,0,1
119671,-200,4,2,0,50,0,1
119917,-200,4,2,0,10,0,1
119999,-200,4,2,0,50,0,1
120245,-200,4,2,0,10,0,1
120409,-200,4,2,0,50,0,1
121229,-200,4,2,0,10,0,1
121966,-200,4,2,0,50,0,1
127130,-200,4,2,0,10,0,1
127212,-200,4,2,0,50,0,1
127458,-200,4,2,0,10,0,1
127540,-200,4,2,0,50,0,1
127786,-200,4,2,0,10,0,1
127868,-200,4,2,0,50,0,1
128114,-200,4,2,0,10,0,1
128278,-200,4,2,0,50,0,1
129098,-200,4,2,0,10,0,1
129835,-200,4,2,0,50,0,1
134999,-200,4,2,0,10,0,1
135081,-200,4,2,0,50,0,1
135327,-200,4,2,0,10,0,1
135409,-200,4,2,0,50,0,1
135655,-200,4,2,0,10,0,1
135737,-200,4,2,0,50,0,1
135983,-200,4,2,0,10,0,1
136147,-200,4,2,0,50,0,1
136721,-200,4,2,0,50,0,0
136966,-200,4,2,0,10,0,0
137704,-200,4,2,0,50,0,0
139425,-200,4,2,0,10,0,0
139671,-200,4,2,0,50,0,0
140409,-200,4,2,0,10,0,0
140655,-200,4,2,0,50,0,0
141393,-200,4,2,0,10,0,0
141639,-200,4,2,0,50,0,0
142868,-200,4,2,0,10,0,0
142950,-200,4,2,0,50,0,0
143196,-200,4,2,0,10,0,0
143278,-200,4,2,0,50,0,0
143524,-200,4,2,0,10,0,0
143606,-200,4,2,0,50,0,0
143852,-200,4,2,0,10,0,0
144016,-200,4,2,0,50,0,0
144835,-200,4,2,0,10,0,0
145573,-200,4,2,0,50,0,0
147294,-200,4,2,0,10,0,0
147540,-200,4,2,0,50,0,0
148278,-200,4,2,0,10,0,0
148524,-200,4,2,0,50,0,0
149262,-100,4,2,0,10,0,0
149507,-200,4,2,0,50,0,0
150737,-200,4,2,0,10,0,0
150819,-200,4,2,0,50,0,0
151065,-200,4,2,0,10,0,0
151147,-200,4,2,0,50,0,0
151393,-200,4,2,0,10,0,0
151475,-200,4,2,0,50,0,0
151721,-200,4,2,0,10,0,0
151885,-200,4,2,0,50,0,0
153565,-200,4,2,0,10,0,0
153934,-200,4,2,0,50,0,0
155532,-200,4,2,0,10,0,0
155901,-200,4,2,0,50,0,0
157499,-200,4,2,0,10,0,0
157745,-200,4,2,0,50,0,0
159466,-200,4,2,0,10,0,0
159835,-200,4,2,0,50,0,0
161434,-200,4,2,0,10,0,0
161803,-200,4,2,0,50,0,0
163401,-200,4,2,0,10,0,0
163770,-200,4,2,0,50,0,0
165368,-200,4,2,0,10,0,0
165614,-200,4,2,0,50,0,0
167335,-200,4,2,0,10,0,0
167704,-200,4,2,0,50,0,0
169303,-200,4,2,0,10,0,0
169671,-200,4,2,0,50,0,0
171270,-200,4,2,0,10,0,0
171639,-200,4,2,0,50,0,0
173237,-200,4,2,0,10,0,0
174098,-200,4,2,0,50,0,0
188114,-400,4,2,0,50,0,0
188360,-400,4,2,0,10,0,0

[HitObjects]
89,293,6884,5,0,0:0:0:0:
89,293,7868,6,0,L|86:260,1,17.5
123,176,8360,1,0,0:0:0:0:
197,250,8852,1,0,0:0:0:0:
197,250,9835,6,0,L|200:217,1,17.5
123,176,10327,1,0,0:0:0:0:
287,116,10819,1,0,0:0:0:0:
287,116,11803,6,0,L|284:83,1,17.5
328,43,12171,1,0,0:0:0:0:
330,25,12293,1,0,0:0:0:0:
202,145,12786,1,0,0:0:0:0:
202,145,13770,6,0,L|205:112,1,17.5
291,225,14262,1,0,0:0:0:0:
86,179,14753,1,0,0:0:0:0:
86,179,15737,6,0,L|83:146,1,17.5
128,65,16229,1,0,0:0:0:0:
202,145,16721,1,0,0:0:0:0:
202,145,17704,6,0,L|205:112,1,17.5
128,65,18196,1,0,0:0:0:0:
297,19,18688,1,0,0:0:0:0:
297,19,19671,6,0,L|294:-14,1,17.5
368,50,20040,1,0,0:0:0:0:
386,48,20162,1,0,0:0:0:0:
261,172,20655,1,0,0:0:0:0:
261,172,21639,6,0,L|264:139,1,17.5
175,252,22130,1,0,0:0:0:0:
377,308,22622,1,0,0:0:0:0:
377,308,23606,6,0,L|374:275,1,17.5
447,180,24098,1,0,0:0:0:0:
510,263,24589,1,0,0:0:0:0:
510,263,25573,6,0,L|513:230,1,17.5
447,180,26065,1,0,0:0:0:0:
510,263,26557,1,0,0:0:0:0:
510,263,27541,6,0,L|513:230,1,17.5
510,263,28524,1,0,0:0:0:0:
377,308,29507,1,0,0:0:0:0:
429,178,30491,6,0,P|372:160|308:183,1,122.5
314,178,31475,6,0,L|311:145,1,17.5
239,84,31966,1,0,0:0:0:0:
114,148,32458,2,0,P|96:91|119:27,1,122.5
114,33,33442,6,0,L|81:30,1,17.5
239,84,33934,1,0,0:0:0:0:
366,27,34425,2,0,P|384:84|361:148,1,122.5
365,141,35409,6,0,L|398:144,1,17.5
308,187,35778,1,0,0:0:0:0:
272,183,35900,1,0,0:0:0:0:
335,308,36393,2,0,P|278:326|214:303,1,122.5
220,307,37376,6,0,L|217:340,1,17.5
181,170,37868,1,0,0:0:0:0:
308,227,38360,2,0,P|326:170|303:106,1,122.5
308,112,39344,6,0,L|341:109,1,17.5
404,40,39835,1,0,0:0:0:0:
460,128,40327,2,0,P|403:146|339:123,1,122.5
345,128,41311,6,0,L|342:161,1,17.5
404,40,41803,1,0,0:0:0:0:
461,167,42295,2,0,P|404:185|340:162,1,122.5
346,167,43279,6,0,L|343:200,1,17.5
274,237,43647,1,0,0:0:0:0:
278,273,43769,1,0,0:0:0:0:
157,345,44262,2,0,P|139:288|162:224,1,122.5
157,230,45246,6,0,L|124:227,1,17.5
263,130,45737,1,0,0:0:0:0:
137,68,46229,2,0,P|119:125|142:189,1,122.5
138,182,47213,6,0,L|105:179,1,17.5
32,237,47704,1,0,0:0:0:0:
120,180,48196,2,0,P|138:237|115:301,1,122.5
119,294,49180,6,0,L|152:291,1,17.5
32,237,49671,1,0,0:0:0:0:
160,180,50163,2,0,P|178:237|155:301,1,122.5
159,294,51147,6,0,L|192:291,1,17.5
160,180,52130,2,0,P|178:237|155:301,1,122.5
148,310,53114,2,0,P|91:328|27:305,1,122.5
428,308,73770,6,0,L|432:260,1,35
428,308,74753,1,0,0:0:0:0:
378,290,74917,1,0,0:0:0:0:
329,272,75081,1,0,0:0:0:0:
428,308,78688,5,0,0:0:0:0:
378,290,78852,1,0,0:0:0:0:
329,272,79016,1,0,0:0:0:0:
302,346,79180,1,0,0:0:0:0:
329,272,79344,1,0,0:0:0:0:
355,199,79508,1,0,0:0:0:0:
258,77,79671,6,0,L|246:21,1,35
258,77,79999,6,0,L|250:25,1,35
258,77,80327,6,0,L|254:29,1,35
325,34,80655,6,0,L|329:-14,1,35
396,63,81065,1,0,0:0:0:0:
446,45,81229,1,0,0:0:0:0:
93,220,81639,6,0,L|89:172,1,35
93,220,82622,1,0,0:0:0:0:
143,202,82786,1,0,0:0:0:0:
192,184,82950,1,0,0:0:0:0:
93,220,86557,5,0,0:0:0:0:
143,202,86721,1,0,0:0:0:0:
192,184,86885,1,0,0:0:0:0:
258,229,87048,1,0,0:0:0:0:
285,155,87212,1,0,0:0:0:0:
311,82,87376,1,0,0:0:0:0:
478,37,87540,6,0,L|518:25,1,35
478,37,87868,6,0,L|522:29,1,35
478,37,88196,6,0,L|526:33,1,35
455,108,88524,6,0,L|503:112,1,35
426,179,88934,1,0,0:0:0:0:
444,229,89098,1,0,0:0:0:0:
129,66,89507,6,0,L|81:62,1,35
360,365,90491,1,0,0:0:0:0:
286,338,90655,1,0,0:0:0:0:
213,312,90819,1,0,0:0:0:0:
436,256,91475,6,0,L|449:143,1,105
278,193,92458,2,0,L|265:80,1,105
436,256,93442,2,0,L|449:143,1,105
485,238,94425,5,0,0:0:0:0:
436,256,94589,1,0,0:0:0:0:
386,274,94753,1,0,0:0:0:0:
391,358,94917,1,0,0:0:0:0:
317,331,95081,1,0,0:0:0:0:
244,305,95245,1,0,0:0:0:0:
109,179,95409,6,0,L|61:175,1,35
6,257,95737,6,0,L|54:253,1,35
109,179,96065,6,0,L|61:175,1,35
169,129,96393,6,0,L|217:125,1,35
118,63,96803,1,0,0:0:0:0:
141,4,96967,1,0,0:0:0:0:
351,282,97376,6,0,L|399:278,1,35
62,134,98360,1,0,0:0:0:0:
136,107,98524,1,0,0:0:0:0:
209,81,98688,1,0,0:0:0:0:
261,147,98852,5,0,0:0:0:0:
288,163,99016,1,0,0:0:0:0:
323,163,99180,1,0,0:0:0:0:
352,147,99344,1,0,0:0:0:0:
384,171,99507,1,0,0:0:0:0:
407,204,99671,1,0,0:0:0:0:
417,242,99835,1,0,0:0:0:0:
414,282,99998,1,0,0:0:0:0:
397,319,100163,1,0,0:0:0:0:
369,346,100327,1,0,0:0:0:0:
316,311,100491,1,0,0:0:0:0:
258,287,100655,1,0,0:0:0:0:
196,274,100819,1,0,0:0:0:0:
133,275,100983,1,0,0:0:0:0:
72,288,101147,1,0,0:0:0:0:
14,314,101311,1,0,0:0:0:0:
256,192,103278,12,0,105163,0:0:0:0:
378,332,105245,6,0,L|426:328,1,35
54,123,106229,1,0,0:0:0:0:
128,96,106393,1,0,0:0:0:0:
201,70,106557,1,0,0:0:0:0:
288,320,107212,5,0,0:0:0:0:
314,323,107397,1,0,0:0:0:0:
340,326,107581,1,0,0:0:0:0:
366,329,107766,1,0,0:0:0:0:
392,332,107950,1,0,0:0:0:0:
418,335,108135,1,0,0:0:0:0:
320,375,108196,5,0,0:0:0:0:
317,349,108380,1,0,0:0:0:0:
314,323,108565,1,0,0:0:0:0:
368,233,108749,5,0,0:0:0:0:
371,207,108933,1,0,0:0:0:0:
374,181,109118,1,0,0:0:0:0:
268,185,109180,5,0,0:0:0:0:
265,159,109365,1,0,0:0:0:0:
262,133,109549,1,0,0:0:0:0:
259,107,109733,1,0,0:0:0:0:
256,81,109917,1,0,0:0:0:0:
253,55,110102,1,0,0:0:0:0:
195,110,110163,5,0,0:0:0:0:
146,92,110327,1,0,0:0:0:0:
96,74,110491,1,0,0:0:0:0:
25,151,110655,1,0,0:0:0:0:
99,124,110819,1,0,0:0:0:0:
172,98,110983,1,0,0:0:0:0:
402,220,111147,6,0,L|450:216,1,35
494,326,111475,6,0,L|446:322,1,35
402,220,111803,6,0,L|450:216,1,35
506,115,112131,6,0,L|458:111,1,35
375,156,112541,1,0,0:0:0:0:
300,146,112705,1,0,0:0:0:0:
59,348,113114,6,0,L|55:300,1,35
418,316,114098,1,0,0:0:0:0:
445,242,114262,1,0,0:0:0:0:
471,169,114426,1,0,0:0:0:0:
219,176,115081,5,0,0:0:0:0:
245,173,115266,1,0,0:0:0:0:
271,170,115450,1,0,0:0:0:0:
297,167,115634,1,0,0:0:0:0:
323,164,115818,1,0,0:0:0:0:
349,161,116003,1,0,0:0:0:0:
252,86,116065,5,0,0:0:0:0:
226,83,116249,1,0,0:0:0:0:
200,80,116434,1,0,0:0:0:0:
350,36,116618,5,0,0:0:0:0:
376,33,116802,1,0,0:0:0:0:
402,30,116987,1,0,0:0:0:0:
343,117,117048,5,0,0:0:0:0:
340,143,117233,1,0,0:0:0:0:
337,169,117417,1,0,0:0:0:0:
334,195,117602,1,0,0:0:0:0:
331,221,117786,1,0,0:0:0:0:
328,247,117971,1,0,0:0:0:0:
238,237,118032,5,0,0:0:0:0:
256,286,118196,1,0,0:0:0:0:
274,336,118360,1,0,0:0:0:0:
376,339,118524,1,0,0:0:0:0:
403,265,118688,1,0,0:0:0:0:
429,192,118852,1,0,0:0:0:0:
344,53,119016,6,0,L|340:5,1,35
254,128,119344,6,0,L|250:176,1,35
344,53,119671,6,0,L|340:5,1,35
235,24,119999,6,0,L|187:20,1,35
123,94,120410,1,0,0:0:0:0:
48,84,120574,1,0,0:0:0:0:
396,293,120983,6,0,L|444:289,1,35
58,343,121967,1,0,0:0:0:0:
85,269,122131,1,0,0:0:0:0:
111,196,122295,1,0,0:0:0:0:
407,159,122950,5,0,0:0:0:0:
404,133,123135,1,0,0:0:0:0:
401,107,123319,1,0,0:0:0:0:
398,81,123503,1,0,0:0:0:0:
395,55,123687,1,0,0:0:0:0:
392,29,123872,1,0,0:0:0:0:
284,87,123934,5,0,0:0:0:0:
258,84,124118,1,0,0:0:0:0:
232,81,124303,1,0,0:0:0:0:
146,161,124487,5,0,0:0:0:0:
120,164,124671,1,0,0:0:0:0:
94,167,124856,1,0,0:0:0:0:
153,262,124917,5,0,0:0:0:0:
179,265,125102,1,0,0:0:0:0:
205,268,125286,1,0,0:0:0:0:
231,271,125470,1,0,0:0:0:0:
257,274,125654,1,0,0:0:0:0:
283,277,125839,1,0,0:0:0:0:
245,213,125901,5,0,0:0:0:0:
196,231,126065,1,0,0:0:0:0:
146,249,126229,1,0,0:0:0:0:
206,318,126393,1,0,0:0:0:0:
233,244,126557,1,0,0:0:0:0:
259,171,126721,1,0,0:0:0:0:
437,141,126885,6,0,L|433:189,1,35
347,66,127213,6,0,L|343:18,1,35
437,141,127540,6,0,L|433:189,1,35
332,206,127868,6,0,L|284:210,1,35
355,297,128278,1,0,0:0:0:0:
280,307,128442,1,0,0:0:0:0:
85,360,128852,6,0,L|37:356,1,35
380,132,129835,1,0,0:0:0:0:
407,206,129999,1,0,0:0:0:0:
433,279,130163,1,0,0:0:0:0:
232,157,130819,5,0,0:0:0:0:
266,128,131003,1,0,0:0:0:0:
226,105,131188,1,0,0:0:0:0:
260,76,131372,1,0,0:0:0:0:
220,53,131557,1,0,0:0:0:0:
254,24,131741,1,0,0:0:0:0:
340,85,131803,5,0,0:0:0:0:
374,114,131987,1,0,0:0:0:0:
334,137,132172,1,0,0:0:0:0:
212,224,132356,5,0,0:0:0:0:
172,247,132541,1,0,0:0:0:0:
206,276,132725,1,0,0:0:0:0:
294,312,132786,5,0,0:0:0:0:
323,346,132970,1,0,0:0:0:0:
346,306,133155,1,0,0:0:0:0:
375,340,133339,1,0,0:0:0:0:
398,300,133524,1,0,0:0:0:0:
427,334,133708,1,0,0:0:0:0:
423,242,133770,5,0,0:0:0:0:
405,193,133934,1,0,0:0:0:0:
387,143,134098,1,0,0:0:0:0:
455,47,134262,5,0,0:0:0:0:
482,121,134426,1,0,0:0:0:0:
508,194,134590,1,0,0:0:0:0:
302,335,134753,6,0,L|298:383,1,35
201,285,135081,6,0,L|197:237,1,35
304,218,135409,6,0,L|352:214,1,35
170,378,135737,6,0,L|122:374,1,35
111,236,136147,1,0,0:0:0:0:
15,249,136311,1,0,0:0:0:0:
399,85,136721,6,0,L|403:37,1,35
123,336,137705,1,0,0:0:0:0:
96,262,137869,1,0,0:0:0:0:
70,189,138033,1,0,0:0:0:0:
315,280,138689,6,0,L|428:293,1,105
378,122,139672,2,0,L|491:109,1,105
315,280,140656,2,0,L|428:293,1,105
240,335,141639,5,0,0:0:0:0:
191,317,141803,1,0,0:0:0:0:
141,299,141967,1,0,0:0:0:0:
92,359,142130,1,0,0:0:0:0:
65,285,142294,1,0,0:0:0:0:
39,212,142458,1,0,0:0:0:0:
228,109,142623,6,0,L|232:61,1,35
150,7,142951,6,0,L|154:55,1,35
228,109,143279,6,0,L|232:61,1,35
278,169,143607,6,0,L|282:217,1,35
344,118,144017,1,0,0:0:0:0:
403,141,144181,1,0,0:0:0:0:
118,341,144589,6,0,L|114:293,1,35
393,60,145573,1,0,0:0:0:0:
319,87,145737,1,0,0:0:0:0:
246,113,145901,1,0,0:0:0:0:
203,346,146557,6,0,L|90:359,1,105
140,188,147540,2,0,L|27:175,1,105
203,346,148524,2,0,L|90:359,1,105
334,358,149507,5,0,0:0:0:0:
316,309,149671,1,0,0:0:0:0:
298,259,149835,1,0,0:0:0:0:
307,185,149999,1,0,0:0:0:0:
233,212,150163,1,0,0:0:0:0:
160,238,150327,1,0,0:0:0:0:
67,133,150491,6,0,L|19:129,1,35
150,78,150819,6,0,L|198:82,1,35
67,133,151147,6,0,L|19:129,1,35
140,199,151475,6,0,L|188:195,1,35
89,133,151885,1,0,0:0:0:0:
112,74,152049,1,0,0:0:0:0:
31,340,152458,5,0,0:0:0:0:
31,340,153442,6,0,L|28:307,1,17.5
65,223,153934,1,0,0:0:0:0:
139,297,154426,1,0,0:0:0:0:
139,297,155409,6,0,L|142:264,1,17.5
65,223,155901,1,0,0:0:0:0:
229,163,156393,1,0,0:0:0:0:
229,163,157377,6,0,L|226:130,1,17.5
270,90,157745,1,0,0:0:0:0:
272,72,157867,1,0,0:0:0:0:
144,192,158360,1,0,0:0:0:0:
144,192,159344,6,0,L|147:159,1,17.5
233,272,159836,1,0,0:0:0:0:
28,226,160327,1,0,0:0:0:0:
28,226,161311,6,0,L|25:193,1,17.5
70,112,161803,1,0,0:0:0:0:
144,192,162295,1,0,0:0:0:0:
144,192,163278,6,0,L|147:159,1,17.5
70,112,163770,1,0,0:0:0:0:
239,66,164262,1,0,0:0:0:0:
239,66,165245,6,0,L|236:33,1,17.5
310,97,165614,1,0,0:0:0:0:
328,95,165736,1,0,0:0:0:0:
203,219,166229,1,0,0:0:0:0:
203,219,167213,6,0,L|206:186,1,17.5
117,299,167704,1,0,0:0:0:0:
319,355,168196,1,0,0:0:0:0:
319,355,169180,6,0,L|316:322,1,17.5
389,227,169672,1,0,0:0:0:0:
452,310,170163,1,0,0:0:0:0:
452,310,171147,6,0,L|455:277,1,17.5
389,227,171639,1,0,0:0:0:0:
452,310,172131,1,0,0:0:0:0:
452,310,173115,6,0,L|455:277,1,17.5
452,310,174098,1,0,0:0:0:0:
319,355,175081,1,0,0:0:0:0:
319,355,181659,5,0,0:0:0:0:
319,355,183811,1,0,0:0:0:0:
319,355,185901,1,0,0:0:0:0:
319,355,188114,2,0,L|316:322,1,17.5
