osu file format v14

[General]
AudioFilename: Imany - Don't Be So Shy (Filatov & Karas Remix) - Nightcore.mp3
AudioLeadIn: 0
PreviewTime: 25317
Countdown: 0
SampleSet: Normal
StackLeniency: 0.7
Mode: 0
LetterboxInBreaks: 0
WidescreenStoryboard: 0

[Editor]
DistanceSpacing: 1
BeatDivisor: 4
GridSize: 4
TimelineZoom: 1

[Metadata]
Title:Don't Be So Shy (Filatov & Karas Remix) (Nightcore Mix)
TitleUnicode:Don't Be So Shy (Filatov & Karas Remix) (Nightcore Mix)
Artist:Imany
ArtistUnicode:Imany
Creator:AnimeStyle
Version:Normal
Source:
Tags:2015 Nadia Mladjao Sherika Sherard Eurodance The Wrong Kind of War French Women Okorin Okoratu Sous les jupes des filles
BeatmapID:1347992
BeatmapSetID:634851

[Difficulty]
HPDrainRate:4
CircleSize:3.2
OverallDifficulty:4
ApproachRate:5
SliderMultiplier:1.1
SliderTickRate:1

[Events]
//Background and Video events
0,0,"BG.jpg",0,0
//Break Periods
2,91727,96709
//Storyboard Layer 0 (Background)
//Storyboard Layer 1 (Fail)
//Storyboard Layer 2 (Pass)
//Storyboard Layer 3 (Foreground)
//Storyboard Sound Samples

[TimingPoints]
588,398.856611048328,4,1,1,65,1,0
6371,-100,4,1,1,55,0,0
6969,-100,4,1,2,70,0,0
12753,-100,4,1,2,50,0,0
13151,-100,4,1,2,10,0,0
13351,-100,4,1,3,60,0,0
26114,-100,4,1,4,80,0,1
27710,-100,4,1,5,80,0,1
29305,-100,4,1,6,80,0,1
30103,-100,4,1,7,80,0,1
30901,-100,4,1,4,80,0,1
32097,-100,4,1,6,80,0,1
32297,-100,4,1,7,80,0,1
32496,-100,4,1,4,80,0,1
34091,-100,4,1,5,80,0,1
35687,-100,4,1,6,80,0,1
36485,-100,4,1,7,80,0,1
37282,-100,4,1,4,70,0,1
38080,-100,4,1,3,50,0,0
38878,-100,4,1,3,60,0,0
51641,-100,4,1,4,80,0,1
53237,-100,4,1,5,80,0,1
54832,-100,4,1,6,80,0,1
55630,-100,4,1,7,80,0,1
56427,-100,4,1,4,80,0,1
57624,-100,4,1,6,80,0,1
57823,-100,4,1,7,80,0,1
58023,-100,4,1,4,80,0,1
59618,-100,4,1,5,80,0,1
61214,-100,4,1,6,80,0,1
62011,-100,4,1,7,80,0,1
62809,-100,4,1,4,70,0,1
63906,-100,4,1,2,80,0,1
64405,-100,4,1,1,70,0,0
70188,-100,4,1,1,60,0,0
70786,-100,4,1,2,75,0,0
76370,-100,4,1,2,70,0,0
91527,-100,4,1,1,5,0,0
97909,-100,4,1,4,60,0,0
110672,-100,4,1,4,80,0,1
112267,-100,4,1,5,80,0,1
113863,-100,4,1,6,80,0,1
114660,-100,4,1,7,80,0,1
115458,-100,4,1,4,80,0,1
116655,-100,4,1,6,80,0,1
116854,-100,4,1,7,80,0,1
117054,-100,4,1,4,80,0,1
118649,-100,4,1,5,80,0,1
119846,-100,4,1,7,80,0,1
120045,-100,4,1,6,80,0,1
120244,-100,4,1,6,80,0,1
121042,-100,4,1,7,80,0,1
121840,-100,4,1,4,80,0,1
123036,-100,4,1,4,50,0,1
123435,-100,4,1,1,65,0,0
129817,-100,4,1,2,70,0,0
135600,-100,4,1,2,60,0,0
136199,-100,4,1,2,70,0,0
148164,-100,4,1,2,50,0,0

[Colours]
Combo1 : 212,212,212
Combo2 : 184,255,113
Combo3 : 166,255,255
Combo4 : 255,170,213
Combo5 : 85,170,170

[HitObjects]
55,183,588,6,0,P|74:132|116:98,1,110,6|8,0:0|0:0,0:0:0:0:
165,198,1385,1,2,0:0:0:0:
231,110,1784,1,8,0:0:0:0:
257,158,1983,1,0,0:0:0:0:
275,211,2183,2,0,P|251:275|203:299,1,110,2|8,0:0|0:0,0:0:0:0:
165,198,2981,2,0,L|108:80,1,110,2|8,0:0|0:0,0:0:0:0:
220,60,3778,6,0,P|276:48|328:56,1,110,2|8,0:0|0:0,0:0:0:0:
436,40,4576,1,2,0:0:0:0:
396,144,4975,1,8,0:0:0:0:
428,188,5174,1,2,0:0:0:0:
460,232,5374,2,0,L|396:348,1,110,2|8,0:0|0:0,0:0:0:0:
296,340,6171,2,0,B|322:291|322:291|287:249,1,110,2|12,0:0|0:0,0:0:0:0:
192,304,6969,6,0,B|123:273|130:205,1,110,6|8,0:0|0:0,0:0:0:0:
84,120,7767,1,2,0:0:0:0:
192,128,8166,2,0,L|260:104,1,55,8|0,0:0|0:0,0:0:0:0:
297,95,8565,2,0,P|338:131|392:136,1,110,2|8,0:0|0:0,0:0:0:0:
479,67,9362,2,0,P|439:32|385:27,1,110,2|8,0:0|0:0,0:0:0:0:
392,136,10160,6,0,P|370:192|388:252,1,110,2|8,0:0|0:0,0:0:0:0:
408,288,10758,1,0,0:0:0:0:
436,336,10958,2,0,B|384:316|384:316|332:340,1,110,2|8,0:0|0:0,0:0:0:0:
284,360,11556,1,2,0:0:0:0:
232,344,11755,2,0,B|176:332|176:332|128:272,1,110,10|10,0:0|0:0,0:0:0:0:
236,232,12553,1,10,0:0:0:0:
380,72,13351,6,0,L|488:44,1,110,10|10,0:0|0:0,0:0:0:0:
456,152,14149,1,10,0:0:0:0:
420,256,14547,2,0,L|344:276,1,55,8|0,0:0|0:0,0:0:0:0:
312,280,14946,2,0,P|257:238|248:184,1,110,10|10,0:0|0:0,0:0:0:0:
180,112,15744,2,0,P|242:85|295:104,1,110,10|8,0:0|0:0,0:0:0:0:
336,88,16342,1,0,0:0:0:0:
392,84,16542,6,0,P|383:151|340:187,1,110,10|10,0:0|0:0,0:0:0:0:
308,280,17339,1,10,0:0:0:0:
220,212,17738,1,8,0:0:0:0:
148,296,18137,2,0,P|92:308|56:356,2,110,10|10|10,0:0|0:0|0:0,0:0:0:0:
308,144,19733,6,0,P|361:133|396:93,1,110,10|6,0:0|0:0,0:0:0:0:
304,36,20530,2,0,L|176:28,1,110,10|4,0:0|0:0,0:0:0:0:
144,48,21129,1,0,0:0:0:0:
96,72,21328,2,0,B|108:128|108:128|80:188,1,110,10|6,0:0|0:0,0:0:0:0:
184,224,22126,2,0,B|161:271|161:271|173:327,1,110,10|4,0:0|0:0,0:0:0:0:
224,344,22724,1,0,0:0:0:0:
276,328,22923,6,0,B|288:272|288:272|265:224,1,110,10|6,0:0|0:0,0:0:0:0:
212,128,23721,1,10,0:0:0:0:
311,84,24120,1,4,0:0:0:0:
366,179,24519,2,0,P|407:146|421:93,1,110,10|6,0:0|0:0,0:0:0:0:
240,144,26114,5,10,0:0:0:0:
188,48,26513,2,0,L|68:68,1,110,6|8,0:0|0:0,0:0:0:0:
56,172,27311,2,0,L|128:160,1,55,4|2,0:0|0:0,0:0:0:0:
164,156,27710,2,0,L|100:248,1,110,10|14,0:0|0:0,0:0:0:0:
40,340,28507,2,0,P|92:360|160:340,1,110,8|4,0:0|0:0,0:0:0:0:
180,308,29106,1,2,0:0:0:0:
212,264,29305,5,10,0:0:0:0:
316,296,29704,1,14,0:0:0:0:
396,220,30103,2,0,L|370:113,1,110,10|6,0:0|0:0,0:0:0:0:
264,84,30901,1,10,0:0:0:0:
180,156,31299,1,14,0:0:0:0:
96,228,31698,2,0,P|67:182|73:128,1,110,8|6,0:0|0:0,0:0:0:0:
96,80,32297,1,2,0:0:0:0:
128,36,32496,6,0,L|252:28,1,110,10|14,0:0|0:0,0:0:0:0:
316,108,33294,2,0,L|440:100,1,110,8|4,0:0|0:0,0:0:0:0:
464,140,33892,1,2,0:0:0:0:
456,196,34091,2,0,B|424:200|424:200|436:244|412:284,1,110,10|14,0:0|0:0,0:0:0:0:
316,228,34889,1,8,0:0:0:0:
252,316,35288,2,0,L|192:332,1,55,4|2,0:0|0:0,0:0:0:0:
145,342,35687,6,0,B|103:307|103:307|96:252,1,110,10|14,0:0|0:0,0:0:0:0:
48,155,36485,2,0,B|98:136|98:136|150:157,1,110,10|6,0:0|0:0,0:0:0:0:
259,166,37282,2,0,B|249:218|249:218|205:253,1,110,10|14,0:0|0:0,0:0:0:0:
96,252,38080,1,8,0:0:0:0:
219,71,38878,6,0,P|272:61|320:84,1,110,10|10,0:0|0:0,0:0:0:0:
259,166,39675,2,0,B|249:218|249:218|205:253,1,110,10|8,0:0|0:0,0:0:0:0:
164,288,40274,1,0,0:0:0:0:
128,328,40473,2,0,L|256:340,1,110,10|10,0:0|0:0,0:0:0:0:
336,284,41271,1,10,0:0:0:0:
432,232,41670,2,0,L|512:240,1,55,8|0,0:0|0:0,0:0:0:0:
508,188,42069,6,0,P|508:132|472:84,1,110,10|10,0:0|0:0,0:0:0:0:
384,36,42866,1,10,0:0:0:0:
300,108,43265,1,8,0:0:0:0:
204,52,43664,2,0,P|148:44|92:72,2,110,10|10|10,0:0|0:0|0:0,0:0:0:0:
416,112,45259,6,0,P|407:165|428:215,1,110,10|6,0:0|0:0,0:0:0:0:
392,320,46057,2,0,B|344:344|344:344|272:332,1,110,10|4,0:0|0:0,0:0:0:0:
244,304,46655,1,0,0:0:0:0:
204,268,46855,2,0,B|148:258|148:258|100:282,1,110,10|6,0:0|0:0,0:0:0:0:
36,192,47653,1,10,0:0:0:0:
116,116,48051,2,0,L|176:128,1,55,4|0,0:0|0:0,0:0:0:0:
224,136,48450,6,0,L|168:28,1,110,10|6,0:0|0:0,0:0:0:0:
284,40,49248,2,0,L|405:45,1,110,10|4,0:0|0:0,0:0:0:0:
340,140,50046,2,0,L|274:242,1,110,10|6,0:0|0:0,0:0:0:0:
88,180,51641,5,10,0:0:0:0:
44,80,52040,1,14,0:0:0:0:
152,92,52439,2,0,B|208:80|208:80|238:36,1,110,8|4,0:0|0:0,0:0:0:0:
292,32,53037,1,2,0:0:0:0:
308,84,53237,2,0,B|279:128|279:128|288:184,1,110,10|14,0:0|0:0,0:0:0:0:
180,196,54034,2,0,B|148:241|168:300,1,110,8|4,0:0|0:0,0:0:0:0:
212,336,54633,1,2,0:0:0:0:
260,308,54832,6,0,P|312:300|372:328,1,110,10|14,0:0|0:0,0:0:0:0:
424,228,55630,2,0,P|432:176|404:116,1,110,10|6,0:0|0:0,0:0:0:0:
312,172,56427,2,0,P|260:180|200:152,1,110,10|14,0:0|0:0,0:0:0:0:
272,72,57225,1,8,0:0:0:0:
164,60,57624,1,6,0:0:0:0:
132,104,57823,1,2,0:0:0:0:
100,147,58023,6,0,P|108:200|144:242,1,110,10|14,0:0|0:0,0:0:0:0:
208,156,58821,2,0,P|258:176|311:169,1,110,8|4,0:0|0:0,0:0:0:0:
364,148,59419,1,2,0:0:0:0:
416,128,59618,2,0,L|388:244,1,110,10|14,0:0|0:0,0:0:0:0:
436,336,60416,1,8,0:0:0:0:
328,324,60815,2,0,L|264:344,1,55,4|2,0:0|0:0,0:0:0:0:
224,356,61214,5,10,0:0:0:0:
120,324,61613,1,14,0:0:0:0:
56,236,62011,2,0,L|44:124,1,110,10|6,0:0|0:0,0:0:0:0:
108,40,62809,1,10,0:0:0:0:
212,72,63208,2,0,L|320:36,1,110,14|8,0:0|0:0,0:0:0:0:
292,144,64006,2,0,L|344:176,1,55,8|8,0:0|0:0,0:0:0:0:
383,203,64405,6,0,P|417:246|422:300,1,110,6|8,0:0|0:0,0:0:0:0:
316,288,65202,1,2,0:0:0:0:
220,344,65601,1,8,0:0:0:0:
168,332,65801,1,0,0:0:0:0:
118,318,66000,2,0,P|83:280|75:224,1,110,2|8,0:0|0:0,0:0:0:0:
185,231,66798,1,2,0:0:0:0:
136,132,67197,1,8,0:0:0:0:
75,224,67595,6,0,L|185:231,1,110,2|8,0:0|0:0,0:0:0:0:
260,152,68393,2,0,L|369:158,1,110,2|8,0:0|0:0,0:0:0:0:
424,164,68991,1,2,0:0:0:0:
480,168,69191,2,0,L|408:76,1,110,2|8,0:0|0:0,0:0:0:0:
304,52,69989,1,2,0:0:0:0:
260,152,70387,1,12,0:0:0:0:
152,124,70786,6,0,P|96:104|28:128,1,110,6|8,0:0|0:0,0:0:0:0:
92,216,71584,2,0,L|164:308,1,110,2|8,0:0|0:0,0:0:0:0:
196,344,72182,1,0,0:0:0:0:
244,320,72382,2,0,L|340:264,1,110,2|8,0:0|0:0,0:0:0:0:
448,288,73179,1,2,0:0:0:0:
476,180,73578,1,8,0:0:0:0:
368,156,73977,6,0,L|312:60,1,110,2|8,0:0|0:0,0:0:0:0:
260,40,74575,1,0,0:0:0:0:
207,60,74775,2,0,L|152:156,1,110,2|8,0:0|0:0,0:0:0:0:
124,204,75373,1,2,0:0:0:0:
100,252,75573,2,0,P|104:304|148:360,1,110,10|8,0:0|0:0,0:0:0:0:
208,268,76370,1,4,0:0:0:0:
316,284,76769,1,8,0:0:0:0:
249,369,77168,6,0,L|208:268,1,110,6|8,0:0|0:0,0:0:0:0:
104,232,77966,1,2,0:0:0:0:
152,132,78365,1,8,0:0:0:0:
256,168,78763,2,0,L|320:328,1,165,2|2,0:0|0:0,0:0:0:0:
367,223,79761,2,0,L|348:172,1,55,2|8,0:0|0:0,0:0:0:0:
308,72,80359,6,0,P|360:64|428:100,1,110,6|8,0:0|0:0,0:0:0:0:
456,188,81157,1,2,0:0:0:0:
348,172,81555,1,8,0:0:0:0:
248,212,81954,2,0,P|305:268|385:272,1,165,2|2,0:0|0:0,0:0:0:0:
348,172,82951,2,0,L|320:100,1,55,2|8,0:0|0:0,0:0:0:0:
380,24,83550,6,0,B|420:128,1,110,6|8,0:0|0:0,0:0:0:0:
460,228,84347,1,2,0:0:0:0:
352,212,84746,1,8,0:0:0:0:
244,195,85145,2,0,P|260:274|327:318,1,165,2|2,0:0|0:0,0:0:0:0:
352,212,86142,2,0,L|362:158,1,55,2|8,0:0|0:0,0:0:0:0:
457,103,86741,6,0,P|435:212|435:212,1,110,6|8,0:0|0:0,0:0:0:0:
381,306,87538,2,0,P|327:310|281:281,1,110,2|8,0:0|0:0,0:0:0:0:
276,173,88336,2,0,P|297:63|297:63,1,110,2|8,0:0|0:0,0:0:0:0:
256,192,89134,12,0,91527,0:0:0:0:
272,240,97909,5,8,0:0:0:0:
324,336,98308,2,0,L|444:316,1,110,4|8,0:0|0:0,0:0:0:0:
456,212,99106,2,0,L|384:224,1,55,4|0,0:0|0:0,0:0:0:0:
348,228,99505,2,0,L|412:136,1,110,8|12,0:0|0:0,0:0:0:0:
472,44,100302,2,0,P|420:24|352:44,1,110,8|4,0:0|0:0,0:0:0:0:
332,76,100901,1,0,0:0:0:0:
300,120,101100,5,8,0:0:0:0:
196,88,101499,1,12,0:0:0:0:
116,164,101898,1,8,0:0:0:0:
145,272,102297,1,4,0:0:0:0:
251,302,102696,1,8,0:0:0:0:
332,228,103094,1,12,0:0:0:0:
416,156,103493,2,0,P|445:202|439:256,1,110,8|4,0:0|0:0,0:0:0:0:
416,304,104092,1,0,0:0:0:0:
384,348,104291,6,0,L|260:356,1,110,8|12,0:0|0:0,0:0:0:0:
196,276,105089,2,0,L|72:284,1,110,8|4,0:0|0:0,0:0:0:0:
48,244,105687,1,0,0:0:0:0:
56,188,105886,2,0,B|88:184|88:184|76:140|100:104,1,110,8|12,0:0|0:0,0:0:0:0:
196,156,106684,1,8,0:0:0:0:
260,68,107083,2,0,L|320:52,1,55,4|0,0:0|0:0,0:0:0:0:
367,42,107482,6,0,B|409:77|409:77|416:132,1,110,8|12,0:0|0:0,0:0:0:0:
464,229,108279,2,0,B|414:248|414:248|362:227,1,110,8|4,0:0|0:0,0:0:0:0:
253,218,109077,2,0,B|263:166|263:166|307:131,1,110,8|12,0:0|0:0,0:0:0:0:
416,132,109874,2,0,B|460:97|460:97|470:45,1,110,8|4,0:0|0:0,0:0:0:0:
420,24,110472,1,0,0:0:0:0:
372,48,110672,6,0,P|321:28|267:33,1,110,10|14,0:0|0:0,0:0:0:0:
307,131,111470,2,0,B|263:166|263:166|253:218,1,110,8|12,0:0|0:0,0:0:0:0:
244,272,112068,1,2,0:0:0:0:
232,324,112267,2,0,P|177:329|127:309,1,110,10|14,0:0|0:0,0:0:0:0:
56,224,113065,2,0,P|61:169|41:119,1,110,8|4,0:0|0:0,0:0:0:0:
28,64,113663,1,2,0:0:0:0:
80,40,113863,6,0,L|188:64,1,110,10|14,0:0|0:0,0:0:0:0:
296,40,114660,2,0,L|335:164,1,110,10|14,0:0|0:0,0:0:0:0:
408,224,115458,2,0,L|319:320,1,110,10|14,0:0|0:0,0:0:0:0:
228,276,116256,1,8,0:0:0:0:
220,168,116655,2,0,L|200:104,1,55,6|2,0:0|0:0,0:0:0:0:
188,64,117054,6,0,L|81:41,1,110,10|14,0:0|0:0,0:0:0:0:
112,148,117851,1,8,0:0:0:0:
144,252,118250,2,0,L|200:264,1,55,4|2,0:0|0:0,0:0:0:0:
240,296,118649,2,0,L|347:319,1,110,10|14,0:0|0:0,0:0:0:0:
436,256,119447,1,8,0:0:0:0:
424,148,119846,2,0,L|368:136,1,55,6|2,0:0|0:0,0:0:0:0:
316,120,120244,6,0,P|276:80|224:76,1,110,10|14,0:0|0:0,0:0:0:0:
176,176,121042,2,0,P|216:216|268:220,1,110,10|6,0:0|0:0,0:0:0:0:
316,120,121840,2,0,B|307:99|282:69|243:70|224:76|224:76|164:48|108:88,1,220,10|8,0:0|0:0,0:0:0:0:
176,176,123036,1,4,0:0:0:0:
67,190,123435,6,0,P|80:242|124:274,1,110,6|8,0:0|0:0,0:0:0:0:
176,176,124232,1,2,0:0:0:0:
242,264,124631,1,8,0:0:0:0:
268,216,124830,1,0,0:0:0:0:
285,163,125031,2,0,P|271:110|228:78,1,110,2|8,0:0|0:0,0:0:0:0:
176,176,125828,2,0,L|125:273,1,110,2|8,0:0|0:0,0:0:0:0:
225,313,126626,6,0,P|281:325|332:316,1,110,2|8,0:0|0:0,0:0:0:0:
441,333,127423,1,2,0:0:0:0:
401,229,127822,1,8,0:0:0:0:
433,185,128021,1,2,0:0:0:0:
465,141,128221,2,0,L|401:25,1,110,2|8,0:0|0:0,0:0:0:0:
304,32,129019,2,0,B|330:81|330:81|295:123,1,110,2|12,0:0|0:0,0:0:0:0:
200,68,129817,6,0,B|131:98|138:166,1,110,6|8,0:0|0:0,0:0:0:0:
88,252,130615,1,2,0:0:0:0:
196,248,131013,2,0,L|260:268,1,55,8|0,0:0|0:0,0:0:0:0:
302,278,131412,2,0,P|343:242|397:237,1,110,2|8,0:0|0:0,0:0:0:0:
484,306,132210,2,0,P|444:341|380:348,1,110,2|8,0:0|0:0,0:0:0:0:
397,237,133008,6,0,P|375:181|393:121,1,110,2|8,0:0|0:0,0:0:0:0:
413,85,133605,1,0,0:0:0:0:
441,37,133805,2,0,B|389:57|389:57|337:33,1,110,2|8,0:0|0:0,0:0:0:0:
237,29,134603,2,0,B|181:41|181:41|136:100,2,110,10|10|10,0:0|0:0|0:0,0:0:0:0:
288,48,135600,2,0,L|276:128,2,55,4|12|4,0:0|0:0|0:0,0:0:0:0:
339,34,136199,6,0,B|389:57|389:57|441:37,1,110,6|8,0:0|0:0,0:0:0:0:
385,133,136996,2,0,P|375:187|397:237,1,110,2|8,0:0|0:0,0:0:0:0:
432,276,137595,1,0,0:0:0:0:
472,312,137794,2,0,L|344:328,1,110,2|8,0:0|0:0,0:0:0:0:
256,300,138592,2,0,L|196:308,2,55,2|0|8,0:0|0:0|0:0,0:0:0:0:
272,248,139190,1,0,0:0:0:0:
288,196,139390,6,0,L|397:182,1,110,2|8,0:0|0:0,0:0:0:0:
428,76,140187,2,0,B|374:83|374:83|324:56,1,110,2|8,0:0|0:0,0:0:0:0:
268,56,140786,1,0,0:0:0:0:
212,56,140985,2,0,B|162:29|162:29|109:36,1,110,2|8,0:0|0:0,0:0:0:0:
76,140,141783,2,0,L|12:152,2,55,2|0|8,0:0|0:0|0:0,0:0:0:0:
112,180,142381,1,0,0:0:0:0:
152,216,142580,6,0,P|136:267|158:316,1,110,6|8,0:0|0:0,0:0:0:0:
264,352,143378,1,2,0:0:0:0:
332,264,143777,2,0,P|353:251|400:252,1,55,8|0,0:0|0:0,0:0:0:0:
436,260,144176,2,0,P|428:208|380:160,1,110,2|8,0:0|0:0,0:0:0:0:
295,108,144974,2,0,P|282:132|280:160,2,55,2|0|8,0:0|0:0|0:0,0:0:0:0:
336,68,145572,1,0,0:0:0:0:
372,24,145771,6,0,L|252:32,1,110,2|8,0:0|0:0,0:0:0:0:
200,124,146569,2,0,L|80:132,1,110,2|8,0:0|0:0,0:0:0:0:
76,184,147167,1,0,0:0:0:0:
64,236,147367,1,0,0:0:0:0:
52,288,147566,2,0,P|72:328|120:344,2,82.5
