osu file format v14

[General]
AudioFilename: Imany - Don't Be So Shy (Filatov & Karas Remix) - Nightcore.mp3
AudioLeadIn: 0
PreviewTime: 25317
Countdown: 0
SampleSet: Normal
StackLeniency: 0.7
Mode: 0
LetterboxInBreaks: 0
WidescreenStoryboard: 0

[Editor]
DistanceSpacing: 1.5
BeatDivisor: 4
GridSize: 4
TimelineZoom: 1

[Metadata]
Title:Don't Be So Shy (Filatov & Karas Remix) (Nightcore Mix)
TitleUnicode:Don't Be So Shy (Filatov & Karas Remix) (Nightcore Mix)
Artist:Imany
ArtistUnicode:Imany
Creator:AnimeStyle
Version:Insane
Source:
Tags:2015 Nadia Mladjao Sherika Sherard Eurodance The Wrong Kind of War French Women Okorin Okoratu Sous les jupes des filles
BeatmapID:1346941
BeatmapSetID:634851

[Difficulty]
HPDrainRate:7
CircleSize:4.5
OverallDifficulty:8
ApproachRate:9
SliderMultiplier:1.4
SliderTickRate:1

[Events]
//Background and Video events
0,0,"BG.jpg",0,0
//Break Periods
2,91727,97309
//Storyboard Layer 0 (Background)
//Storyboard Layer 1 (Fail)
//Storyboard Layer 2 (Pass)
//Storyboard Layer 3 (Foreground)
//Storyboard Sound Samples

[TimingPoints]
588,398.856611048328,4,1,1,65,1,0
6371,-100,4,1,1,55,0,0
6969,-100,4,1,2,70,0,0
12753,-100,4,1,2,50,0,0
13151,-100,4,1,2,10,0,0
13351,-100,4,1,3,60,0,0
26114,-100,4,1,4,80,0,1
27710,-100,4,1,5,80,0,1
29305,-100,4,1,6,80,0,1
30103,-100,4,1,7,80,0,1
30901,-100,4,1,4,80,0,1
32097,-100,4,1,6,80,0,1
32297,-100,4,1,7,80,0,1
32496,-100,4,1,4,80,0,1
34091,-100,4,1,5,80,0,1
35687,-100,4,1,6,80,0,1
36485,-100,4,1,7,80,0,1
37282,-100,4,1,4,70,0,1
38080,-100,4,1,3,50,0,0
38878,-100,4,1,3,60,0,0
50943,-100,4,1,3,50,0,0
51641,-100,4,1,4,80,0,1
53237,-100,4,1,5,80,0,1
54832,-100,4,1,6,80,0,1
55630,-100,4,1,7,80,0,1
56427,-100,4,1,4,80,0,1
57624,-100,4,1,6,80,0,1
57823,-100,4,1,7,80,0,1
58023,-100,4,1,4,80,0,1
59618,-100,4,1,5,80,0,1
61214,-100,4,1,6,80,0,1
62011,-100,4,1,7,80,0,1
62809,-100,4,1,4,70,0,1
63906,-100,4,1,2,80,0,1
64405,-100,4,1,1,70,0,0
70188,-100,4,1,1,60,0,0
70786,-100,4,1,2,75,0,0
76370,-100,4,1,2,70,0,0
77567,-133.333333333333,4,1,2,70,0,0
91527,-100,4,1,1,5,0,0
97909,-100,4,1,4,60,0,0
110074,-100,4,1,4,50,0,0
110672,-100,4,1,4,80,0,1
112267,-100,4,1,5,80,0,1
113863,-100,4,1,6,80,0,1
114660,-100,4,1,7,80,0,1
115458,-100,4,1,4,80,0,1
116655,-100,4,1,6,80,0,1
116854,-100,4,1,7,80,0,1
117054,-100,4,1,4,80,0,1
118649,-100,4,1,5,80,0,1
119846,-100,4,1,7,80,0,1
120045,-100,4,1,6,80,0,1
120244,-100,4,1,6,80,0,1
121042,-100,4,1,7,80,0,1
121840,-100,4,1,4,80,0,1
123036,-100,4,1,4,50,0,1
123435,-100,4,1,1,65,0,0
129817,-100,4,1,2,70,0,0
135600,-100,4,1,2,60,0,0
136199,-100,4,1,2,70,0,0
148164,-100,4,1,2,50,0,0
148464,-100,4,1,2,5,0,0

[Colours]
Combo1 : 212,212,212
Combo2 : 184,255,113
Combo3 : 166,255,255
Combo4 : 255,170,213
Combo5 : 85,170,170

[HitObjects]
176,40,588,5,6,0:0:0:0:
72,36,787,1,2,0:0:0:0:
28,132,986,1,8,0:0:0:0:
28,132,1086,1,2,0:0:0:0:
28,132,1186,1,0,0:0:0:0:
132,136,1385,2,0,P|156:200|220:232,1,140,2|8,0:0|0:0,0:0:0:0:
232,128,1983,1,0,0:0:0:0:
176,40,2183,5,2,0:0:0:0:
132,136,2382,1,2,0:0:0:0:
88,232,2582,1,8,0:0:0:0:
88,232,2681,1,2,0:0:0:0:
88,232,2781,1,0,0:0:0:0:
192,228,2981,2,0,P|259:235|317:193,1,140,2|8,0:0|0:0,0:0:0:0:
472,156,3778,5,2,0:0:0:0:
436,56,3978,1,2,0:0:0:0:
368,136,4177,2,0,L|392:192,2,35,8|2|0,0:0|0:0|0:0,0:0:0:0:
264,128,4576,1,2,0:0:0:0:
324,276,4875,2,0,L|348:332,1,35,2|8,0:0|0:0,0:0:0:0:
412,232,5174,1,2,0:0:0:0:
368,136,5374,5,2,0:0:0:0:
264,128,5573,1,2,0:0:0:0:
224,32,5773,2,0,L|280:8,2,35,8|2|0,0:0|0:0|0:0,0:0:0:0:
120,32,6171,1,2,0:0:0:0:
72,124,6371,1,0,0:0:0:0:
68,176,6471,1,0,0:0:0:0:
112,204,6570,1,12,0:0:0:0:
212,232,6770,1,0,0:0:0:0:
256,260,6869,1,0,0:0:0:0:
252,312,6969,5,6,0:0:0:0:
152,348,7169,1,2,0:0:0:0:
83,268,7368,1,8,0:0:0:0:
83,268,7468,1,2,0:0:0:0:
83,268,7567,2,0,L|112:204,1,70,0|2,0:0|0:0,0:0:0:0:
152,108,7966,1,0,0:0:0:0:
256,96,8166,2,0,B|268:128|268:128|256:176,1,70,8|0,0:0|0:0,0:0:0:0:
256,268,8565,6,0,B|244:300|244:300|256:348,1,70,2|2,0:0|0:0,0:0:0:0:
360,352,8963,1,8,0:0:0:0:
360,300,9063,1,2,0:0:0:0:
360,248,9163,1,0,0:0:0:0:
464,268,9362,2,0,B|476:300|476:300|464:348,2,70,2|2|8,0:0|0:0|0:0,0:0:0:0:
256,260,10160,5,2,0:0:0:0:
360,248,10359,2,0,P|348:208|316:172,1,70,2|8,0:0|0:0,0:0:0:0:
331,185,10659,1,2,0:0:0:0:
331,185,10758,1,0,0:0:0:0:
276,96,10958,2,0,P|236:84|200:52,1,70,2|0,0:0|0:0,0:0:0:0:
227,120,11257,2,0,L|196:136,1,35,2|8,0:0|0:0,0:0:0:0:
112,76,11556,1,2,0:0:0:0:
28,136,11755,5,10,0:0:0:0:
68,232,11955,1,10,0:0:0:0:
172,240,12154,1,10,0:0:0:0:
172,240,12254,1,2,0:0:0:0:
172,240,12354,1,0,0:0:0:0:
196,136,12553,1,10,0:0:0:0:
112,76,12753,2,0,P|167:37|236:41,1,140
196,136,13351,5,10,0:0:0:0:
172,240,13550,1,2,0:0:0:0:
68,232,13750,2,0,L|24:192,1,35,8|2,0:0|0:0,0:0:0:0:
184,276,14149,1,10,0:0:0:0:
228,124,14448,2,0,L|253:147,1,35,0|8,0:0|0:0,0:0:0:0:
348,104,14747,1,0,0:0:0:0:
388,200,14946,5,10,0:0:0:0:
288,236,15146,1,2,0:0:0:0:
188,268,15345,2,0,L|144:228,1,35,8|2,0:0|0:0,0:0:0:0:
320,256,15744,1,10,0:0:0:0:
348,104,16043,2,0,L|388:60,1,35,0|8,0:0|0:0,0:0:0:0:
472,48,16342,1,0,0:0:0:0:
448,156,16542,5,10,0:0:0:0:
420,264,16741,2,0,L|360:336,1,70,2|8,0:0|0:0,0:0:0:0:
344,360,17040,1,2,0:0:0:0:
188,348,17339,2,0,P|144:308|76:312,1,105,10|2,0:0|0:0,0:0:0:0:
48,312,17738,2,0,P|80:256|72:228,1,70,8|2,0:0|0:0,0:0:0:0:
32,160,18137,1,8,0:0:0:0:
128,120,18337,2,0,B|100:80|100:80|136:20,2,105,2|2|10,0:0|0:0|0:0,0:0:0:0:
148,144,19733,5,10,0:0:0:0:
244,184,19932,1,2,0:0:0:0:
232,80,20131,1,4,0:0:0:0:
232,80,20231,2,0,P|280:80|336:128,1,105,2|10,0:0|0:0,0:0:0:0:
424,236,20829,1,0,0:0:0:0:
424,236,20929,1,4,0:0:0:0:
408,132,21129,1,0,0:0:0:0:
328,200,21328,6,0,L|296:264,1,70,10|2,0:0|0:0,0:0:0:0:
376,196,21727,1,4,0:0:0:0:
376,196,21827,2,0,L|428:92,1,105,2|10,0:0|0:0,0:0:0:0:
344,36,22325,1,0,0:0:0:0:
256,92,22525,1,4,0:0:0:0:
168,36,22724,1,0,0:0:0:0:
89,102,22923,6,0,L|132:188,1,70,10|2,0:0|0:0,0:0:0:0:
44,236,23322,1,4,0:0:0:0:
44,236,23422,1,2,0:0:0:0:
200,236,23721,2,0,B|248:257|248:257|271:304,1,105,10|2,0:0|0:0,0:0:0:0:
276,356,24120,2,0,B|292:324|292:324|322:307,1,70,4|0,0:0|0:0,0:0:0:0:
296,204,24519,6,0,B|326:187|326:187|342:155,1,70,10|2,0:0|0:0,0:0:0:0:
244,112,24918,1,4,0:0:0:0:
244,112,25017,1,2,0:0:0:0:
220,96,26114,6,0,B|190:78|190:78|154:80,1,70,10|10,0:0|0:0,0:0:0:0:
160,184,26513,1,6,0:0:0:0:
160,184,26613,2,0,B|159:218|159:218|180:248|180:248|180:316,1,105,10|8,0:0|0:0,0:0:0:0:
216,320,27012,1,0,0:0:0:0:
256,356,27111,1,0,0:0:0:0:
332,282,27311,2,0,B|332:248|332:248|353:218|353:218,1,70,4|2,0:0|0:0,0:0:0:0:
456,200,27710,5,10,0:0:0:0:
480,100,27909,1,10,0:0:0:0:
396,36,28109,2,0,L|348:44,1,35,6|10,0:0|0:0,0:0:0:0:
220,108,28507,2,0,L|185:102,2,35,8|0|0,0:0|0:0|0:0,0:0:0:0:
312,156,28906,2,0,L|396:140,1,70,4|2,0:0|0:0,0:0:0:0:
480,100,29305,5,10,0:0:0:0:
396,36,29505,1,8,0:0:0:0:
292,52,29704,2,0,L|244:44,1,35,6|10,0:0|0:0,0:0:0:0:
180,184,30103,1,10,0:0:0:0:
108,260,30302,1,0,0:0:0:0:
80,216,30402,1,2,0:0:0:0:
76,164,30502,1,4,0:0:0:0:
100,116,30601,1,0,0:0:0:0:
143,86,30701,1,2,0:0:0:0:
180,184,30901,5,10,0:0:0:0:
220,280,31100,1,10,0:0:0:0:
288,200,31299,2,0,L|320:188,1,35,6|10,0:0|0:0,0:0:0:0:
204,80,31698,2,0,L|236:92,2,35,8|0|2,0:0|0:0|0:0,0:0:0:0:
180,184,32097,1,6,0:0:0:0:
100,116,32297,1,2,0:0:0:0:
80,216,32496,5,10,0:0:0:0:
160,284,32695,1,10,0:0:0:0:
268,300,32895,1,6,0:0:0:0:
268,300,32995,2,0,P|298:284|356:320,1,105,10|8,0:0|0:0,0:0:0:0:
400,340,33393,2,0,L|456:312,1,35
464,224,33693,1,4,0:0:0:0:
396,144,33892,1,2,0:0:0:0:
292,156,34091,5,10,0:0:0:0:
208,92,34291,1,10,0:0:0:0:
312,80,34490,1,6,0:0:0:0:
312,80,34590,2,0,L|280:200,1,105,10|8,0:0|0:0,0:0:0:0:
252,220,34989,1,0,0:0:0:0:
215,255,35089,2,0,P|185:239|151:244,1,70,0|4,0:0|0:0,0:0:0:0:
164,348,35487,1,2,0:0:0:0:
66,307,35687,5,10,0:0:0:0:
151,244,35886,1,8,0:0:0:0:
77,172,36086,1,6,0:0:0:0:
77,172,36185,2,0,P|128:167|165:131,1,105,10|10,0:0|0:0,0:0:0:0:
84,68,36684,1,0,0:0:0:0:
126,37,36784,1,2,0:0:0:0:
177,29,36883,1,4,0:0:0:0:
225,48,36983,1,0,0:0:0:0:
257,89,37083,1,2,0:0:0:0:
165,131,37282,5,10,0:0:0:0:
249,193,37482,1,2,0:0:0:0:
257,89,37681,1,6,0:0:0:0:
257,89,37781,2,0,P|304:112|360:84,1,105,10|8,0:0|0:0,0:0:0:0:
476,260,38479,2,0,P|447:240|413:239,1,70
412,344,38878,5,10,0:0:0:0:
320,292,39077,1,2,0:0:0:0:
228,344,39277,2,0,L|176:352,1,35,10|2,0:0|0:0,0:0:0:0:
324,260,39675,1,10,0:0:0:0:
352,160,39875,2,0,L|444:144,1,70,0|8,0:0|0:0,0:0:0:0:
448,48,40274,1,2,0:0:0:0:
344,32,40473,6,0,L|275:43,1,70,10|10,0:0|0:0,0:0:0:0:
228,136,40872,2,0,L|176:144,1,35,10|2,0:0|0:0,0:0:0:0:
352,160,41271,1,10,0:0:0:0:
276,232,41470,1,0,0:0:0:0:
228,136,41670,1,8,0:0:0:0:
176,144,41769,2,0,L|107:155,1,70
56,164,42069,6,0,P|32:200|36:240,1,70,10|2,0:0|0:0,0:0:0:0:
32,332,42467,2,0,L|52:372,1,35,10|2,0:0|0:0,0:0:0:0:
112,220,42866,1,10,0:0:0:0:
172,76,43165,2,0,L|152:36,1,35,2|10,0:0|0:0,0:0:0:0:
200,140,43465,1,2,0:0:0:0:
296,184,43664,5,10,0:0:0:0:
360,100,43863,2,0,B|376:132|376:132|436:172,2,105,2|2|10,0:0|0:0|0:0,0:0:0:0:
348,72,45259,5,10,0:0:0:0:
256,124,45459,1,2,0:0:0:0:
164,72,45658,2,0,B|148:104|148:104,1,35,6|2,0:0|0:0,0:0:0:0:
208,248,46057,2,0,P|256:266|304:248,1,105,10|0,0:0|0:0,0:0:0:0:
356,264,46456,2,0,P|338:234|333:199,1,70,4|2,0:0|0:0,0:0:0:0:
256,124,46855,5,10,0:0:0:0:
164,72,47054,1,2,0:0:0:0:
68,116,47254,2,0,B|52:148|52:148,1,35,6|2,0:0|0:0,0:0:0:0:
116,292,47653,1,10,0:0:0:0:
116,292,47752,2,0,B|175:278|175:278|208:248,1,105,0|4,0:0|0:0,0:0:0:0:
276,328,48251,1,0,0:0:0:0:
356,264,48450,6,0,B|389:234|389:234|444:220,1,70,10|2,0:0|0:0,0:0:0:0:
448,128,48849,2,0,L|396:140,1,35,6|2,0:0|0:0,0:0:0:0:
264,80,49248,2,0,P|172:44|164:28,1,105,10|2,0:0|0:0,0:0:0:0:
132,76,49647,2,0,P|112:108|112:152,1,70,4|2,0:0|0:0,0:0:0:0:
44,224,50046,5,10,0:0:0:0:
112,304,50245,1,2,0:0:0:0:
208,264,50445,2,0,L|260:252,1,35,6|2,0:0|0:0,0:0:0:0:
376,92,50943,2,0,L|396:104,4,17.5
324,100,51242,2,0,L|252:116,1,70
156,80,51641,5,10,0:0:0:0:
60,124,51841,1,10,0:0:0:0:
44,224,52040,1,6,0:0:0:0:
44,224,52140,2,0,P|96:244|116:300,1,105,10|8,0:0|0:0,0:0:0:0:
140,332,52539,2,0,L|176:312,1,35
156,212,52838,2,0,P|180:164|172:136,1,70,4|2,0:0|0:0,0:0:0:0:
116,64,53237,6,0,P|144:44|178:44,1,70,10|10,0:0|0:0,0:0:0:0:
272,96,53635,2,0,P|288:99|306:97,1,35,6|10,0:0|0:0,0:0:0:0:
456,48,54034,2,0,P|439:44|421:46,2,35,8|0|0,0:0|0:0|0:0,0:0:0:0:
436,152,54433,2,0,B|428:188|428:188|384:232,1,70,4|2,0:0|0:0,0:0:0:0:
468,296,54832,6,0,B|444:319|444:319|436:355,1,70,10|8,0:0|0:0,0:0:0:0:
348,296,55231,1,6,0:0:0:0:
348,296,55331,2,8,B|316:248|316:248|264:236,1,105,10|10,0:0|0:0,0:0:0:0:
168,216,55829,1,0,0:0:0:0:
140,172,55929,1,2,0:0:0:0:
136,120,56029,1,4,0:0:0:0:
160,72,56128,1,0,0:0:0:0:
203,42,56228,1,2,0:0:0:0:
240,140,56427,6,0,P|280:116|300:68,1,70,10|10,0:0|0:0,0:0:0:0:
203,42,56826,2,0,L|160:24,1,35,6|10,0:0|0:0,0:0:0:0:
72,152,57225,2,0,L|39:138,2,35,8|0|2,0:0|0:0|0:0,0:0:0:0:
139,232,57624,2,0,L|204:260,1,70,6|2,0:0|0:0,0:0:0:0:
308,260,58023,6,0,L|372:232,1,70,10|10,0:0|0:0,0:0:0:0:
475,255,58422,1,6,0:0:0:0:
475,255,58521,2,8,P|476:204|448:161,1,105,10|8,0:0|0:0,0:0:0:0:
472,60,59020,1,0,0:0:0:0:
472,60,59120,1,0,0:0:0:0:
472,60,59219,1,4,0:0:0:0:
372,92,59419,1,2,0:0:0:0:
448,161,59618,5,10,0:0:0:0:
448,161,59818,2,0,P|420:188|376:196,1,70,10|6,0:0|0:0,0:0:0:0:
340,196,60117,2,0,L|428:256,1,105,10|8,0:0|0:0,0:0:0:0:
426,255,60516,1,0,0:0:0:0:
426,255,60615,1,0,0:0:0:0:
328,224,60815,2,0,L|248:172,1,70,4|2,0:0|0:0,0:0:0:0:
200,264,61214,6,0,L|205:168,1,70,10|8,0:0|0:0,0:0:0:0:
98,178,61613,1,6,0:0:0:0:
98,178,61712,2,0,B|158:146|158:146|134:118,1,105,10|10,0:0|0:0,0:0:0:0:
36,88,62211,1,0,0:0:0:0:
64,45,62311,1,2,0:0:0:0:
108,19,62410,1,4,0:0:0:0:
160,19,62510,1,0,0:0:0:0:
205,46,62610,1,2,0:0:0:0:
134,118,62809,5,10,0:0:0:0:
43,95,63009,2,0,P|38:137|62:189,1,70,10|6,0:0|0:0,0:0:0:0:
45,163,63308,1,8,0:0:0:0:
45,163,63407,2,0,P|52:196|47:231,1,70,0|8,0:0|0:0,0:0:0:0:
76,332,63806,2,0,L|32:344,2,35,0|8|8,0:0|0:0|0:0,0:0:0:0:
152,260,64205,1,8,0:0:0:0:
252,292,64405,6,0,P|288:280|328:292,1,70,6|2,0:0|0:0,0:0:0:0:
420,256,64803,1,8,0:0:0:0:
420,256,64903,2,0,L|456:200,1,35,2|0,0:0|0:0,0:0:0:0:
384,136,65202,2,0,P|322:106|305:40,1,140,2|8,0:0|0:0,0:0:0:0:
412,32,65801,1,0,0:0:0:0:
384,136,66000,6,0,L|333:217,1,70,2|2,0:0|0:0,0:0:0:0:
256,252,66399,2,0,L|256:296,2,35,8|2|0,0:0|0:0|0:0,0:0:0:0:
166,194,66798,2,0,B|128:136|128:136|58:124,1,140,2|8,0:0|0:0,0:0:0:0:
248,32,67595,6,0,L|316:44,1,70,2|2,0:0|0:0,0:0:0:0:
420,68,67994,1,8,0:0:0:0:
448,112,68094,1,2,0:0:0:0:
440,164,68194,1,0,0:0:0:0:
488,256,68393,2,0,P|438:269|388:254,1,105,2|2,0:0|0:0,0:0:0:0:
341,229,68792,2,0,P|337:264|313:289,1,70,8|2,0:0|0:0,0:0:0:0:
336,184,69191,5,2,0:0:0:0:
440,164,69390,1,2,0:0:0:0:
420,60,69590,2,0,L|452:16,2,35,8|2|0,0:0|0:0|0:0,0:0:0:0:
316,80,69989,1,2,0:0:0:0:
336,184,70188,2,0,L|304:228,2,35,0|0|12,0:0|0:0|0:0,0:0:0:0:
440,164,70587,2,0,L|396:132,1,35
368,112,70786,5,6,0:0:0:0:
280,52,70986,1,2,0:0:0:0:
187,99,71185,1,8,0:0:0:0:
187,99,71285,1,2,0:0:0:0:
187,99,71385,2,0,P|153:95|121:108,1,70,0|2,0:0|0:0,0:0:0:0:
64,196,71783,1,0,0:0:0:0:
168,200,71983,1,8,0:0:0:0:
121,108,72182,1,0,0:0:0:0:
64,196,72382,6,0,P|66:231|84:260,1,70,2|2,0:0|0:0,0:0:0:0:
168,200,72781,1,8,0:0:0:0:
143,153,72880,1,2,0:0:0:0:
121,108,72980,1,0,0:0:0:0:
224,108,73179,2,0,P|221:73|203:44,2,70,2|2|8,0:0|0:0|0:0,0:0:0:0:
372,256,73977,6,0,P|374:290|392:319,1,70,2|2,0:0|0:0,0:0:0:0:
478,260,74376,2,0,L|438:268,2,35,8|2|0,0:0|0:0|0:0,0:0:0:0:
400,188,74775,2,0,P|365:182|332:193,1,70,2|0,0:0|0:0,0:0:0:0:
284,208,75074,2,0,L|305:235,1,35,2|8,0:0|0:0,0:0:0:0:
276,336,75373,1,2,0:0:0:0:
172,344,75573,5,10,0:0:0:0:
116,256,75772,2,0,L|72:196,1,70,10|8,0:0|0:0,0:0:0:0:
68,148,76071,2,0,L|89:175,1,35,2|0,0:0|0:0,0:0:0:0:
184,224,76370,2,0,B|176:204|160:192|160:192|164:168|152:140|152:140|168:120|167:97|167:97|172:80,2,140,4|8|4,0:0|0:0|0:0,0:0:0:0:
308,320,77567,6,0,B|307:320|307:320|308:297|292:277|292:277|312:248|300:212,1,105.000004005432,8|0,0:0|0:0,0:0:0:0:
260,156,78165,1,0,0:0:0:0:
340,152,78365,2,0,P|396:164|408:120,2,105.000004005432,8|0|8,0:0|0:0|0:0,0:0:0:0:
132,264,79761,2,0,P|104:264|76:280,1,52.5000020027161,0|8,0:0|0:0,0:0:0:0:
240,288,80359,6,0,P|247:237|216:192,1,105.000004005432,4|8,0:0|0:0,0:0:0:0:
88,104,81157,1,0,0:0:0:0:
140,44,81356,1,0,0:0:0:0:
220,44,81555,1,8,0:0:0:0:
344,144,81954,6,0,P|337:195|368:240,1,105.000004005432,0|8,0:0|0:0,0:0:0:0:
128,216,82951,2,0,P|138:192|138:166,1,52.5000020027161,0|8,0:0|0:0,0:0:0:0:
152,324,83550,6,0,L|204:220,1,105.000004005432,4|8,0:0|0:0,0:0:0:0:
340,160,84347,1,0,0:0:0:0:
308,232,84547,2,0,L|276:296,1,52.5000020027161,0|8,0:0|0:0,0:0:0:0:
424,208,85145,6,0,L|476:104,1,105.000004005432,0|8,0:0|0:0,0:0:0:0:
239,159,86142,2,0,L|216:206,1,52.5000020027161,0|8,0:0|0:0,0:0:0:0:
288,64,86741,5,4,0:0:0:0:
216,206,87139,1,8,0:0:0:0:
373,196,87538,1,0,0:0:0:0:
331,129,87738,1,0,0:0:0:0:
288,64,87937,1,8,0:0:0:0:
216,206,88336,2,0,L|324:200,1,105.000004005432,0|8,0:0|0:0,0:0:0:0:
256,192,89134,12,0,91527,0:0:0:0:
292,288,97909,6,0,B|322:306|322:306|358:304,1,70,8|8,0:0|0:0,0:0:0:0:
352,200,98308,1,4,0:0:0:0:
352,200,98408,2,0,B|353:166|353:166|332:136|332:136|332:68,1,105,8|8,0:0|0:0,0:0:0:0:
296,64,98807,1,0,0:0:0:0:
256,28,98906,1,0,0:0:0:0:
180,102,99106,2,0,B|180:136|180:136|159:166|159:166,1,70,4|0,0:0|0:0,0:0:0:0:
56,184,99505,5,8,0:0:0:0:
32,284,99704,1,8,0:0:0:0:
116,348,99904,2,0,L|164:340,1,35,4|8,0:0|0:0,0:0:0:0:
292,276,100302,2,0,L|327:282,2,35,8|0|0,0:0|0:0|0:0,0:0:0:0:
200,228,100701,2,0,L|116:244,1,70,4|0,0:0|0:0,0:0:0:0:
32,284,101100,5,8,0:0:0:0:
116,348,101300,1,8,0:0:0:0:
220,332,101499,2,0,L|268:340,1,35,4|8,0:0|0:0,0:0:0:0:
332,200,101898,1,8,0:0:0:0:
404,124,102097,1,0,0:0:0:0:
432,168,102197,1,0,0:0:0:0:
436,220,102297,1,4,0:0:0:0:
412,268,102396,1,0,0:0:0:0:
369,298,102496,1,0,0:0:0:0:
332,200,102696,5,8,0:0:0:0:
292,104,102895,1,8,0:0:0:0:
224,184,103094,2,0,L|192:196,1,35,4|8,0:0|0:0,0:0:0:0:
308,304,103493,2,0,L|276:292,2,35,8|0|0,0:0|0:0|0:0,0:0:0:0:
332,200,103892,1,4,0:0:0:0:
412,268,104092,1,0,0:0:0:0:
432,168,104291,5,8,0:0:0:0:
352,99,104490,1,8,0:0:0:0:
244,84,104689,1,4,0:0:0:0:
244,84,104790,2,0,P|214:100|156:64,1,105,8|8,0:0|0:0,0:0:0:0:
112,44,105188,2,0,L|56:72,1,35
48,160,105488,1,4,0:0:0:0:
116,240,105687,1,0,0:0:0:0:
220,228,105886,5,8,0:0:0:0:
304,292,106086,1,8,0:0:0:0:
200,304,106285,1,4,0:0:0:0:
200,304,106385,2,0,L|232:184,1,105,8|8,0:0|0:0,0:0:0:0:
260,164,106784,1,0,0:0:0:0:
297,129,106884,2,0,P|327:145|361:140,1,70,0|4,0:0|0:0,0:0:0:0:
348,36,107282,1,0,0:0:0:0:
446,77,107482,5,8,0:0:0:0:
361,140,107681,1,8,0:0:0:0:
435,212,107881,1,4,0:0:0:0:
435,212,107980,2,0,P|384:217|347:253,1,105,8|8,0:0|0:0,0:0:0:0:
428,316,108479,1,0,0:0:0:0:
386,347,108579,1,0,0:0:0:0:
335,355,108678,1,4,0:0:0:0:
287,336,108778,1,0,0:0:0:0:
255,295,108878,1,0,0:0:0:0:
347,253,109077,5,8,0:0:0:0:
263,191,109277,1,0,0:0:0:0:
255,295,109476,1,4,0:0:0:0:
255,295,109576,2,0,P|208:272|152:300,1,105,8|8,0:0|0:0,0:0:0:0:
72,232,110074,1,0,0:0:0:0:
41,190,110174,1,4,0:0:0:0:
33,139,110273,1,4,0:0:0:0:
93,59,110473,1,4,0:0:0:0:
192,72,110672,6,0,P|228:80|268:64,1,70,10|10,0:0|0:0,0:0:0:0:
360,40,111071,1,6,0:0:0:0:
360,40,111170,1,10,0:0:0:0:
468,152,111470,1,8,0:0:0:0:
468,152,111569,1,0,0:0:0:0:
468,152,111669,2,0,L|448:232,1,70,0|4,0:0|0:0,0:0:0:0:
452,324,112068,1,2,0:0:0:0:
348,348,112267,6,0,P|312:340|272:356,1,70,10|10,0:0|0:0,0:0:0:0:
196,288,112666,1,6,0:0:0:0:
196,288,112766,2,0,P|140:276|116:236,1,105,10|8,0:0|0:0,0:0:0:0:
104,188,113165,2,0,L|56:180,1,35
136,100,113464,2,0,L|232:112,1,70,4|2,0:0|0:0,0:0:0:0:
304,68,113863,5,10,0:0:0:0:
404,32,114062,2,0,L|473:40,1,70,8|6,0:0|0:0,0:0:0:0:
435,74,114361,2,0,L|472:172,1,105,10|10,0:0|0:0,0:0:0:0:
400,248,114860,1,0,0:0:0:0:
372,204,114960,1,2,0:0:0:0:
368,152,115060,1,4,0:0:0:0:
392,104,115159,1,0,0:0:0:0:
435,74,115259,1,2,0:0:0:0:
472,172,115458,5,10,0:0:0:0:
400,248,115658,1,10,0:0:0:0:
300,276,115857,2,0,L|284:324,1,35,6|10,0:0|0:0,0:0:0:0:
132,316,116256,2,0,L|116:364,2,35,8|0|2,0:0|0:0|0:0,0:0:0:0:
72,228,116655,2,0,L|100:144,1,70,6|2,0:0|0:0,0:0:0:0:
36,72,117054,5,10,0:0:0:0:
136,36,117253,2,0,P|172:40|208:24,1,70,10|6,0:0|0:0,0:0:0:0:
192,80,117552,2,0,P|244:72|288:104,1,105,10|8,0:0|0:0,0:0:0:0:
296,48,117951,2,0,P|320:48|340:44,1,35
420,100,118250,2,0,P|432:132|428:166,1,70,4|2,0:0|0:0,0:0:0:0:
480,260,118649,5,10,0:0:0:0:
420,348,118848,1,10,0:0:0:0:
316,324,119048,2,0,L|276:340,1,35,6|10,0:0|0:0,0:0:0:0:
388,220,119447,2,0,L|420:232,2,35,8|0|2,0:0|0:0|0:0,0:0:0:0:
356,180,119746,1,0,0:0:0:0:
324,140,119846,2,0,L|252:112,1,70,6|2,0:0|0:0,0:0:0:0:
195,34,120244,5,10,0:0:0:0:
301,44,120444,2,0,L|366:69,1,70,10|6,0:0|0:0,0:0:0:0:
411,91,120743,2,0,P|374:128|324:140,1,105,10|10,0:0|0:0,0:0:0:0:
221,148,121242,1,0,0:0:0:0:
239,197,121342,1,2,0:0:0:0:
279,233,121441,1,4,0:0:0:0:
331,242,121541,1,2,0:0:0:0:
381,227,121641,1,0,0:0:0:0:
324,140,121840,5,10,0:0:0:0:
221,148,122039,2,0,P|184:152|145:176,1,70,10|6,0:0|0:0,0:0:0:0:
172,216,122338,2,0,L|128:88,1,105,10|8,0:0|0:0,0:0:0:0:
124,328,123036,1,4,0:0:0:0:
336,344,123435,5,6,0:0:0:0:
440,348,123634,1,2,0:0:0:0:
484,252,123833,1,8,0:0:0:0:
484,252,123933,1,2,0:0:0:0:
484,252,124033,1,0,0:0:0:0:
380,248,124233,2,0,P|356:184|292:152,1,140,2|8,0:0|0:0,0:0:0:0:
280,256,124830,1,0,0:0:0:0:
336,344,125030,5,2,0:0:0:0:
380,248,125229,1,2,0:0:0:0:
424,152,125429,1,8,0:0:0:0:
424,152,125528,1,2,0:0:0:0:
424,152,125628,1,0,0:0:0:0:
320,148,125828,2,0,P|253:141|195:183,1,140,2|8,0:0|0:0,0:0:0:0:
40,228,126625,5,2,0:0:0:0:
76,328,126825,1,2,0:0:0:0:
144,248,127024,2,0,L|120:192,2,35,8|2|0,0:0|0:0|0:0,0:0:0:0:
248,256,127423,1,2,0:0:0:0:
188,108,127723,2,0,L|164:56,1,35,2|8,0:0|0:0,0:0:0:0:
100,152,128021,1,2,0:0:0:0:
144,248,128221,5,2,0:0:0:0:
248,256,128420,1,2,0:0:0:0:
288,352,128620,2,0,L|232:376,2,35,8|2|0,0:0|0:0|0:0,0:0:0:0:
392,352,129018,1,2,0:0:0:0:
440,260,129218,1,0,0:0:0:0:
444,208,129318,1,0,0:0:0:0:
400,180,129417,1,12,0:0:0:0:
300,152,129617,1,0,0:0:0:0:
256,124,129716,1,0,0:0:0:0:
260,72,129816,5,6,0:0:0:0:
360,36,130016,1,2,0:0:0:0:
429,116,130215,1,8,0:0:0:0:
429,116,130315,1,2,0:0:0:0:
429,116,130415,2,0,L|400:192,1,70,0|2,0:0|0:0,0:0:0:0:
360,276,130813,1,0,0:0:0:0:
256,288,131014,2,0,B|244:256|244:256|256:208,1,70,8|0,0:0|0:0,0:0:0:0:
256,116,131413,6,0,B|268:84|268:84|256:36,1,70,2|2,0:0|0:0,0:0:0:0:
152,32,131810,1,8,0:0:0:0:
152,84,131910,1,2,0:0:0:0:
152,136,132010,1,0,0:0:0:0:
48,116,132210,2,0,B|36:84|36:84|48:36,2,70,2|2|8,0:0|0:0|0:0,0:0:0:0:
256,124,133007,5,2,0:0:0:0:
152,136,133207,2,0,P|164:176|184:200,1,70,2|8,0:0|0:0,0:0:0:0:
181,197,133506,1,2,0:0:0:0:
181,197,133605,1,0,0:0:0:0:
236,288,133805,2,0,P|276:300|312:332,1,70,2|0,0:0|0:0,0:0:0:0:
285,264,134104,2,0,L|316:248,1,35,2|8,0:0|0:0,0:0:0:0:
400,308,134403,1,2,0:0:0:0:
488,252,134603,5,10,0:0:0:0:
460,152,134802,1,10,0:0:0:0:
356,144,135002,1,10,0:0:0:0:
356,144,135101,1,2,0:0:0:0:
356,144,135202,1,0,0:0:0:0:
316,248,135400,1,10,0:0:0:0:
400,308,135600,1,4,0:0:0:0:
356,336,135700,1,8,0:0:0:0:
304,340,135800,1,12,0:0:0:0:
256,316,135899,1,0,0:0:0:0:
226,273,135999,1,4,0:0:0:0:
316,248,136199,5,6,0:0:0:0:
340,144,136398,1,2,0:0:0:0:
444,120,136598,2,0,L|496:152,2,35,8|2|0,0:0|0:0|0:0,0:0:0:0:
372,44,136996,2,0,B|340:60|340:60|291:50|291:50,1,70,2|0,0:0|0:0,0:0:0:0:
208,20,137395,1,8,0:0:0:0:
172,116,137595,1,0,0:0:0:0:
67,92,137794,6,0,P|78:59|103:31,1,70,2|2,0:0|0:0,0:0:0:0:
172,116,138193,2,0,L|232:140,2,35,8|2|0,0:0|0:0|0:0,0:0:0:0:
67,92,138592,2,0,L|7:116,2,35,2|0|0,0:0|0:0|0:0,0:0:0:0:
163,47,138991,2,0,L|172:116,1,70,8|0,0:0|0:0,0:0:0:0:
96,192,139390,5,2,0:0:0:0:
188,240,139589,1,2,0:0:0:0:
264,168,139788,2,8,L|297:185,1,35,8|2,0:0|0:0,0:0:0:0:
308,132,139988,2,0,L|396:120,1,70,0|2,0:0|0:0,0:0:0:0:
448,44,140387,2,0,L|415:27,1,35,0|2,0:0|0:0,0:0:0:0:
364,32,140586,1,8,0:0:0:0:
311,36,140686,2,0,P|275:41|275:41,1,35,0|2,0:0|0:0,0:0:0:0:
172,20,140985,5,2,0:0:0:0:
204,120,141184,2,0,P|177:165|136:179,1,70,2|8,0:0|0:0,0:0:0:0:
116,196,141484,1,2,0:0:0:0:
71,221,141583,2,0,P|43:242|30:274,1,70,0|2,0:0|0:0,0:0:0:0:
128,308,141982,1,0,0:0:0:0:
128,308,142082,1,0,0:0:0:0:
128,308,142182,2,0,B|160:320|160:320|208:308,1,70,8|0,0:0|0:0,0:0:0:0:
296,340,142580,6,0,B|330:331|330:331|362:343,1,70,6|2,0:0|0:0,0:0:0:0:
456,292,142979,2,0,L|424:276,1,35,8|2,0:0|0:0,0:0:0:0:
376,252,143179,2,0,P|392:216|376:168,1,70,0|2,0:0|0:0,0:0:0:0:
283,203,143578,1,0,0:0:0:0:
283,203,143777,2,0,L|267:135,1,70,8|0,0:0|0:0,0:0:0:0:
174,86,144176,6,0,P|159:117|164:152,1,70,2|2,0:0|0:0,0:0:0:0:
267,135,144575,1,8,0:0:0:0:
267,135,144674,1,2,0:0:0:0:
267,135,144774,2,0,L|283:203,1,70,0|2,0:0|0:0,0:0:0:0:
184,240,145173,1,0,0:0:0:0:
131,232,145273,1,0,0:0:0:0:
80,220,145372,2,0,P|60:191|58:157,1,70,8|0,0:0|0:0,0:0:0:0:
108,64,145771,5,2,0:0:0:0:
164,151,145971,2,0,P|192:132|206:100,1,70,2|8,0:0|0:0,0:0:0:0:
256,80,146270,1,2,0:0:0:0:
305,100,146370,2,0,P|319:132|347:151,1,70,0|2,0:0|0:0,0:0:0:0:
346,256,146768,1,0,0:0:0:0:
308,291,146868,1,0,0:0:0:0:
257,304,146968,1,8,0:0:0:0:
206,291,147067,1,0,0:0:0:0:
168,256,147167,1,0,0:0:0:0:
256,200,147367,5,0,0:0:0:0:
308,108,147566,1,0,0:0:0:0:
204,108,147766,2,0,L|160:80,2,35
256,200,148164,1,0,0:0:0:0:
308,108,148364,2,0,L|352:80,1,35
