osu file format v14

[General]
AudioFilename: audio.mp3
AudioLeadIn: 0
PreviewTime: 53813
Countdown: 0
SampleSet: Soft
StackLeniency: 0.7
Mode: 0
LetterboxInBreaks: 0
WidescreenStoryboard: 0

[Editor]
Bookmarks: 3668,14358,25207,28284,40592,66745,72899,82130
DistanceSpacing: 0.9
BeatDivisor: 8
GridSize: 32
TimelineZoom: 1.1

[Metadata]
Title:World-Line (TV Size)
TitleUnicode:World-Line (TV Size)
Artist:Imai Asami
ArtistUnicode:今井麻美
Creator:Chaoslitz
Version:Normal
Source:STEINS;GATE 0
Tags:ending ed ed2 5pb nitroplus nitro シュタインズ・ゲート ゼロ eiri- ayyri anime japanese
BeatmapID:1927306
BeatmapSetID:909826

[Difficulty]
HPDrainRate:3
CircleSize:3.5
OverallDifficulty:3
ApproachRate:4
SliderMultiplier:1.2
SliderTickRate:1

[Events]
//Background and Video events
0,0,"bg.jpg",0,0
//Break Periods
//Storyboard Layer 0 (Background)
//Storyboard Layer 1 (Fail)
//Storyboard Layer 2 (Pass)
//Storyboard Layer 3 (Foreground)
//Storyboard Layer 4 (Overlay)
//Storyboard Sound Samples

[TimingPoints]
592,384.615384615385,4,2,1,80,1,0
592,-100,4,2,1,80,0,0
2130,-100,4,2,1,80,0,0
2515,-100,4,2,1,10,0,0
2899,-100,4,2,1,60,0,0
3668,-100,4,2,1,70,0,0
3861,-100,4,2,3,70,0,0
14438,-100,4,2,1,70,0,0
14822,-100,4,2,3,70,0,0
15976,-100,4,2,1,70,0,0
16168,-100,4,2,3,75,0,0
22130,-100,4,2,1,75,0,0
22322,-100,4,2,3,75,0,0
23668,-100,4,2,1,75,0,0
24053,-100,4,2,3,75,0,0
24438,-100,4,2,3,75,0,0
25207,-100,4,2,1,75,0,0
25399,-100,4,2,3,75,0,0
26745,-100,4,2,1,75,0,0
27130,-100,4,2,1,75,0,0
27515,-100,4,2,1,80,0,0
27803,-100,4,2,4,80,0,0
27995,-100,4,2,4,90,0,0
28476,-100,4,2,3,80,0,0
31361,-100,4,2,1,80,0,0
31553,-100,4,2,3,80,0,0
34438,-100,4,2,1,80,0,0
34822,-100,4,2,3,80,0,0
35976,-100,4,2,1,80,0,0
36361,-100,4,2,3,80,0,0
37515,-100,4,2,1,80,0,0
37707,-100,4,2,3,80,0,0
39053,-100,4,2,4,80,0,0
40592,-100,4,2,4,70,0,0
52899,-100,4,2,5,50,0,0
54053,-100,4,2,4,75,0,0
54438,-100,4,2,1,100,0,1
66361,-100,4,2,4,100,0,0
66385,-100,4,2,4,75,0,0
66745,-100,4,2,1,100,0,1
72899,-100,4,2,1,90,0,1
79822,-100,4,2,2,95,0,1
80399,-100,4,2,1,100,0,1
82130,-100,4,2,1,70,0,0
87418,-100,4,2,1,10,0,0
87515,-100,4,2,1,70,0,0
88092,-100,4,2,1,30,0,0

[Colours]
Combo1 : 200,87,156
Combo2 : 202,80,38
Combo3 : 102,171,227
Combo4 : 234,176,119
SliderBorder : 163,131,81
SliderTrackOverride : 201,180,125

[HitObjects]
29,222,592,6,0,B|20:205|20:205|27:147,2,60,14|2|0,0:1|0:0|3:0,0:0:0:0:
93,278,1361,2,0,B|101:294|101:294|94:352,2,60,2|2|2,3:2|3:2|0:0,0:0:0:0:
13,305,2130,1,2,1:2:0:0:
179,365,2899,6,0,L|299:352,1,120,2|0,0:0|0:0,0:0:0:0:
338,339,3476,1,2,0:0:0:0:
338,339,3668,2,0,P|347:348|459:338,2,120,14|8|10,0:1|3:2|0:0,0:0:0:0:
400,283,4822,2,0,L|408:212,1,60,10|2,3:2|3:2,0:0:0:0:
360,155,5399,2,0,L|368:84,2,60,2|10|2,0:0|3:2|0:0,0:0:0:0:
330,185,5976,2,0,P|318:192|212:157,1,120,10|10,0:0|3:2,0:0:0:0:
200,137,6553,1,4,0:0:0:0:
200,137,6745,6,0,L|216:-4,2,120,6|8|10,0:0|3:2|0:0,0:0:0:0:
134,189,7899,2,0,L|63:197,2,60,10|2|8,3:2|0:0|0:0,0:0:0:0:
186,256,8668,1,10,3:2:0:0:
252,204,9053,2,0,P|264:197|370:232,1,120,10|10,0:0|3:2,0:0:0:0:
385,252,9630,1,6,0:0:0:0:
385,252,9822,6,0,L|369:393,2,120,6|8|10,0:0|3:2|0:0,0:0:0:0:
433,183,10976,2,0,L|504:175,1,60,10|2,3:2|0:0,0:0:0:0:
502,92,11553,1,2,0:0:0:0:
502,92,11745,2,0,L|431:99,1,60,10|2,3:2|0:0,0:0:0:0:
406,76,12130,2,0,P|397:85|285:83,1,120,10|10,0:0|3:2,0:0:0:0:
271,63,12707,1,6,0:0:0:0:
271,63,12899,6,0,L|279:-7,2,60,6|2|10,0:0|0:0|3:2,0:0:0:0:
206,119,13668,2,0,L|135:127,1,60,8|2,0:0|3:2,0:0:0:0:
106,111,14053,2,0,B|122:133|122:133|111:225,1,120,10|12,3:2|0:1,0:0:0:0:
47,279,14822,1,0,0:0:0:0:
78,358,15207,2,0,L|198:345,1,120,0|0,3:2|0:0,0:0:0:0:
256,284,15976,5,14,0:1:0:0:
319,349,16361,1,8,3:2:0:0:
319,349,16553,2,0,P|327:358|439:356,1,120,2|0,0:0|3:0,0:0:0:0:
452,334,17130,1,8,3:2:0:0:
509,272,17515,1,8,0:0:0:0:
447,215,17899,1,8,3:2:0:0:
447,215,18092,2,0,B|430:192|430:192|441:100,1,120,2|2,0:0|0:0,0:0:0:0:
446,59,18668,2,0,L|517:51,2,60,10|0|8,3:2|0:0|0:0,0:0:0:0:
369,23,19438,5,8,3:2:0:0:
369,23,19630,2,0,P|357:16|251:51,1,120,2|0,0:0|0:0,0:0:0:0:
237,72,20207,2,0,L|223:213,1,120,8|8,3:2|0:0,0:0:0:0:
265,264,20976,1,10,3:2:0:0:
212,328,21361,2,0,P|206:338|96:361,1,120,10|8,0:0|3:2,0:0:0:0:
78,342,21938,1,2,0:0:0:0:
78,342,22130,6,0,L|91:222,1,120,12|8,0:1|3:2,0:0:0:0:
52,145,22899,2,0,L|60:74,1,60,8|0,0:0|3:0,0:0:0:0:
86,52,23284,2,0,P|98:45|204:80,1,120,8|12,3:2|0:1,0:0:0:0:
220,99,23861,1,2,0:0:0:0:
220,99,24053,2,0,P|229:108|341:100,1,120,10|10,3:2|0:0,0:0:0:0:
373,40,24822,2,0,L|443:32,1,60,10|2,3:2|0:0,0:0:0:0:
469,52,25207,5,12,0:1:0:0:
459,138,25592,1,8,3:2:0:0:
459,138,25785,2,0,B|476:161|476:161|465:253,1,120,2|2,0:0|3:2,0:0:0:0:
490,284,26361,1,8,3:2:0:0:
451,358,26745,1,12,0:1:0:0:
294,297,27515,2,0,B|183:253|190:407|79:361,1,240,14|12,0:1|0:0,0:0:0:0:
56,329,28476,5,0,0:0:0:0:
56,329,28668,2,0,L|64:258,1,60,10|2,0:0|0:0,0:0:0:0:
35,235,29053,2,0,P|31:220|153:152,1,180,8|0,0:0|0:0,0:0:0:0:
170,170,29822,1,10,0:0:0:0:
293,143,30399,1,2,0:0:0:0:
293,143,30592,2,0,L|285:214,1,60,10|0,3:2|3:0,0:0:0:0:
280,245,30976,2,0,L|400:232,1,120,10|12,0:0|0:1,0:0:0:0:
439,244,31553,6,0,L|431:315,2,60,0|10|2,0:0|0:0|0:0,0:0:0:0:
479,224,32130,2,0,P|493:217|477:72,1,180,8|0,0:0|0:0,0:0:0:0:
460,55,32899,1,10,0:0:0:0:
341,11,33476,1,2,0:0:0:0:
341,11,33668,2,0,B|254:-10|270:88|181:70,1,180,10|2,3:2|0:0,0:0:0:0:
148,46,34438,5,14,0:1:0:0:
118,128,34822,1,10,0:0:0:0:
118,128,35015,2,0,L|-2:141,2,120,2|2|2,0:0|0:0|0:0,0:0:0:0:
153,153,35976,1,14,0:1:0:0:
199,227,36361,1,10,0:0:0:0:
273,181,36745,1,10,0:0:0:0:
273,181,36938,2,0,B|290:204|290:204|279:296,1,120,2|10,0:0|0:0,0:0:0:0:
311,321,37515,6,0,L|302:391,2,60,14|10|10,0:1|0:3|0:0,0:0:0:0:
372,263,38284,2,0,L|442:254,1,60,10|2,0:0|0:0,0:0:0:0:
466,278,38668,2,0,B|479:305|479:305|472:334,1,60,8|0,3:2|0:0,0:0:0:0:
443,364,39053,1,14,0:0:0:0:
333,83,40399,5,0,0:0:0:0:
333,83,40592,2,0,L|453:70,2,120,6|2|2,0:0|0:0|0:0,0:0:0:0:
256,42,41745,1,2,0:3:0:0:
182,79,42130,2,0,B|96:53|107:152|19:129,2,180,2|2|2,0:3|0:0|0:0,0:0:0:0:
204,114,43475,1,0,0:0:0:0:
204,114,43668,6,0,L|191:234,2,120,2|2|2,0:0|0:0|0:0,0:0:0:0:
256,43,44822,1,2,0:3:0:0:
330,79,45207,2,0,B|415:53|404:152|492:129,2,180,2|2|2,0:3|0:0|0:0,0:0:0:0:
308,114,46552,1,0,0:0:0:0:
308,114,46745,6,0,L|321:234,1,120,10|2,0:0|0:0,0:0:0:0:
355,316,47515,1,2,0:0:0:0:
355,316,47707,2,0,P|349:326|239:349,1,120,2|0,0:0|0:3,0:0:0:0:
221,331,48284,1,10,0:0:0:0:
152,378,48668,1,2,0:0:0:0:
73,346,49053,2,0,P|62:338|60:226,1,120,2|0,0:0|0:0,0:0:0:0:
70,205,49630,1,0,0:0:0:0:
70,205,49822,6,0,B|181:162|172:316|283:272,1,240,10|0,0:0|0:0,0:0:0:0:
336,206,50976,2,0,L|345:136,2,60,2|8|8,0:0|0:0|0:0,0:0:0:0:
363,237,51553,1,0,0:0:0:0:
363,237,51745,2,0,L|433:228,1,60,2|0,0:0|0:0,0:0:0:0:
449,260,52130,2,0,L|440:330,2,60,2|2|2,0:0|0:0|0:0,0:0:0:0:
504,195,52899,6,0,P|514:177|417:84,1,180,0|0,3:0|3:0,0:0:0:0:
358,33,53861,1,2,0:0:0:0:
358,33,54053,2,0,L|288:42,1,60,4|2,0:0|0:0,0:0:0:0:
274,75,54438,6,0,L|154:88,1,120,14|8,0:1|0:0,0:0:0:0:
123,59,55015,1,2,0:0:0:0:
54,107,55399,2,0,L|45:177,1,60,8|8,0:1|0:0,0:0:0:0:
32,206,55784,1,2,0:0:0:0:
32,206,55976,2,0,P|43:199|149:232,1,120,10|10,0:1|0:0,0:0:0:0:
163,254,56553,2,0,P|172:263|283:254,1,120,2|10,0:0|0:1,0:0:0:0:
332,207,57322,1,2,0:0:0:0:
332,207,57515,6,0,L|341:137,2,60,10|0|10,0:1|0:0|0:0,0:0:0:0:
353,243,58092,2,0,P|367:234|470:335,1,180,2|8,0:0|0:0,0:0:0:0:
466,351,58860,1,2,0:0:0:0:
466,351,59053,2,0,P|457:360|346:355,1,120,10|10,0:1|0:0,0:0:0:0:
333,331,59630,1,2,0:0:0:0:
256,365,60015,1,10,0:1:0:0:
183,335,60399,1,2,0:0:0:0:
183,335,60592,6,0,L|63:348,1,120,14|8,0:1|0:0,0:0:0:0:
42,312,61168,2,0,P|38:297|160:229,1,180,2|8,0:0|0:0,0:0:0:0:
179,245,61938,1,2,0:0:0:0:
179,245,62130,2,0,L|293:233,2,90,14|2|2,0:1|0:0|0:0,0:0:0:0:
125,130,63284,2,0,L|211:121,1,60,8|2,0:0|0:0,0:0:0:0:
217,149,63668,5,14,0:1:0:0:
265,80,64053,1,10,0:0:0:0:
265,80,64245,2,0,P|273:71|385:73,1,120,2|10,0:0|0:1,0:0:0:0:
398,95,64822,2,0,L|389:181,1,60,10|2,0:0|0:0,0:0:0:0:
369,190,65207,2,0,P|382:182|474:287,1,180,10|10,0:1|0:1,0:0:0:0:
440,347,66168,1,2,0:0:0:0:
440,347,66360,2,0,L|370:356,1,60,6|0,0:0|0:0,0:0:0:0:
345,331,66745,6,0,L|225:344,1,120,14|8,0:1|0:0,0:0:0:0:
195,373,67322,1,2,0:0:0:0:
113,353,67707,2,0,L|122:267,1,60,8|8,0:1|0:0,0:0:0:0:
94,259,68092,1,2,0:0:0:0:
94,259,68284,2,0,B|77:236|77:236|88:144,1,120,10|10,0:1|0:0,0:0:0:0:
61,110,68861,1,2,0:0:0:0:
120,51,69245,1,10,0:1:0:0:
200,90,69630,1,2,0:0:0:0:
200,90,69822,6,0,L|191:160,2,60,10|0|10,0:1|0:0|0:0,0:0:0:0:
224,58,70399,2,0,B|309:32|298:131|386:108,1,180,2|8,0:0|0:0,0:0:0:0:
410,74,71169,1,2,0:0:0:0:
410,74,71361,2,0,P|417:69|487:77,1,60,10|2,0:1|0:0,0:0:0:0:
499,94,71745,1,10,0:0:0:0:
499,94,71938,2,0,L|486:214,1,120,2|10,0:0|0:1,0:0:0:0:
502,301,72707,1,0,0:0:0:0:
502,301,72899,6,0,B|388:264|405:417|291:379,1,240,14|10,0:1|0:1,0:0:0:0:
218,349,74053,1,10,0:0:0:0:
218,349,74246,2,0,P|209:340|214:229,1,120,2|0,0:0|0:0,0:0:0:0:
233,210,74822,2,0,L|353:197,2,120,10|10|10,0:0|0:1|0:0,0:0:0:0:
159,169,75976,6,0,P|150:175|40:49,1,240,14|8,0:1|0:1,0:0:0:0:
63,21,76938,1,10,0:1:0:0:
63,21,77130,2,0,L|133:12,1,60,10|2,0:0|0:0,0:0:0:0:
144,51,77515,2,0,L|214:42,2,60,10|0|8,0:1|0:0|0:0,0:0:0:0:
129,92,78092,1,2,0:0:0:0:
159,169,78476,2,0,L|150:239,1,60,8|10,0:1|0:0,0:0:0:0:
123,260,78861,1,0,0:0:0:0:
123,260,79053,6,0,B|237:223|220:376|334:338,1,240,14|6,0:1|0:0,0:0:0:0:
365,318,80015,2,0,L|435:309,1,60,6|14,0:0|0:0,0:0:0:0:
462,327,80399,2,0,B|445:304|445:304|456:212,1,120,6|2,0:0|0:0,0:0:0:0:
422,135,81168,2,0,B|432:44|432:44|415:21,2,120,6|2|2,0:0|0:0|0:0,0:0:0:0:
388,161,82130,6,0,L|267:173,2,120,6|2|0,0:0|0:0|0:0,0:0:0:0:
455,213,83284,1,2,0:0:0:0:
426,292,83668,2,0,P|420:315|238:339,1,240,2|2,0:0|0:0,0:0:0:0:
113,242,85207,6,0,L|125:121,2,120,2|2|0,0:0|0:0|0:0,0:0:0:0:
53,300,86361,1,2,0:0:0:0:
89,374,86745,1,2,0:0:0:0:
186,280,87322,5,2,0:0:0:0:
242,345,87707,2,0,L|362:332,1,120,2|0,0:0|0:0,0:0:0:0:
