osu file format v14

[General]
AudioFilename: audio.mp3
AudioLeadIn: 0
PreviewTime: 53813
Countdown: 0
SampleSet: Soft
StackLeniency: 0.7
Mode: 0
LetterboxInBreaks: 0
WidescreenStoryboard: 1

[Editor]
Bookmarks: 3668,14358,25207,28284,40592,66745,72899,82130
DistanceSpacing: 1
BeatDivisor: 4
GridSize: 32
TimelineZoom: 1.1

[Metadata]
Title:World-Line (TV Size)
TitleUnicode:World-Line (TV Size)
Artist:Imai Asami
ArtistUnicode:今井麻美
Creator:Chaoslitz
Version:Hard
Source:STEINS;GATE 0
Tags:ending ed ed2 5pb nitroplus nitro シュタインズ・ゲート ゼロ eiri- ayyri anime japanese
BeatmapID:1986126
BeatmapSetID:909826

[Difficulty]
HPDrainRate:5
CircleSize:4
OverallDifficulty:6
ApproachRate:7.5
SliderMultiplier:1.55
SliderTickRate:1

[Events]
//Background and Video events
0,0,"bg.jpg",0,0
//Break Periods
//Storyboard Layer 0 (Background)
//Storyboard Layer 1 (Fail)
//Storyboard Layer 2 (Pass)
//Storyboard Layer 3 (Foreground)
//Storyboard Layer 4 (Overlay)
//Storyboard Sound Samples

[TimingPoints]
592,384.615384615385,4,2,1,80,1,0
592,-100,4,2,1,80,0,0
2130,-100,4,2,1,80,0,0
2515,-100,4,2,1,10,0,0
2899,-100,4,2,1,60,0,0
3668,-100,4,2,1,70,0,0
3861,-100,4,2,3,70,0,0
14438,-100,4,2,1,70,0,0
14822,-100,4,2,3,70,0,0
15976,-100,4,2,1,70,0,0
16168,-100,4,2,3,75,0,0
22130,-100,4,2,1,75,0,0
22322,-100,4,2,3,75,0,0
23668,-100,4,2,1,75,0,0
24053,-100,4,2,3,75,0,0
24438,-100,4,2,3,75,0,0
25207,-100,4,2,1,75,0,0
25399,-100,4,2,3,75,0,0
26745,-100,4,2,1,75,0,0
27130,-133.333333333333,4,2,1,75,0,0
27515,-100,4,2,1,80,0,0
27803,-100,4,2,4,80,0,0
27995,-100,4,2,4,90,0,0
28476,-100,4,2,3,80,0,0
31361,-100,4,2,1,80,0,0
31553,-100,4,2,3,80,0,0
34438,-100,4,2,1,80,0,0
34822,-100,4,2,3,80,0,0
35976,-100,4,2,1,80,0,0
36361,-100,4,2,3,80,0,0
37515,-100,4,2,1,80,0,0
37707,-100,4,2,3,80,0,0
39053,-100,4,2,4,80,0,0
40592,-111.111111111111,4,2,4,70,0,0
52899,-100,4,2,5,50,0,0
54053,-100,4,2,4,75,0,0
54438,-90.9090909090909,4,2,1,100,0,1
66361,-90.9090909090909,4,2,4,100,0,0
66385,-90.9090909090909,4,2,4,75,0,0
66745,-90.9090909090909,4,2,1,100,0,1
72899,-90.9090909090909,4,2,1,90,0,1
79438,-90.9090909090909,4,2,2,90,0,1
79822,-90.9090909090909,4,2,2,95,0,1
80399,-90.9090909090909,4,2,1,100,0,1
82130,-166.666666666667,4,2,1,70,0,0
87418,-166.666666666667,4,2,1,10,0,0
87515,-142.857142857143,4,2,1,70,0,0
88092,-100,4,2,1,30,0,0

[Colours]
Combo1 : 200,87,156
Combo2 : 202,80,38
Combo3 : 102,171,227
Combo4 : 234,176,119
SliderBorder : 163,131,81
SliderTrackOverride : 201,180,125

[HitObjects]
0,152,592,6,0,L|104:142,1,77.5,14|2,0:1|0:0,0:0:0:0:
162,173,976,1,0,3:0:0:0:
162,173,1168,1,0,3:0:0:0:
139,88,1361,2,0,L|145:14,2,38.75,2|0|2,3:2|0:0|3:2,0:0:0:0:
158,170,1745,2,0,L|148:274,1,77.5,2|0,0:0|0:0,0:0:0:0:
170,329,2130,6,0,B|250:312|231:383|311:367,1,155,2|0,1:2|0:0,0:0:0:0:
384,202,2899,2,0,P|369:197|293:286,1,155,2|0,0:0|0:0,0:0:0:0:
312,366,3476,1,2,0:0:0:0:
389,332,3668,6,0,L|493:322,1,77.5,14|2,0:1|0:0,0:0:0:0:
483,240,4053,2,0,B|475:229|475:229|485:135,1,77.5,8|0,3:2|0:0,0:0:0:0:
502,83,4438,2,0,B|422:63|439:134|359:116,1,155,10|10,0:0|3:2,0:0:0:0:
297,55,5015,2,0,L|193:65,1,77.5,2|8,3:2|0:0,0:0:0:0:
199,147,5399,5,2,0:0:0:0:
199,147,5592,2,0,L|303:137,2,77.5,10|2|10,3:2|0:0|0:0,0:0:0:0:
136,87,6168,2,0,L|32:97,1,77.5,0|10,0:0|3:2,0:0:0:0:
7,163,6553,1,4,0:0:0:0:
7,163,6745,6,0,B|15:173|15:173|5:268,1,77.5,6|2,0:0|0:0,0:0:0:0:
23,321,7130,2,0,L|127:311,1,77.5,8|0,3:2|0:0,0:0:0:0:
183,332,7515,2,0,B|263:316|243:386|324:372,1,155,10|10,0:0|3:2,0:0:0:0:
387,312,8092,1,2,0:0:0:0:
305,287,8284,6,0,B|297:276|297:276|307:182,1,77.5,8|0,0:0|0:0,0:0:0:0:
376,168,8668,2,0,L|213:183,2,155,10|10|10,3:2|0:0|3:2,0:0:0:0:
457,192,9630,1,6,0:0:0:0:
457,192,9822,6,0,B|465:203|465:203|455:296,1,77.5,6|2,0:0|0:0,0:0:0:0:
387,312,10207,2,0,L|283:322,1,77.5,8|0,3:2|0:0,0:0:0:0:
224,327,10592,2,0,B|143:311|163:381|82:367,1,155,10|10,0:0|3:2,0:0:0:0:
16,312,11168,2,0,P|10:304|28:221,1,77.5,2|8,0:0|0:0,0:0:0:0:
64,174,11552,5,2,0:0:0:0:
64,174,11745,2,0,L|168:164,1,77.5,10|2,3:2|0:0,0:0:0:0:
207,220,12130,2,0,L|370:205,1,155,10|10,0:0|3:2,0:0:0:0:
438,168,12707,2,0,B|446:179|446:179|436:273,1,77.5,6|6,0:0|0:0,0:0:0:0:
368,292,13092,5,2,0:0:0:0:
426,353,13284,2,0,L|530:343,2,77.5,10|0|8,3:2|0:0|0:0,0:0:0:0:
368,292,13861,1,2,3:2:0:0:
300,343,14053,2,0,L|293:415,2,38.75,10|0|0,3:2|0:0|0:0,0:0:0:0:
242,282,14438,5,12,0:1:0:0:
75,322,14822,2,0,B|156:306|136:376|217:362,2,155,0|0|0,0:0|3:2|0:0,3:3:0:0:
5,272,15784,1,2,0:0:0:0:
83,236,15976,6,0,L|91:149,1,77.5,14|2,0:1|0:0,0:0:0:0:
53,81,16361,1,8,3:2:0:0:
105,13,16553,2,0,P|118:4|225:101,1,155,2|0,0:0|3:0,0:0:0:0:
221,137,17130,2,0,L|325:127,1,77.5,8|0,3:2|0:0,0:0:0:0:
350,197,17515,5,8,0:0:0:0:
409,135,17707,2,0,L|417:48,1,77.5,2|8,0:0|3:2,0:0:0:0:
497,30,18092,2,0,L|479:206,1,155,2|2,0:0|0:0,0:0:0:0:
505,266,18668,2,0,L|401:276,1,77.5,10|0,3:2|0:0,0:0:0:0:
423,279,18957,1,0,3:0:0:0:
418,285,19053,6,0,L|314:295,1,77.5,8|2,0:0|0:0,0:0:0:0:
280,352,19438,1,8,3:2:0:0:
259,270,19630,2,0,B|178:254|198:324|117:310,1,155,2|0,0:0|0:0,0:0:0:0:
51,255,20206,2,0,P|45:247|63:164,1,77.5,8|0,3:2|0:0,0:0:0:0:
49,177,20495,1,0,0:0:0:0:
55,172,20592,6,0,L|159:162,1,77.5,8|2,0:0|0:0,0:0:0:0:
181,233,20976,2,0,B|169:217|169:217|183:83,2,155,10|10|8,3:2|0:0|3:2,0:0:0:0:
256,192,21938,1,2,0:0:0:0:
331,233,22130,6,0,B|339:244|339:244|329:338,1,77.5,12|2,0:1|0:0,0:0:0:0:
393,367,22515,1,8,3:2:0:0:
465,321,22707,2,0,L|483:145,1,155,2|0,0:0|3:0,0:0:0:0:
501,83,23284,2,0,L|397:93,1,77.5,8|0,3:2|0:0,0:0:0:0:
349,132,23668,5,12,0:1:0:0:
307,56,23861,1,2,0:0:0:0:
307,56,24053,2,0,L|203:66,1,77.5,10|0,3:2|0:0,0:0:0:0:
150,31,24438,2,0,P|131:29|73:134,1,155,10|10,0:0|3:2,0:0:0:0:
43,213,25015,1,2,0:0:0:0:
43,213,25111,1,0,0:0:0:0:
43,213,25207,6,0,B|124:197|104:267|185:253,1,155,12|8,0:1|3:2,0:0:0:0:
240,187,25784,2,0,L|222:363,1,155,2|2,0:0|3:2,0:0:0:0:
303,374,26361,2,0,L|315:250,1,116.25,8|0,3:2|0:0,0:0:0:0:
313,239,26745,5,12,0:1:0:0:
387,357,27130,2,0,L|486:347,1,87.1875033259393,0|0,3:0|0:0,3:3:0:0:
500,315,27515,6,0,L|505:255,3,38.75,14|0|2|2,0:1|0:0|3:2|3:2,0:0:0:0:
484,238,27899,2,0,L|424:243,3,38.75,2|0|2|2,0:2|3:0|3:2|3:2,0:0:0:0:
408,263,28284,5,12,0:0:0:0:
372,185,28476,1,0,0:0:0:0:
450,148,28668,2,0,B|442:137|442:137|452:43,1,77.5,10|2,0:0|0:0,0:0:0:0:
370,38,29053,2,0,L|375:-21,2,38.75,8|2|0,0:0|0:0|0:0,0:0:0:0:
311,101,29438,1,8,0:0:0:0:
232,64,29630,1,0,0:0:0:0:
173,127,29822,6,0,B|181:138|181:138|171:232,1,77.5,10|8,0:0|0:3,0:0:0:0:
174,201,30111,1,6,0:3:0:0:
174,201,30207,1,8,0:0:0:0:
257,181,30399,1,2,0:0:0:0:
331,223,30592,2,0,L|319:347,1,116.25,10|2,3:2|0:0,0:0:0:0:
346,371,30976,2,0,L|435:362,1,77.5,10|2,0:0|0:0,0:0:0:0:
423,363,31265,1,2,0:0:0:0:
423,363,31361,5,12,0:1:0:0:
490,311,31553,1,0,0:0:0:0:
438,245,31745,2,0,B|430:234|430:234|440:140,1,77.5,10|2,0:0|0:0,0:0:0:0:
425,85,32130,2,0,L|485:80,2,38.75,8|2|0,0:0|0:0|0:0,0:0:0:0:
356,138,32515,1,8,0:0:0:0:
344,52,32707,1,0,0:0:0:0:
275,106,32899,6,0,L|185:115,1,77.5,10|8,0:0|0:3,0:0:0:0:
197,113,33188,1,4,0:3:0:0:
197,113,33284,1,8,0:0:0:0:
196,205,33476,1,2,0:0:0:0:
127,157,33668,2,0,L|67:162,3,38.75,10|0|0|2,3:2|0:0|3:2|0:0,0:0:0:0:
57,130,34053,1,8,0:0:0:0:
5,197,34245,1,2,0:0:0:0:
52,267,34438,6,0,L|142:258,1,77.5,14|0,0:1|0:0,0:0:0:0:
196,205,34822,1,10,0:0:0:0:
208,289,35015,2,0,B|289:273|269:343|350:329,1,155,2|2,0:0|0:0,0:0:0:0:
430,295,35592,2,0,L|439:205,1,77.5,8|2,0:0|0:0,0:0:0:0:
434,211,35880,1,0,0:0:0:0:
430,203,35976,6,0,L|267:218,2,155,14|10|10,0:1|0:0|0:0,0:0:0:0:
489,141,36938,1,2,0:0:0:0:
406,121,37130,2,8,L|411:61,3,38.75,8|8|10|8,0:0|0:0|0:0|0:0,0:0:0:0:
391,43,37515,5,14,0:1:0:0:
319,88,37707,1,10,0:3:0:0:
319,88,37803,1,6,0:3:0:0:
319,88,37899,2,0,P|216:121|196:104,1,116.25,10|0,0:0|0:0,0:0:0:0:
188,95,38284,2,0,L|193:35,3,38.75,10|2|2|0,0:0|0:0|0:0|0:0,0:0:0:0:
158,27,38668,1,8,3:2:0:0:
84,71,38861,5,0,0:0:0:0:
84,71,38957,1,0,0:0:0:0:
84,71,39053,1,14,0:0:0:0:
39,218,40399,5,0,0:0:0:0:
120,195,40592,2,0,B|125:202|125:202|118:261,1,69.749997871399,6|0,0:0|0:0,0:0:0:0:
146,342,40976,2,0,P|152:348|252:317,1,69.749997871399,2|0,0:0|0:0,0:0:0:0:
275,309,41361,2,0,L|374:299,2,69.749997871399,2|0|2,0:0|0:3|0:3,0:0:0:0:
409,249,42130,6,0,P|405:255|509:372,2,209.249993614197,2|2|2,0:3|0:0|0:0,0:0:0:0:
485,215,43476,1,0,0:0:0:0:
418,166,43668,6,0,B|413:159|413:159|420:100,1,69.749997871399,2|0,0:0|0:0,0:0:0:0:
379,24,44053,2,0,L|280:34,1,69.749997871399,2|0,0:0|0:0,0:0:0:0:
243,82,44438,2,0,B|248:89|248:89|241:148,2,69.749997871399,2|0|2,0:0|0:3|0:3,0:0:0:0:
104,136,45207,6,0,P|100:130|204:13,2,209.249993614197,2|2|2,0:3|0:0|0:0,0:0:0:0:
73,215,46553,1,0,0:0:0:0:
76,221,46649,1,0,0:0:0:0:
80,226,46745,2,0,P|86:232|186:201,1,69.749997871399,10|0,0:0|0:0,0:0:0:0:
209,193,47130,2,0,L|308:183,1,69.749997871399,2|0,0:0|0:0,0:0:0:0:
299,104,47515,1,2,0:0:0:0:
359,163,47707,2,0,B|431:148|413:211|486:198,1,139.499995742798,2|0,0:0|0:3,0:0:0:0:
492,202,48188,1,0,0:3:0:0:
496,206,48284,6,0,L|487:287,1,69.749997871399,10|0,0:0|0:0,0:0:0:0:
451,352,48668,2,0,P|445:358|345:327,1,69.749997871399,2|0,0:0|0:0,0:0:0:0:
320,323,49053,2,0,B|247:311|268:373|195:364,1,139.499995742798,2|0,0:0|0:0,0:0:0:0:
114,333,49630,1,0,0:0:0:0:
35,302,49822,6,0,L|50:132,1,139.499995742798,10|0,0:0|0:0,0:0:0:0:
29,81,50399,1,2,0:0:0:0:
110,107,50592,2,0,B|182:92|164:155|237:142,1,139.499995742798,0|2,0:0|0:0,0:0:0:0:
303,90,51168,1,8,0:0:0:0:
303,90,51361,5,8,0:0:0:0:
225,61,51553,1,0,0:0:0:0:
238,141,51745,2,0,B|245:150|245:150|236:235,1,69.749997871399,2|0,0:0|0:0,0:0:0:0:
176,263,52130,2,0,L|76:272,1,69.749997871399,2|2,0:0|0:0,0:0:0:0:
33,227,52515,2,0,B|26:218|26:218|35:133,1,69.749997871399,2|0,0:0|0:0,0:0:0:0:
13,76,52899,5,0,3:0:0:0:
13,76,52995,2,0,L|117:66,1,77.5,4|0,0:0|3:0,0:0:0:0:
133,65,53284,2,0,L|124:155,1,77.5,4|0,0:0|3:0,0:0:0:0:
120,184,53572,2,0,L|192:177,1,38.75,4|0,0:0|0:0,0:0:0:0:
239,207,53861,1,2,0:0:0:0:
176,263,54053,2,0,B|183:272|183:272|174:357,1,77.5,4|2,0:0|0:0,0:0:0:0:
253,375,54438,6,0,L|440:357,1,170.500005203247,14|8,0:1|0:0,0:0:0:0:
493,310,55015,1,2,0:0:0:0:
417,273,55207,2,0,B|410:260|410:260|419:175,1,85.2500026016236,8|8,0:1|0:1,0:0:0:0:
475,127,55592,1,8,0:0:0:0:
433,53,55784,1,2,0:0:0:0:
349,70,55976,6,0,B|259:52|281:128|192:112,1,170.500005203247,10|10,0:1|0:0,0:0:0:0:
118,69,56553,2,0,L|124:-5,2,42.6250013008118,2|0|8,0:0|0:0|0:1,0:0:0:0:
53,124,56938,1,10,0:1:0:0:
87,205,57130,1,8,0:0:0:0:
179,204,57323,1,2,0:0:0:0:
179,204,57419,1,0,0:0:0:0:
179,204,57515,6,0,B|186:213|186:213|177:298,1,85.2500026016236,10|0,0:1|0:0,0:0:0:0:
189,374,57899,1,10,0:0:0:0:
109,340,58092,2,0,L|35:346,2,42.6250013008118,2|0|8,0:0|0:0|0:1,0:0:0:0:
178,286,58476,1,8,0:1:0:0:
189,374,58668,1,8,0:0:0:0:
265,327,58861,1,2,0:0:0:0:
265,327,58957,1,2,0:0:0:0:
265,327,59053,6,8,B|354:309|332:385|421:369,1,170.500005203247,10|10,0:1|0:0,0:0:0:0:
443,287,59630,2,0,L|369:293,2,42.6250013008118,2|0|8,0:0|0:0|0:1,0:0:0:0:
464,204,60015,2,0,L|363:212,1,85.2500026016236,10|8,0:1|0:0,0:0:0:0:
300,243,60399,1,2,0:0:0:0:
230,195,60592,6,0,B|223:182|223:182|232:97,1,85.2500026016236,14|0,0:1|0:0,0:0:0:0:
224,27,60976,1,8,0:0:0:0:
154,75,61168,1,2,0:0:0:0:
154,75,61265,1,0,0:0:0:0:
154,75,61361,2,0,L|53:83,1,85.2500026016236,8|8,0:1|0:1,0:0:0:0:
6,135,61745,1,8,0:0:0:0:
36,213,61938,1,2,0:0:0:0:
120,207,62130,6,0,B|127:220|127:220|118:305,1,85.2500026016236,14|0,0:1|0:0,0:0:0:0:
108,331,62418,2,0,L|208:323,1,85.2500026016236,2|0,0:0|0:0,0:0:0:0:
224,294,62707,1,2,0:0:0:0:
272,364,62899,2,0,L|372:356,2,85.2500026016236,8|8|8,0:1|0:1|0:0,0:0:0:0:
224,294,63476,1,2,0:0:0:0:
262,219,63668,6,0,B|351:201|329:277|418:261,1,170.500005203247,14|10,0:1|0:0,0:0:0:0:
480,206,64245,1,2,0:0:0:0:
475,199,64342,1,0,0:0:0:0:
470,192,64438,2,0,L|479:102,1,85.2500026016236,8|10,0:1|0:1,0:0:0:0:
439,31,64822,1,10,0:0:0:0:
353,44,65015,1,2,0:0:0:0:
342,133,65207,5,10,0:1:0:0:
342,133,65303,2,0,L|242:141,1,85.2500026016236,10|10,0:1|0:1,0:0:0:0:
221,163,65592,2,0,B|228:176|228:176|219:261,1,85.2500026016236,10|10,0:1|0:1,0:0:0:0:
242,282,65880,2,0,L|322:275,1,42.6250013008118,10|0,0:1|0:0,0:0:0:0:
345,218,66168,1,2,0:0:0:0:
415,268,66361,2,0,L|406:358,1,85.2500026016236,6|0,0:0|0:0,0:0:0:0:
487,378,66745,6,0,L|504:201,1,170.500005203247,14|8,0:1|0:0,0:0:0:0:
485,125,67322,2,0,L|492:45,2,42.6250013008118,2|0|8,0:0|0:0|0:1,0:0:0:0:
423,183,67707,1,8,0:1:0:0:
423,183,67803,1,0,0:0:0:0:
423,183,67899,1,8,0:0:0:0:
415,268,68092,1,2,0:0:0:0:
345,218,68284,6,0,B|256:200|278:276|189:260,1,170.500005203247,10|10,0:1|0:0,0:0:0:0:
106,237,68861,2,0,L|26:244,2,42.6250013008118,2|0|8,0:0|0:0|0:1,0:0:0:0:
128,155,69245,1,10,0:1:0:0:
210,178,69438,1,8,0:0:0:0:
196,267,69630,1,2,0:0:0:0:
196,267,69726,1,0,0:0:0:0:
196,267,69822,6,0,B|203:276|203:276|194:361,1,85.2500026016236,10|0,0:1|0:0,0:0:0:0:
273,384,70207,1,10,0:0:0:0:
330,321,70399,2,0,L|410:314,2,42.6250013008118,2|0|8,0:0|0:0|0:1,0:0:0:0:
287,248,70784,1,8,0:1:0:0:
344,185,70976,1,8,0:0:0:0:
428,226,71168,5,2,0:0:0:0:
428,226,71265,1,2,0:0:0:0:
428,226,71361,1,10,0:1:0:0:
477,156,71553,1,2,0:0:0:0:
434,83,71745,1,10,0:0:0:0:
351,101,71938,2,0,L|358:21,2,42.6250013008118,2|0|8,0:0|0:3|0:1,0:0:0:0:
344,185,72322,2,0,L|244:193,1,85.2500026016236,10|8,0:1|0:0,0:0:0:0:
176,215,72707,1,0,0:0:0:0:
99,177,72899,6,0,P|75:172|11:294,1,170.500005203247,14|8,0:1|0:0,0:0:0:0:
21,353,73476,1,0,0:0:0:0:
27,359,73573,1,0,0:0:0:0:
33,365,73668,2,0,L|133:357,1,85.2500026016236,10|0,0:1|0:0,0:0:0:0:
209,384,74053,2,0,B|216:313|216:313|209:300,1,85.2500026016236,10|2,0:0|0:0,0:0:0:0:
209,300,74342,1,0,0:0:0:0:
209,300,74438,6,0,L|309:292,1,85.2500026016236,12|0,0:1|0:0,0:0:0:0:
362,242,74822,1,10,0:0:0:0:
371,327,75015,2,0,L|364:407,2,42.6250013008118,0|0|10,0:0|0:0|0:1,0:0:0:0:
439,275,75399,1,8,0:1:0:0:
362,242,75592,2,0,B|355:229|355:229|362:158,1,85.2500026016236,10|0,0:0|0:0,0:0:0:0:
422,99,75976,6,0,L|232:114,1,170.500005203247,14|8,0:1|0:0,0:0:0:0:
169,90,76553,2,0,L|89:97,2,42.6250013008118,0|0|8,0:0|0:0|0:1,0:0:0:0:
230,30,76938,1,10,0:1:0:0:
252,112,77130,2,0,B|259:125|259:125|252:196,1,85.2500026016236,10|2,0:0|0:0,0:0:0:0:
177,236,77515,5,10,0:1:0:0:
191,319,77707,2,0,L|187:361,3,28.4166675338745,0|2|0|8,0:0|0:0|0:0|0:0,0:0:0:0:
274,331,78092,2,0,B|363:313|341:389|430:373,1,170.500005203247,2|8,0:0|0:1,0:0:0:0:
439,371,78572,1,0,0:0:0:0:
446,367,78668,1,10,0:0:0:0:
504,304,78861,1,0,0:0:0:0:
457,230,79053,6,0,L|465:130,1,85.2500026016236,14|8,0:1|0:1,0:0:0:0:
447,60,79438,2,0,L|347:68,1,85.2500026016236,12|4,0:0|0:0,0:0:0:0:
292,115,79822,1,6,0:0:0:0:
215,79,80015,1,6,0:0:0:0:
285,30,80207,1,14,0:0:0:0:
292,115,80399,6,0,B|203:97|225:173|136:157,1,170.500005203247,6|2,0:0|0:0,0:0:0:0:
55,124,80976,1,0,0:0:0:0:
65,208,81168,2,0,L|50:398,2,170.500005203247,6|2|2,0:0|0:0|0:0,0:0:0:0:
55,124,82130,6,0,L|63:15,2,92.9999971618653,6|2|0,0:0|0:0|0:0,0:0:0:0:
65,208,83284,1,2,0:0:0:0:
135,157,83668,2,0,B|224:134|209:238|296:220,1,185.999994323731,2|2,0:0|0:0,0:0:0:0:
404,74,85207,6,0,L|512:65,2,92.9999971618653,2|2|0,0:0|0:0|0:0,0:0:0:0:
321,53,86361,1,2,0:0:0:0:
345,136,86745,1,2,0:0:0:0:
349,140,87322,6,0,L|346:178,1,23.2499992904663,2|0,0:0|0:0,0:0:0:0:
296,219,87707,2,0,L|408:211,1,108.499996688843,2|0,0:0|0:0,0:0:0:0:
