osu file format v14

[General]
AudioFilename: audio.mp3
AudioLeadIn: 0
PreviewTime: 53813
Countdown: 0
SampleSet: Soft
StackLeniency: 0.7
Mode: 0
LetterboxInBreaks: 0
WidescreenStoryboard: 0

[Editor]
Bookmarks: 3668,14358,25207,28284,40592,66745,72899,82130
DistanceSpacing: 0.9
BeatDivisor: 8
GridSize: 32
TimelineZoom: 1.1

[Metadata]
Title:World-Line (TV Size)
TitleUnicode:World-Line (TV Size)
Artist:Imai Asami
ArtistUnicode:今井麻美
Creator:Chaoslitz
Version:Amadeus
Source:STEINS;GATE 0
Tags:ending ed ed2 5pb nitroplus nitro シュタインズ・ゲート ゼロ eiri- ayyri anime japanese
BeatmapID:1898632
BeatmapSetID:909826

[Difficulty]
HPDrainRate:5
CircleSize:4.2
OverallDifficulty:8
ApproachRate:9
SliderMultiplier:1.8
SliderTickRate:1

[Events]
//Background and Video events
0,0,"bg.jpg",0,0
//Break Periods
//Storyboard Layer 0 (Background)
//Storyboard Layer 1 (Fail)
//Storyboard Layer 2 (Pass)
//Storyboard Layer 3 (Foreground)
//Storyboard Layer 4 (Overlay)
//Storyboard Sound Samples

[TimingPoints]
592,384.615384615385,4,2,1,80,1,0
592,-125,4,2,1,80,0,0
2130,-105.263157894737,4,2,1,80,0,0
2515,-105.263157894737,4,2,1,10,0,0
2899,-125,4,2,1,60,0,0
3668,-111.111111111111,4,2,1,70,0,0
3861,-111.111111111111,4,2,3,70,0,0
14438,-111.111111111111,4,2,1,70,0,0
14822,-111.111111111111,4,2,3,70,0,0
15976,-111.111111111111,4,2,1,70,0,0
16168,-111.111111111111,4,2,3,75,0,0
22130,-111.111111111111,4,2,1,75,0,0
22322,-111.111111111111,4,2,3,75,0,0
23668,-111.111111111111,4,2,1,75,0,0
24053,-100,4,2,3,75,0,0
24438,-111.111111111111,4,2,3,75,0,0
25207,-111.111111111111,4,2,1,75,0,0
25399,-111.111111111111,4,2,3,75,0,0
26745,-111.111111111111,4,2,1,75,0,0
27130,-166.666666666667,4,2,1,75,0,0
27515,-100,4,2,1,80,0,0
27803,-105.263157894737,4,2,4,80,0,0
27995,-105.263157894737,4,2,4,90,0,0
28476,-111.111111111111,4,2,3,80,0,0
31361,-111.111111111111,4,2,1,80,0,0
31553,-111.111111111111,4,2,3,80,0,0
34438,-111.111111111111,4,2,1,80,0,0
34822,-111.111111111111,4,2,3,80,0,0
35976,-111.111111111111,4,2,1,80,0,0
36361,-111.111111111111,4,2,3,80,0,0
37515,-111.111111111111,4,2,1,80,0,0
37707,-111.111111111111,4,2,3,80,0,0
39053,-111.111111111111,4,2,4,80,0,0
40592,-133.333333333333,4,2,4,70,0,0
52899,-117.647058823529,4,2,5,50,0,0
54053,-117.647058823529,4,2,4,75,0,0
54438,-105.263157894737,4,2,1,100,0,1
66361,-105.263157894737,4,2,4,100,0,0
66385,-105.263157894737,4,2,4,75,0,0
66745,-105.263157894737,4,2,1,100,0,1
72899,-105.263157894737,4,2,1,90,0,1
79438,-105.263157894737,4,2,2,90,0,1
79822,-105.263157894737,4,2,2,95,0,1
80399,-105.263157894737,4,2,1,100,0,1
82130,-200,4,2,1,70,0,0
87418,-200,4,2,1,10,0,0
87515,-166.666666666667,4,2,1,70,0,0
88092,-166.666666666667,4,2,1,30,0,0

[Colours]
Combo1 : 200,87,156
Combo2 : 202,80,38
Combo3 : 102,171,227
Combo4 : 234,176,119
SliderBorder : 163,131,81
SliderTrackOverride : 201,180,125

[HitObjects]
65,101,592,5,14,0:1:0:0:
107,93,688,1,0,0:0:0:0:
134,126,784,1,2,0:0:0:0:
195,264,976,2,0,L|190:306,2,36,0|0|0,3:0|0:0|3:0,0:0:0:0:
210,184,1361,1,2,3:2:0:0:
210,184,1457,1,0,0:0:0:0:
210,184,1553,1,2,3:2:0:0:
54,222,1745,2,0,L|147:210,1,72,2|0,0:0|0:0,0:0:0:0:
345,211,2130,6,0,B|264:187|274:285|195:264,1,170.999995433807,2|0,1:2|0:0,0:0:0:0:
502,315,2899,6,0,P|497:325|355:326,1,144,2|0,0:0|0:0,0:0:0:0:
330,291,3476,1,2,0:0:0:0:
433,197,3668,6,0,L|421:290,1,80.9999975280763,14|2,0:1|0:0,0:0:0:0:
422,277,4053,1,8,3:2:0:0:
353,160,4245,2,0,L|287:168,2,40.4999987640381,0|0|10,0:0|0:0|0:0,0:0:0:0:
491,131,4630,1,0,0:0:0:0:
491,131,4726,1,0,0:0:0:0:
491,131,4822,1,10,3:2:0:0:
423,277,5015,2,0,L|435:184,1,80.9999975280763,2|8,3:2|0:0,0:0:0:0:
448,57,5399,5,2,0:0:0:0:
448,57,5495,1,0,0:0:0:0:
448,57,5592,1,10,3:2:0:0:
353,160,5784,1,2,0:0:0:0:
353,160,5976,1,10,0:0:0:0:
491,131,6168,1,0,0:0:0:0:
433,196,6361,1,10,3:2:0:0:
464,355,6553,1,4,0:0:0:0:
342,287,6745,6,0,L|435:275,1,80.9999975280763,6|2,0:0|0:0,0:0:0:0:
422,276,7130,1,8,3:2:0:0:
273,374,7322,2,0,L|281:308,2,40.4999987640381,0|0|10,0:0|0:0|0:0,0:0:0:0:
271,254,7707,1,0,0:0:0:0:
271,254,7803,1,0,0:0:0:0:
271,254,7899,1,10,3:2:0:0:
423,277,8092,2,0,L|330:289,1,80.9999975280763,2|8,0:0|0:0,0:0:0:0:
192,213,8476,1,0,0:0:0:0:
62,354,8668,6,0,P|66:359|194:340,1,121.499996292114,10|0,3:2|0:0,0:0:0:0:
129,263,9053,2,0,L|121:329,1,40.4999987640381,10|0,0:0|3:0,0:0:0:0:
83,197,9245,1,0,3:0:0:0:
83,197,9342,1,0,3:0:0:0:
83,197,9438,1,10,3:2:0:0:
233,134,9630,1,6,0:0:0:0:
103,35,9822,5,6,0:0:0:0:
2,207,10015,2,0,L|95:195,1,80.9999975280763,2|8,0:0|3:2,0:0:0:0:
153,103,10399,2,0,L|145:169,2,40.4999987640381,0|0|10,0:0|0:0|0:0,0:0:0:0:
199,220,10784,1,0,0:0:0:0:
199,220,10880,1,0,0:0:0:0:
199,220,10976,1,10,3:2:0:0:
313,123,11168,2,0,L|220:135,1,80.9999975280763,2|8,0:0|0:0,0:0:0:0:
129,263,11553,5,2,0:0:0:0:
331,359,11745,1,10,3:2:0:0:
199,220,11938,1,2,0:0:0:0:
239,214,12034,1,0,0:0:0:0:
264,245,12130,2,0,L|246:377,1,121.499996292114,10|0,0:0|0:0,0:0:0:0:
248,365,12515,1,10,3:2:0:0:
411,349,12707,1,6,0:0:0:0:
172,379,12899,5,6,0:0:0:0:
264,245,13092,1,2,0:0:0:0:
341,278,13284,2,0,L|328:371,1,80.9999975280763,10|0,3:2|0:0,0:0:0:0:
330,358,13572,1,0,0:0:0:0:
330,358,13668,1,8,0:0:0:0:
332,195,13861,1,2,3:2:0:0:
449,223,14053,2,0,L|383:231,2,40.4999987640381,10|0|0,3:2|0:0|0:0,0:0:0:0:
408,32,14438,5,12,0:1:0:0:
473,81,14822,1,0,0:0:0:0:
398,113,15207,2,0,B|321:90|330:182|256:163,1,161.999995056153,0|0,3:2|0:0,3:0:0:0:
125,63,15784,1,2,0:0:0:0:
24,235,15976,6,0,L|117:223,1,80.9999975280763,14|2,0:1|0:0,0:0:0:0:
182,253,16361,1,8,3:2:0:0:
175,131,16553,2,0,L|167:197,2,40.4999987640381,2|0|8,0:0|0:0|0:0,0:0:0:0:
104,224,16938,1,0,3:0:0:0:
249,362,17130,2,0,L|262:269,1,80.9999975280763,8|0,3:2|0:0,0:0:0:0:
260,281,17418,1,0,0:0:0:0:
260,281,17515,5,8,0:0:0:0:
90,345,17707,2,0,L|183:332,1,80.9999975280763,2|8,0:0|3:2,0:0:0:0:
338,310,18092,2,0,L|330:376,2,40.4999987640381,2|0|8,0:0|0:0|0:0,0:0:0:0:
414,222,18476,1,2,0:0:0:0:
409,219,18572,1,0,0:0:0:0:
404,216,18668,2,0,L|311:229,1,80.9999975280763,10|0,3:2|0:0,0:0:0:0:
260,281,18957,1,0,3:0:0:0:
260,281,19053,5,8,0:0:0:0:
407,379,19245,2,0,L|420:286,1,80.9999975280763,2|8,0:0|3:2,0:0:0:0:
375,141,19630,1,2,0:0:0:0:
375,141,19726,1,0,3:0:0:0:
375,141,19822,1,8,0:0:0:0:
487,256,20015,1,0,0:0:0:0:
323,227,20207,2,0,L|416:214,1,80.9999975280763,8|0,3:2|0:0,0:0:0:0:
409,219,20495,1,0,0:0:0:0:
414,222,20592,5,8,0:0:0:0:
258,176,20784,1,2,0:0:0:0:
350,34,20976,2,0,P|319:124|330:141,1,121.499996292114,10|0,3:2|0:0,0:0:0:0:
334,146,21361,1,10,0:0:0:0:
334,146,21457,2,0,L|389:138,2,40.4999987640381,0|0|0,3:0|3:0|3:0,0:0:0:0:
258,176,21745,1,8,3:2:0:0:
404,216,21938,1,2,0:0:0:0:
306,348,22130,5,12,0:1:0:0:
404,216,22322,2,0,L|311:229,1,80.9999975280763,2|8,0:0|3:2,0:0:0:0:
306,348,22707,2,0,L|314:293,2,40.4999987640381,2|0|8,0:0|0:0|0:0,0:0:0:0:
258,176,23092,1,0,3:0:0:0:
166,268,23284,2,0,L|259:255,1,80.9999975280763,8|0,3:2|0:0,0:0:0:0:
311,307,23572,1,0,0:0:0:0:
311,307,23668,5,12,0:1:0:0:
177,187,23861,1,2,0:0:0:0:
95,349,24053,2,0,P|101:358|220:354,1,135,10|0,3:2|0:3,0:3:0:0:
166,268,24438,2,0,L|158:323,2,40.4999987640381,10|0|0,0:0|0:0|0:0,0:0:0:0:
119,95,24822,1,10,3:2:0:0:
9,154,25015,1,2,0:0:0:0:
0,193,25111,1,0,0:0:0:0:
20,227,25207,6,0,L|138:210,1,80.9999975280763,12|2,0:1|0:0,0:0:0:0:
100,216,25495,1,0,0:0:0:0:
100,216,25592,1,8,3:2:0:0:
119,95,25784,2,0,L|111:150,2,40.4999987640381,2|0|8,0:0|0:0|0:0,0:0:0:0:
177,187,26168,1,2,3:2:0:0:
41,311,26361,1,8,3:2:0:0:
41,311,26457,1,0,0:0:0:0:
41,311,26553,2,0,L|100:302,1,40.4999987640381
257,175,26745,5,12,0:1:0:0:
257,175,27130,2,0,L|171:187,1,80.9999975280763,0|0,3:0|0:0,3:0:0:0:
100,216,27515,5,14,0:1:0:0:
69,256,27611,1,0,0:0:0:0:
81,305,27707,1,2,3:2:0:0:
130,324,27803,2,0,L|137:272,1,42.7499988584519,2|2,3:2|0:2,0:0:0:0:
123,86,27996,5,0,3:0:0:0:
43,98,28092,1,2,3:2:0:0:
29,178,28188,1,2,3:2:0:0:
100,216,28284,1,12,0:0:0:0:
125,77,28476,5,0,0:0:0:0:
19,180,28668,1,10,0:0:0:0:
140,288,28861,1,2,0:0:0:0:
257,175,29053,1,8,0:0:0:0:
257,175,29149,1,2,0:0:0:0:
257,175,29245,2,0,L|171:187,1,80.9999975280763,0|8,0:0|0:0,0:0:0:0:
100,216,29630,1,0,0:0:0:0:
180,360,29822,6,0,P|186:349|300:334,1,121.499996292114,10|6,0:0|0:3,0:0:0:0:
294,331,30207,1,8,0:0:0:0:
346,198,30399,1,2,0:0:0:0:
439,268,30592,2,0,L|353:280,1,80.9999975280763,10|0,3:2|3:0,0:0:0:0:
358,279,30880,1,2,0:0:0:0:
358,279,30976,1,10,0:0:0:0:
510,223,31168,1,2,0:0:0:0:
510,223,31265,1,2,0:0:0:0:
510,223,31361,5,12,0:1:0:0:
487,333,31553,2,0,L|480:385,2,40.4999987640381,0|2|10,0:0|0:0|0:0,0:0:0:0:
455,147,31938,1,2,0:0:0:0:
359,279,32130,1,8,0:0:0:0:
359,279,32226,1,2,0:0:0:0:
359,279,32322,2,0,L|445:267,1,80.9999975280763,0|8,0:0|0:0,0:0:0:0:
503,216,32707,1,0,0:0:0:0:
407,78,32899,6,0,P|397:86|385:193,1,121.499996292114,10|6,0:0|0:3,0:0:0:0:
387,195,33284,1,8,0:0:0:0:
359,9,33476,1,2,0:0:0:0:
256,68,33668,1,10,3:2:0:0:
256,68,33765,1,0,0:0:0:0:
256,68,33861,2,0,L|308:61,2,40.4999987640381,0|2|8,3:2|0:0|0:0,0:0:0:0:
173,34,34245,1,2,0:0:0:0:
25,200,34438,6,0,P|32:209|146:216,1,121.499996292114,14|0,0:1|0:0,0:0:0:0:
142,220,34822,1,10,0:0:0:0:
98,69,35015,2,0,L|86:155,1,80.9999975280763,2|8,0:0|0:0,0:0:0:0:
86,149,35303,1,2,0:0:0:0:
86,149,35399,1,2,0:0:0:0:
194,287,35592,1,8,0:0:0:0:
378,153,35784,1,2,0:0:0:0:
371,150,35880,1,0,0:0:0:0:
364,148,35976,6,0,B|285:130|300:221|225:207,1,161.999995056153,14|10,0:1|0:0,0:0:0:0:
173,140,36553,1,0,0:0:0:0:
194,287,36745,1,10,0:0:0:0:
101,225,36938,1,2,0:0:0:0:
101,225,37034,1,0,0:0:0:0:
101,225,37130,2,8,L|153:218,3,40.4999987640381,8|8|10|8,0:0|0:0|0:0|0:0,0:0:0:0:
33,279,37515,5,14,0:1:0:0:
162,366,37707,1,10,0:3:0:0:
162,366,37803,1,6,0:3:0:0:
162,366,37899,2,0,P|170:353|283:342,1,121.499996292114,10|0,0:0|0:0,0:0:0:0:
340,382,38284,1,10,0:0:0:0:
340,382,38380,1,2,0:0:0:0:
340,382,38476,2,0,L|347:330,2,40.4999987640381,2|0|8,0:0|0:0|3:2,0:0:0:0:
232,214,38861,1,0,0:0:0:0:
232,214,38957,1,0,0:0:0:0:
232,214,39053,1,14,0:0:0:0:
416,182,40399,5,0,0:0:0:0:
315,267,40592,2,0,L|387:258,1,67.5000025749208,6|0,0:0|0:0,0:0:0:0:
456,315,40976,2,0,L|465:243,1,67.5000025749208,2|0,0:0|0:0,0:0:0:0:
424,115,41361,2,0,L|415:187,1,67.5000025749208,2|0,0:0|0:3,0:3:0:0:
464,248,41745,1,2,0:3:0:0:
335,373,42130,6,0,B|238:406|254:285|155:320,2,202.500007724762,2|2|2,0:3|0:0|0:0,0:0:0:0:
408,348,43476,1,0,0:0:0:0:
319,233,43668,6,0,L|310:305,1,67.5000025749208,2|0,0:0|0:0,0:0:0:0:
261,176,44053,2,0,L|189:185,1,67.5000025749208,2|0,0:0|0:0,0:0:0:0:
65,254,44438,2,0,L|137:245,1,67.5000025749208,2|0,0:0|0:3,0:3:0:0:
194,184,44822,1,2,0:3:0:0:
150,25,45207,6,0,P|131:14|20:118,2,202.500007724762,2|2|2,0:3|0:0|0:0,0:0:0:0:
99,169,46553,1,0,0:0:0:0:
95,164,46649,1,0,0:0:0:0:
91,159,46745,6,0,L|100:87,1,67.5000025749208,10|0,0:0|0:0,0:0:0:0:
249,93,47130,2,0,L|177:102,1,67.5000025749208,2|0,0:0|0:0,0:0:0:0:
99,169,47515,1,2,0:0:0:0:
131,245,47707,2,0,L|203:236,1,67.5000025749208,2|0,0:0|0:0,0:0:0:0:
310,299,48092,1,0,0:3:0:0:
310,299,48188,1,0,0:3:0:0:
310,299,48284,5,10,0:0:0:0:
278,215,48476,1,0,0:0:0:0:
296,360,48668,2,0,L|305:288,1,67.5000025749208,2|0,0:0|0:0,0:0:0:0:
424,223,49053,2,0,L|352:232,1,67.5000025749208,2|0,0:0|0:0,0:0:0:0:
304,293,49438,1,0,0:0:0:0:
409,328,49630,1,0,0:0:0:0:
301,174,49822,6,0,P|295:180|322:304,1,135.000005149842,10|0,0:0|0:0,0:0:0:0:
424,223,50399,1,2,0:0:0:0:
424,223,50592,2,0,L|352:232,1,67.5000025749208
237,301,50976,2,0,L|309:292,1,67.5000025749208,2|8,0:0|0:0,0:0:0:0:
339,371,51361,5,8,0:0:0:0:
303,292,51553,1,0,0:0:0:0:
357,231,51745,2,0,L|366:159,2,67.5000025749208,2|0|2,0:0|0:0|0:0,0:0:0:0:
409,328,52322,1,2,0:0:0:0:
498,245,52515,2,0,L|426:254,1,67.5000025749208,2|0,0:0|0:0,0:0:0:0:
260,292,52899,5,0,3:0:0:0:
265,296,52995,2,0,L|303:291,1,38.2500007295609,4|0,0:0|0:0,0:0:0:0:
366,155,53188,1,0,3:0:0:0:
366,155,53284,2,0,L|355:241,1,76.5000014591217,4|0,0:0|3:0,0:0:0:0:
373,352,53572,2,0,L|379:300,1,38.2500007295609,4|0,0:0|0:0,0:0:0:0:
269,216,53861,5,2,0:0:0:0:
173,357,54053,1,4,0:0:0:0:
163,147,54245,1,2,0:0:0:0:
41,294,54438,6,0,L|127:282,1,85.4999977169037,14|0,0:1|0:0,0:0:0:0:
126,283,54726,1,0,0:0:0:0:
126,283,54822,1,8,0:0:0:0:
143,69,55015,2,0,P|125:76|116:213,1,170.999995433807,2|8,0:0|0:1,0:0:0:0:
163,147,55592,1,8,0:0:0:0:
173,357,55784,1,2,0:0:0:0:
269,216,55976,6,0,L|183:228,1,85.4999977169037,10|0,0:1|0:0,0:0:0:0:
41,294,56361,1,10,0:0:0:0:
106,205,56553,1,2,0:0:0:0:
106,205,56649,1,0,0:0:0:0:
106,205,56745,1,8,0:1:0:0:
88,368,56938,2,0,L|174:356,1,85.4999977169037,10|8,0:1|0:0,0:0:0:0:
315,311,57322,5,2,0:0:0:0:
285,272,57419,1,0,0:0:0:0:
299,225,57515,1,10,0:1:0:0:
374,255,57707,1,0,0:0:0:0:
257,368,57899,1,10,0:0:0:0:
452,275,58092,2,0,P|445:293|308:302,1,170.999995433807,2|8,0:0|0:1,0:0:0:0:
281,137,58668,1,8,0:0:0:0:
91,220,58861,5,2,0:0:0:0:
136,201,58957,1,2,0:0:0:0:
168,238,59053,2,8,L|297:220,1,128.249996575356,10|0,0:1|0:0,0:0:0:0:
295,221,59438,1,10,0:0:0:0:
293,53,59630,2,0,L|281:139,1,85.4999977169037,2|8,0:0|0:1,0:3:0:0:
442,153,60015,2,0,L|356:165,1,85.4999977169037,10|8,0:1|0:0,0:3:0:0:
295,221,60399,1,2,0:0:0:0:
404,306,60592,6,0,B|320:287|336:382|257:368,1,170.999995433807,14|8,0:1|0:0,0:0:0:0:
117,234,61168,1,2,0:0:0:0:
117,234,61265,1,0,0:0:0:0:
117,234,61361,1,8,0:1:0:0:
97,320,61553,2,0,L|183:308,1,85.4999977169037,8|8,0:1|0:0,0:0:0:0:
33,260,61938,1,2,0:0:0:0:
130,143,62130,6,0,L|118:229,1,85.4999977169037,14|0,0:1|0:0,0:0:0:0:
117,234,62418,2,0,L|203:222,1,85.4999977169037,2|0,0:0|0:0,0:0:0:0:
209,221,62707,1,2,0:0:0:0:
254,367,62899,2,0,L|266:281,1,85.4999977169037,8|8,0:1|0:1,0:0:0:0:
220,136,63284,1,8,0:0:0:0:
181,308,63476,1,2,0:0:0:0:
289,203,63668,6,0,B|371:182|357:278|436:262,1,170.999995433807,14|10,0:1|0:0,0:0:0:0:
508,186,64245,1,2,0:0:0:0:
510,180,64342,1,0,0:0:0:0:
512,174,64438,2,0,L|426:186,1,85.4999977169037,8|10,0:1|0:1,0:0:0:0:
352,271,64822,1,10,0:0:0:0:
485,364,65015,1,2,0:0:0:0:
427,185,65207,5,10,0:1:0:0:
427,185,65303,1,10,0:1:0:0:
339,384,65495,1,10,0:1:0:0:
339,384,65592,1,10,0:1:0:0:
488,261,65784,1,10,0:1:0:0:
482,256,65880,2,0,L|421:264,1,42.7499988584519,10|0,0:1|0:0,0:0:0:0:
291,203,66168,5,2,0:0:0:0:
109,362,66361,2,0,L|111:346,12,10.687499714613,6|0|0|0|0|0|0|0|0|0|0|0|0,0:0|0:0|0:0|0:0|0:0|0:0|0:0|0:0|0:0|0:0|0:0|0:0|0:0,0:0:0:0:
54,281,66745,6,0,L|140:270,1,85.4999977169037,14|0,0:1|0:0,0:0:0:0:
139,271,67033,1,0,0:0:0:0:
139,271,67129,1,8,0:0:0:0:
348,295,67322,2,0,B|266:274|280:370|201:354,1,170.999995433807,2|8,0:0|0:1,0:0:0:0:
196,351,67803,1,0,0:0:0:0:
193,347,67899,1,8,0:0:0:0:
149,185,68092,1,2,0:0:0:0:
54,281,68284,6,0,L|140:270,1,85.4999977169037,10|0,0:1|0:0,0:0:0:0:
234,154,68668,1,10,0:0:0:0:
87,46,68861,1,2,0:0:0:0:
87,46,68957,1,0,0:0:0:0:
87,46,69053,1,8,0:1:0:0:
149,185,69245,2,0,L|161:99,1,85.4999977169037,10|8,0:1|0:0,0:0:0:0:
331,59,69630,5,2,0:0:0:0:
292,89,69727,1,0,0:0:0:0:
245,75,69823,1,10,0:1:0:0:
275,0,70015,1,0,0:0:0:0:
249,159,70207,1,10,0:0:0:0:
340,53,70399,2,0,B|419:32|408:130|488:112,1,170.999995433807,2|8,0:0|0:1,0:0:0:0:
475,36,70976,1,8,0:0:0:0:
355,128,71168,5,2,0:0:0:0:
326,168,71265,1,2,0:0:0:0:
343,214,71361,1,10,0:1:0:0:
415,180,71553,1,2,0:0:0:0:
329,374,71745,1,10,0:0:0:0:
416,268,71938,1,2,0:0:0:0:
416,268,72034,1,0,0:3:0:0:
416,268,72130,1,8,0:1:0:0:
252,305,72322,2,0,L|338:294,1,85.4999977169037,10|8,0:1|0:0,0:0:0:0:
401,340,72707,1,0,0:0:0:0:
260,225,72899,6,0,B|178:204|192:300|113:284,1,170.999995433807,14|8,0:1|0:0,0:0:0:0:
0,250,73476,1,0,0:0:0:0:
0,245,73572,1,0,0:0:0:0:
1,240,73668,2,0,P|9:224|131:212,1,128.249996575356,10|0,0:1|0:0,0:0:0:0:
120,203,74053,1,10,0:0:0:0:
223,121,74245,5,2,0:0:0:0:
218,116,74342,1,0,0:0:0:0:
213,111,74438,2,0,L|127:122,1,85.4999977169037,12|0,0:1|0:0,0:0:0:0:
175,334,74822,2,0,L|186:248,1,85.4999977169037,10|0,0:0|0:0,0:0:0:0:
185,249,75111,1,0,0:0:0:0:
185,249,75207,1,10,0:1:0:0:
241,383,75399,1,8,0:1:0:0:
90,344,75592,2,0,L|176:333,1,85.4999977169037,10|0,0:0|0:0,0:0:0:0:
349,188,75976,6,0,L|263:199,1,85.4999977169037,14|0,0:1|0:0,0:0:0:0:
174,333,76361,1,8,0:0:0:0:
335,377,76553,1,0,0:0:0:0:
335,377,76649,1,0,0:0:0:0:
335,377,76745,1,8,0:1:0:0:
264,198,76938,1,10,0:1:0:0:
241,383,77130,1,10,0:0:0:0:
407,318,77322,1,2,0:0:0:0:
185,249,77515,5,10,0:1:0:0:
321,363,77707,2,0,L|327:309,2,28.4999992389679,0|2|0,0:0|0:0|0:0,0:0:0:0:
328,370,77899,1,8,0:0:0:0:
251,298,78092,2,0,B|169:277|183:373|104:357,1,170.999995433807,2|8,0:0|0:1,0:0:0:0:
99,354,78573,1,0,0:0:0:0:
96,350,78669,1,10,0:0:0:0:
116,180,78861,1,0,0:0:0:0:
21,276,79053,6,0,L|107:265,1,85.4999977169037,14|8,0:1|0:1,0:3:0:0:
187,367,79438,1,12,0:0:0:0:
187,367,79630,1,4,0:0:0:0:
214,119,79822,5,6,0:0:0:0:
29,192,80015,1,6,0:0:0:0:
102,377,80207,1,14,0:0:0:0:
287,304,80399,6,0,B|369:283|355:379|435:362,1,170.999995433807,6|2,0:0|0:0,0:0:0:0:
500,309,80976,1,0,0:0:0:0:
462,149,81168,2,0,P|450:152|432:288,2,170.999995433807,6|2|2,0:0|0:0|0:0,0:0:0:0:
344,103,82130,6,0,L|357:0,2,90,6|2|0,0:0|0:0|0:0,0:3:0:0:
426,67,83284,1,2,0:0:0:0:
276,24,83668,2,0,B|189:1|204:102|120:85,1,180,2|2,0:0|0:0,0:0:0:0:
48,249,85207,6,0,L|151:235,2,90,2|2|0,0:0|0:0|0:0,0:0:0:0:
84,167,86361,1,2,0:0:0:0:
184,309,86745,1,2,0:0:0:0:
184,309,87322,6,0,L|179:344,1,22.5,2|0,0:0|0:0,0:0:0:0:
185,340,87707,2,0,P|191:348|318:334,1,107.999996704102,2|0,0:0|0:0,0:0:0:0:
