osu file format v14

[General]
AudioFilename: audio.mp3
AudioLeadIn: 0
PreviewTime: 190527
Countdown: 0
SampleSet: Soft
StackLeniency: 0.3
Mode: 0
LetterboxInBreaks: 0
WidescreenStoryboard: 0

[Editor]
Bookmarks: 1982,25436,48709,71800,95254,118527,144527,167981,191072,191163,191254,191345,191436,191527,191618,191709,191800,191890,191981,192072,192163,192254,192345,192436,192527,192618,192709,192800,192890,192981,193072,193163,193254,193345,193436,193527,193618,193709,193800,193890,193981,194072,194163,194254,194345,194436,194527,194618,194709,194800,194890,194981,195072,195163,195254,195345,195436,195527,195618,195709,195800,195890,195981,196072,196163,196254,196345,196436,196527,196618,196709,196800,196890,196981,197072,197163,197254,197345,197436,197527,197618,197709,197800,197890,197981,198072,198163,198254,198345,198436,198527,198618,198709,198800,198890,198936,198981,199027,199072,199118,199163,199209,199254,199300,199345,199390,199436,199481,199527,199572,199618,199663,199709,199754,199800,199890,218709,250163
DistanceSpacing: 1.4
BeatDivisor: 4
GridSize: 32
TimelineZoom: 1.6

[Metadata]
Title:Believe in Sky
TitleUnicode:Believe in Sky
Artist:Imai Asami
ArtistUnicode:今井麻美
Creator:Andrea
Version:Ex & AsuKo's Hard
Source:ぱすてるメモリーズ
Tags:osuplayer111 Sekaii Sekai Sekai-nyan - Ex - -_Ex_- AsuKow GrazuKo Collaboration Full Version Female Vocals Pastel Memories Pasuteru Memorizu Japanese Anime Opening OP Pop JPop J-Pop Coffee Hispanic Latte DT1 Tournament Gene of the Earth
BeatmapID:3701054
BeatmapSetID:1804832

[Difficulty]
HPDrainRate:5
CircleSize:4
OverallDifficulty:7
ApproachRate:8
SliderMultiplier:1.4
SliderTickRate:1

[Events]
//Background and Video events
0,0,"BG.jpg",0,0
//Break Periods
2,191072,199231
//Storyboard Layer 0 (Background)
//Storyboard Layer 1 (Fail)
//Storyboard Layer 2 (Pass)
//Storyboard Layer 3 (Foreground)
//Storyboard Layer 4 (Overlay)
//Storyboard Sound Samples

[TimingPoints]
1982,363.636363636364,4,2,1,40,1,0
1982,-125,4,2,1,40,0,0
3345,-125,4,2,1,5,0,0
3436,-125,4,2,1,40,0,0
6254,-125,4,2,1,5,0,0
6345,-125,4,2,1,40,0,0
13800,363.636363636364,4,2,1,75,1,0
13800,-100,4,2,1,75,0,0
19163,-100,4,2,1,5,0,0
19254,-100,4,2,1,75,0,0
22800,-100,4,2,1,5,0,0
22890,-100,4,2,1,75,0,0
23980,-100,4,2,1,60,0,0
25436,-111.111111111111,4,2,1,50,0,0
31163,-111.111111111111,4,2,1,5,0,0
31254,-111.111111111111,4,2,1,50,0,0
34436,-111.111111111111,4,2,1,5,0,0
34527,-111.111111111111,4,2,1,50,0,0
34890,-111.111111111111,4,2,1,55,0,0
35254,-111.111111111111,4,2,1,60,0,0
35618,-111.111111111111,4,2,1,65,0,0
36527,-111.111111111111,4,2,1,60,0,0
36981,-111.111111111111,4,2,1,5,0,0
37072,-100,4,2,1,60,0,0
44345,-100,4,2,1,5,0,0
44527,-100,4,2,1,60,0,0
44709,-100,4,2,1,5,0,0
44890,-100,4,2,1,60,0,0
48618,-100,4,2,1,5,0,0
48709,-125,4,2,1,50,0,0
50072,-125,4,2,1,5,0,0
50163,-125,4,2,1,50,0,0
52889,-125,4,2,1,60,0,0
53253,-125,4,2,1,50,0,0
54527,-100,4,2,1,70,0,0
54800,-100,4,2,1,5,0,0
54890,-100,4,2,1,70,0,0
56254,-100,4,2,1,5,0,0
56345,-100,4,2,1,70,0,0
57435,-100,4,2,1,70,0,0
57709,-100,4,2,1,5,0,0
57799,-100,4,2,1,70,0,0
58162,-100,4,2,1,70,0,0
58708,-100,4,2,1,80,0,0
58890,-100,4,2,1,5,0,0
59072,-100,4,2,1,80,0,0
59618,-125,4,2,1,60,0,0
60163,-90.9090909090909,4,2,1,80,0,1
79254,-90.9090909090909,4,2,1,5,0,1
79436,-90.9090909090909,4,2,1,80,0,1
79618,-90.9090909090909,4,2,1,5,0,1
79800,-90.9090909090909,4,2,1,80,0,1
81981,-90.9090909090909,4,2,1,80,0,1
82253,-90.9090909090909,4,2,1,5,0,1
82344,-90.9090909090909,4,2,1,80,0,1
82527,-125,4,2,1,60,0,0
83618,-100,4,2,1,75,0,0
92709,-100,4,2,1,5,0,0
92890,-100,4,2,1,75,0,0
93254,-100,4,2,1,5,0,0
93436,-100,4,2,1,75,0,0
93618,-100,4,2,1,5,0,0
93800,-100,4,2,1,75,0,0
94345,-100,4,2,1,5,0,0
94436,-100,4,2,1,5,0,0
94527,-100,4,2,1,75,0,0
95254,-125,4,2,1,60,0,0
106890,-100,4,2,1,60,0,0
110072,-100,4,2,1,5,0,0
110163,-100,4,2,1,60,0,0
114163,-100,4,2,1,5,0,0
114254,-100,4,2,1,5,0,0
114345,-100,4,2,1,60,0,0
114527,-100,4,2,1,5,0,0
114618,-100,4,2,1,5,0,0
114709,-100,4,2,1,70,0,0
115890,-100,4,2,1,5,0,0
115981,-100,4,2,1,70,0,0
118436,-100,4,2,1,5,0,0
118527,-125,4,2,1,60,0,0
124345,-100,4,2,1,70,0,0
124618,-100,4,2,1,5,0,0
124709,-100,4,2,1,70,0,0
126072,-100,4,2,1,5,0,0
126163,-100,4,2,1,70,0,0
132345,-125,4,2,1,70,0,0
132890,-90.9090909090909,4,2,1,80,0,1
138800,-90.9090909090909,4,2,1,5,0,1
138890,-90.9090909090909,4,2,1,80,0,1
143345,-90.9090909090909,4,2,1,5,0,1
143436,-90.9090909090909,4,2,1,80,0,1
151981,-90.9090909090909,4,2,1,5,0,1
152163,-90.9090909090909,4,2,1,80,0,1
152345,-90.9090909090909,4,2,1,5,0,1
152527,-90.9090909090909,4,2,1,80,0,1
156345,-111.111111111111,4,2,1,60,0,0
166436,-111.111111111111,4,2,1,5,0,0
166527,-111.111111111111,4,2,1,60,0,0
167981,-100,4,2,1,70,0,0
169345,-100,4,2,1,5,0,0
169436,-100,4,2,1,70,0,0
173163,-100,4,2,1,5,0,0
173254,-100,4,2,1,70,0,0
176981,-100,4,2,1,5,0,0
177072,-100,4,2,1,70,0,0
183345,-100,4,2,1,5,0,0
183436,-100,4,2,1,70,0,0
187163,-100,4,2,1,5,0,0
187254,-100,4,2,1,70,0,0
190527,-100,4,2,1,50,0,0
199981,-125,4,2,1,50,0,0
201618,-125,4,2,1,5,0,0
202163,-125,4,2,1,50,0,0
202618,-125,4,2,1,5,0,0
202709,-166.666666666667,4,2,1,60,0,0
202890,-166.666666666667,4,2,1,5,0,0
204618,-166.666666666667,4,2,1,35,0,0
205072,-166.666666666667,4,2,1,5,0,0
206527,-166.666666666667,4,2,1,60,0,0
207072,-111.111111111111,4,2,1,70,0,0
207526,-111.111111111111,4,2,1,5,0,0
207617,-111.111111111111,4,2,1,70,0,0
209981,-90.9090909090909,4,2,1,80,0,1
218709,-90.9090909090909,4,2,1,80,0,1
225526,-90.9090909090909,4,2,1,5,0,1
225617,-90.9090909090909,4,2,1,80,0,1
226163,-90.9090909090909,4,2,1,5,0,1
226345,-90.9090909090909,4,2,1,80,0,1
226527,-90.9090909090909,4,2,1,5,0,1
226709,-90.9090909090909,4,2,1,80,0,1
227890,-90.9090909090909,4,2,1,5,0,1
227981,-90.9090909090909,4,2,1,80,0,1
229436,-125,4,2,1,80,0,0
230527,-100,4,2,1,75,0,0
240527,-100,4,2,1,5,0,0
240709,-100,4,2,1,75,0,0
241344,-100,4,2,1,5,0,0
241435,-100,4,2,1,75,0,0
241981,-285.714285714286,4,2,1,75,0,0
242072,-285.714285714286,4,2,1,5,0,0

[Colours]
Combo1 : 255,255,130
Combo2 : 154,150,243
Combo3 : 213,140,251

[HitObjects]
45,51,1982,6,0,B|56:87|75:102|75:102|52:157|78:216,1,168,2|2,0:0|0:0,0:0:0:0:
134,357,2891,1,0,0:0:0:0:
134,357,3072,2,0,P|184:371|232:381,1,84,2|0,0:0|0:0,0:0:0:0:
241,366,3436,5,2,0:0:0:0:
241,366,3800,1,0,0:0:0:0:
285,301,3982,2,0,P|296:262|311:173,1,112,2|2,0:0|0:0,0:0:0:0:
253,136,4527,2,0,P|216:123|189:117,1,56,2|2,0:0|0:0,0:0:0:0:
309,48,4891,6,0,P|387:28|464:89,1,168,2|2,0:0|0:0,0:0:0:0:
496,225,5800,1,2,0:0:0:0:
496,225,5982,2,0,P|453:218|401:205,1,84,2|0,0:0|0:0,0:0:0:0:
390,192,6345,5,2,0:0:0:0:
390,192,6891,1,2,0:0:0:0:
330,242,7072,2,0,P|321:276|313:308,1,56,2|0,0:0|0:0,0:0:0:0:
243,375,7436,2,0,P|223:321|211:257,1,112,2|0,0:0|0:0,0:0:0:0:
227,171,7982,5,2,0:0:0:0:
227,171,8163,2,0,P|264:179|295:187,1,56
184,83,8527,2,0,P|134:57|61:70,1,112,2|0,0:0|0:0,0:0:0:0:
18,109,9072,1,2,0:0:0:0:
77,187,9254,6,0,P|86:233|96:322,1,112,2|0,0:0|0:0,0:0:0:0:
59,368,9800,1,2,0:0:0:0:
158,378,9982,2,0,P|203:382|232:381,1,56,2|0,0:0|0:0,0:0:0:0:
260,318,10345,1,2,0:0:0:0:
260,318,10527,2,0,P|305:314|334:315,1,56,2|0,0:0|0:0,0:0:0:0:
405,363,10891,6,0,B|422:332|422:332|416:242,1,112,2|0,0:0|0:0,0:0:0:0:
448,183,11436,2,0,P|481:175|513:168,1,56,2|0,0:0|0:0,0:0:0:0:
413,92,11800,2,0,P|380:84|348:77,1,56,2|0,0:0|0:0,0:0:0:0:
271,43,12163,5,2,0:0:0:0:
271,43,12891,1,0,0:0:0:0:
219,101,13072,2,0,P|209:146|199:216,1,112,2|2,0:0|0:0,0:0:0:0:
253,268,13618,1,2,0:0:0:0:
169,318,13800,6,0,P|154:368|149:389,1,70,6|0,1:2|1:0,0:0:0:0:
57,289,14163,1,0,1:0:0:0:
115,208,14345,2,0,P|133:148|152:43,1,140,6|0,1:2|1:0,0:0:0:0:
30,6,14890,2,0,P|37:42|47:78,1,70,6|0,1:2|1:0,0:0:0:0:
10,165,15254,5,0,1:0:0:0:
91,221,15436,2,0,P|158:210|234:197,1,140,6|0,1:2|1:0,0:0:0:0:
321,163,15981,2,0,P|332:117|341:73,1,70,6|0,1:2|1:0,0:0:0:0:
383,245,16345,2,0,P|394:291|403:335,1,70,6|0,1:2|1:0,0:0:0:0:
441,158,16709,6,0,P|487:147|531:138,1,70,6|0,1:2|1:0,0:0:0:0:
423,40,17072,1,0,1:0:0:0:
336,94,17254,2,0,B|265:90|277:124|199:119,1,140,6|0,1:2|1:0,0:0:0:0:
120,60,17800,2,0,P|101:100|91:132,1,70,6|0,1:2|1:0,0:0:0:0:
48,211,18163,5,0,1:0:0:0:
136,254,18345,2,0,P|215:242|293:231,1,140,6|0,1:2|1:0,0:0:0:0:
368,205,18890,2,0,P|376:160|385:113,1,70,6|0,1:2|1:0,0:0:0:0:
440,280,19254,2,0,P|485:272|532:263,1,70,6|0,1:2|1:0,0:0:0:0:
358,311,19618,6,0,P|366:356|375:403,2,70,6|0|0,1:2|1:0|1:0,0:0:0:0:
271,264,20163,2,0,P|204:256|132:309,1,140,6|0,1:2|1:0,0:0:0:0:
93,377,20709,1,6,1:2:0:0:
93,377,20890,1,0,1:0:0:0:
9,325,21072,5,0,1:0:0:0:
78,256,21254,2,8,P|84:208|91:162,1,70,6|0,1:2|1:0,0:0:0:0:
13,120,21618,1,0,1:0:0:0:
96,69,21800,2,0,P|90:21|83:-25,1,70,6|0,1:2|1:0,0:0:0:0:
207,45,22163,2,0,P|201:93|194:139,1,70,6|0,1:2|1:0,0:0:0:0:
189,212,22527,5,6,1:2:0:0:
189,212,22890,2,0,P|146:231|111:243,2,70,0|0|2,1:0|1:0|1:2,0:0:0:0:
273,161,23436,1,0,1:0:0:0:
348,223,23618,2,0,P|358:267|365:304,1,70,0|0,1:0|1:0,0:0:0:0:
435,176,23981,6,0,P|445:132|452:95,1,70,2|0,1:2|1:0,0:0:0:0:
421,6,24345,1,0,1:0:0:0:
421,6,24527,1,0,1:0:0:0:
320,52,24709,2,0,P|326:86|334:120,1,70,2|0,1:2|1:0,0:0:0:0:
274,197,25072,2,0,L|230:189,3,35,0|0|0|0,1:0|1:0|1:0|1:0,0:0:0:0:
229,190,25436,6,0,P|202:206|171:207,1,62.9999980773926,6|0,1:2|0:0,0:0:0:0:
101,152,25800,1,2,1:2:0:0:
101,152,25981,1,2,0:2:0:0:
30,204,26163,2,0,L|9:133,2,62.9999980773926,2|2|2,1:2|0:2|1:2,0:0:0:0:
3,288,26709,6,0,P|46:244|108:242,1,125.999996154785,2|0,0:2|0:0,0:0:0:0:
196,236,27254,2,0,P|186:266|172:303,1,62.9999980773926,0|2,1:0|0:2,0:0:0:0:
223,369,27618,2,0,P|179:351|134:361,2,94.499997116089,2|2|2,1:2|0:0|0:0,0:0:0:0:
316,353,28345,6,0,B|344:297|344:297|308:245,1,125.999996154785,2|0,1:2|1:0,0:0:0:0:
349,166,28890,2,0,P|287:155|235:201,1,125.999996154785,2|0,0:2|0:0,0:0:0:0:
158,233,29436,2,0,L|91:214,1,62.9999980773926,2|2,1:2|0:0,0:0:0:0:
20,171,29800,6,0,P|34:99|102:69,1,125.999996154785,0|0,1:0|1:0,0:0:0:0:
141,14,30345,2,0,P|168:20|212:27,1,62.9999980773926,2|2,0:0|1:2,0:0:0:0:
280,68,30709,1,2,2:0:0:0:
355,24,30890,2,0,P|402:21|440:48,1,94.499997116089,2|0,1:2|0:0,0:0:0:0:
449,58,31254,6,0,P|436:116|416:202,1,125.999996154785,6|2,1:2|1:2,0:0:0:0:
473,251,31800,2,0,P|414:269|359:241,1,125.999996154785,2|0,0:2|0:0,0:0:0:0:
301,174,32345,1,2,1:2:0:0:
301,174,32527,1,2,0:0:0:0:
214,191,32709,6,0,P|224:243|240:323,1,125.999996154785,2|2,1:2|1:2,0:0:0:0:
296,380,33254,2,0,P|353:340|420:352,1,125.999996154785,2|2,0:0|0:0,0:0:0:0:
496,368,33800,1,2,1:2:0:0:
496,368,33981,1,2,0:0:0:0:
507,280,34163,6,0,P|495:205|485:136,1,125.999996154785,6|2,1:2|1:2,0:0:0:0:
466,69,34709,1,0,1:2:0:0:
392,118,34890,2,0,P|362:110|331:104,1,62.9999980773926,2|0,1:2|1:2,0:0:0:0:
272,37,35254,1,2,1:2:0:0:
201,89,35436,1,0,1:2:0:0:
253,160,35618,5,2,1:2:0:0:
253,160,36527,1,0,1:0:0:0:
190,222,36709,2,0,P|227:249|272:242,1,94.499997116089,8|0,2:2|0:0,0:0:0:0:
282,235,37072,6,0,P|350:220|419:207,1,140,4|10,1:2|0:0,0:0:0:0:
487,278,37618,1,2,1:2:0:0:
437,362,37800,2,0,P|402:353|369:343,1,70,2|2,0:0|1:2,0:0:0:0:
275,315,38163,1,10,0:0:0:0:
275,315,38345,1,2,0:0:0:0:
192,368,38527,6,0,P|166:305|194:243,1,140,0|8,1:0|0:0,0:0:0:0:
281,199,39072,1,2,1:2:0:0:
225,118,39254,2,0,P|185:150|133:152,2,105,2|2|2,0:0|0:0|0:0,0:0:0:0:
311,71,39981,6,0,P|259:26|191:32,1,140,2|8,1:2|0:0,0:0:0:0:
104,77,40527,1,2,1:2:0:0:
15,34,40709,2,0,P|21:66|30:112,1,70,2|0,0:0|1:0,0:0:0:0:
53,201,41072,1,10,1:2:0:0:
53,201,41254,1,2,0:0:0:0:
8,327,41436,6,0,P|59:284|126:296,1,140,2|8,1:2|0:0,0:0:0:0:
207,360,41981,2,0,L|128:384,2,70,2|2|0,1:2|0:0|1:0,0:0:0:0:
302,328,42527,1,10,0:0:0:0:
302,328,42709,1,2,0:0:0:0:
382,375,42890,6,0,B|416:312|416:312|370:261,1,140,6|8,1:2|0:0,0:0:0:0:
305,186,43436,2,0,P|334:167|385:164,2,70,2|2|2,1:2|0:0|1:2,0:0:0:0:
213,220,43981,1,10,0:0:0:0:
134,160,44163,6,0,P|100:168|66:178,1,70,2|0,1:2|0:0,0:0:0:0:
190,81,44527,2,0,P|223:89|257:99,1,70,2|0,1:2|0:0,0:0:0:0:
350,68,44890,2,0,P|393:25|483:27,1,140,6|0,1:2|1:0,1:0:0:0:
479,26,45345,1,0,1:0:0:0:
488,34,45436,2,0,P|476:68|465:104,1,70,6|0,1:2|0:0,0:0:0:0:
482,197,45800,6,0,B|409:201|423:151|348:168,1,140,6|10,1:2|0:0,0:0:0:0:
259,207,46345,2,0,P|263:240|270:285,1,70,2|8,1:2|0:0,0:0:0:0:
352,328,46709,2,0,P|383:319|428:305,1,70,2|8,1:2|0:0,0:0:0:0:
277,373,47072,6,0,P|196:361|121:351,1,140,6|2,1:2|1:2,0:0:0:0:
27,190,47800,2,0,P|-12:244|5:309,1,140,6|2,1:2|1:2,0:0:0:0:
89,259,48345,2,0,P|137:247|209:229,1,105,4|0,1:2|0:0,0:0:0:0:
216,227,48709,6,0,P|263:239|341:253,1,112,4|2,1:2|0:0,0:0:0:0:
394,212,49254,1,0,0:0:0:0:
445,270,49436,2,0,P|452:306|456:335,1,56,10|0,0:0|0:0,0:0:0:0:
497,199,49800,2,0,P|504:163|508:134,1,56,2|0,0:0|0:0,0:0:0:0:
461,65,50163,5,0,1:0:0:0:
461,65,50345,2,0,P|412:90|339:89,1,112,0|2,1:0|0:0,0:0:0:0:
282,63,50890,2,0,P|268:22|261:2,1,56,8|0,0:0|1:0,0:0:0:0:
311,158,51254,2,0,P|301:184|292:210,1,56,2|8,0:0|0:0,0:0:0:0:
239,269,51618,6,0,P|202:291|122:307,1,112,2|2,1:2|0:0,0:0:0:0:
84,250,52163,1,0,0:0:0:0:
84,250,52345,2,0,L|69:173,1,56,8|10,0:0|0:2,0:0:0:0:
62,119,52709,1,2,0:0:0:0:
120,35,52890,6,0,P|173:29|240:71,1,112,6|2,1:2|0:0,0:0:0:0:
291,95,53436,2,0,P|335:105|357:109,1,56,0|2,1:0|1:2,0:0:0:0:
405,55,53800,2,0,L|448:44,3,28,2|0|2|0,1:2|1:2|1:2|1:2,0:0:0:0:
459,56,54163,2,0,P|469:100|474:123,1,56,6|0,1:2|3:0,0:0:0:0:
403,177,54527,6,0,P|390:234|383:264,1,70,6|0,1:2|0:0,0:0:0:0:
455,315,54890,1,10,0:0:0:0:
373,369,55072,2,0,P|330:362|291:355,1,70,2|8,1:2|0:0,0:0:0:0:
207,339,55436,1,0,1:0:0:0:
255,253,55618,2,0,P|264:198|271:157,1,70,8|2,0:0|1:2,0:0:0:0:
222,96,55981,6,0,P|178:62|74:76,1,140,6|10,1:2|0:0,0:0:0:0:
69,157,56527,2,0,P|26:169|-4:176,1,70,2|8,1:2|0:0,0:0:0:0:
99,261,56890,1,2,1:2:0:0:
176,200,57072,2,0,P|210:191|243:182,1,70,10|0,0:0|1:0,0:0:0:0:
339,157,57436,5,6,1:2:0:0:
339,157,57800,2,0,P|348:113|358:75,2,70,2|0|2,1:2|1:0|1:2,0:0:0:0:
303,248,58345,1,0,1:0:0:0:
303,248,58527,1,0,1:0:0:0:
394,283,58709,2,0,P|441:296|475:304,1,70,14|0,1:2|0:0,0:0:0:0:
336,365,59072,5,10,0:0:0:0:
268,249,59254,1,10,0:0:0:0:
472,27,60163,6,0,B|438:37|421:57|421:57|366:34|307:60,1,154.000004699707,6|0,1:2|0:0,0:0:0:0:
255,132,60709,2,0,P|291:149|335:165,1,77.0000023498536,10|0,0:0|0:0,0:0:0:0:
224,29,61072,1,2,1:2:0:0:
137,93,61254,2,0,P|101:110|57:126,1,77.0000023498536,2|8,1:2|0:0,0:0:0:0:
2,211,61618,6,0,P|50:243|164:228,1,154.000004699707,2|2,1:2|0:0,0:0:0:0:
235,182,62163,2,0,P|244:231|250:264,1,77.0000023498536,10|0,0:0|1:0,0:0:0:0:
208,358,62527,1,2,0:0:0:0:
314,377,62709,2,0,P|323:328|329:295,1,77.0000023498536,2|10,1:2|0:0,0:0:0:0:
339,193,63072,6,0,P|326:97|317:31,1,154.000004699707,2|2,1:2|0:0,0:0:0:0:
429,121,63618,2,0,P|475:134|509:141,1,77.0000023498536,10|0,0:0|0:0,0:0:0:0:
418,237,63981,1,2,1:2:0:0:
317,198,64163,2,0,P|271:211|237:218,1,77.0000023498536,2|8,1:2|0:0,0:0:0:0:
175,131,64527,6,0,P|145:192|166:279,1,154.000004699707,2|2,1:2|0:0,0:0:0:0:
237,350,65072,1,10,0:0:0:0:
127,371,65254,2,0,P|81:380|44:385,1,77.0000023498536,2|0,1:2|0:0,0:0:0:0:
0,273,65618,2,0,P|46:264|83:259,1,77.0000023498536,0|8,1:0|0:0,0:0:0:0:
181,240,65981,1,2,0:0:0:0:
117,152,66163,6,0,P|100:101|94:72,1,77.0000023498536,4|0,1:0|0:0,0:0:0:0:
208,2,66527,2,0,P|199:39|186:75,1,77.0000023498536,10|2,0:0|0:0,0:0:0:0:
254,158,66890,1,2,1:2:0:0:
181,240,67072,1,2,1:2:0:0:
181,240,67254,2,0,P|173:285|167:322,1,77.0000023498536,10|2,0:0|0:0,0:0:0:0:
261,371,67618,6,0,B|294:361|311:341|311:341|366:364|407:345,1,154.000004699707,6|8,1:2|0:0,0:0:0:0:
507,320,68163,2,0,P|521:262|505:156,1,154.000004699707,6|0,1:2|1:0,0:0:0:0:
445,81,68709,2,0,P|430:32|422:2,1,77.0000023498536,10|2,0:0|0:0,0:0:0:0:
375,140,69072,6,0,P|364:177|353:213,1,77.0000023498536,6|0,1:2|0:0,0:0:0:0:
307,312,69436,1,10,0:2:0:0:
218,250,69618,2,0,P|166:239|60:219,1,154.000004699707,2|0,0:0|1:0,0:0:0:0:
14,125,70163,1,10,0:0:0:0:
119,145,70345,6,0,P|171:134|277:114,1,154.000004699707,6|2,1:2|1:2,0:0:0:0:
372,80,70890,2,0,P|380:25|383:-6,1,77.0000023498536,10|0,0:0|1:0,0:0:0:0:
479,108,71254,1,2,1:2:0:0:
415,195,71436,2,0,L|368:186,3,38.5000011749268,0|0|2|0,1:0|1:0|1:2|1:0,0:0:0:0:
361,183,71800,6,0,B|271:172|293:229|218:226,1,154.000004699707,6|0,1:2|0:0,0:0:0:0:
132,161,72345,2,0,P|108:202|112:241,1,77.0000023498536,10|0,0:0|0:0,0:0:0:0:
176,314,72708,1,2,1:2:0:0:
87,375,72890,2,0,P|50:361|14:350,1,77.0000023498536,2|8,1:2|0:0,0:0:0:0:
0,242,73254,6,0,P|6:165|78:113,1,154.000004699707,2|2,1:2|0:0,0:0:0:0:
164,149,73800,2,0,P|213:140|246:134,1,77.0000023498536,10|0,0:2|1:0,0:0:0:0:
342,99,74163,1,2,0:0:0:0:
435,152,74345,2,0,P|426:189|416:232,1,77.0000023498536,0|10,1:0|0:0,0:0:0:0:
488,309,74709,6,0,P|440:273|344:294,1,154.000004699707,2|2,1:2|0:0,0:0:0:0:
281,369,75254,2,0,P|270:324|261:289,1,77.0000023498536,10|0,0:2|0:0,0:0:0:0:
192,211,75617,1,2,1:2:0:0:
277,146,75800,2,0,P|310:168|357:166,1,77.0000023498536,2|8,1:2|0:0,0:0:0:0:
355,56,76163,6,0,P|275:71|189:88,1,154.000004699707,2|2,1:2|0:0,0:0:0:0:
117,19,76708,1,10,0:0:0:0:
19,65,76890,2,0,P|29:97|43:154,1,77.0000023498536,2|0,1:2|0:0,0:0:0:0:
10,243,77254,2,0,P|48:248|93:229,1,77.0000023498536,2|8,1:2|0:0,0:0:0:0:
150,150,77617,1,2,0:0:0:0:
255,173,77800,6,0,P|246:209|234:261,1,77.0000023498536,4|0,1:0|0:0,0:0:0:0:
158,322,78163,1,10,0:0:0:0:
255,365,78345,2,0,B|331:377|320:321|403:334,1,154.000004699707,6|2,1:2|1:2,0:0:0:0:
491,288,78890,1,10,0:2:0:0:
417,208,79072,6,0,P|376:219|337:229,1,77.0000023498536,6|0,1:2|0:0,0:0:0:0:
437,115,79436,2,0,P|478:126|517:136,1,77.0000023498536,6|0,1:2|0:0,0:0:0:0:
369,41,79800,2,0,P|329:79|233:88,1,154.000004699707,6|2,1:2|1:2,1:0:0:0:
148,22,80345,2,0,P|136:38|127:54,3,38.5000011749268,8|0|0|0,0:2|1:0|1:0|1:0,0:0:0:0:
118,63,80708,6,0,P|129:100|140:136,1,77.0000023498536,6|0,1:2|0:0,0:0:0:0:
214,215,81072,1,10,0:0:0:0:
131,284,81254,2,0,P|83:273|51:267,1,77.0000023498536,2|8,1:2|0:0,0:0:0:0:
184,358,81618,2,0,P|232:347|264:341,1,77.0000023498536,2|8,1:2|0:0,0:0:0:0:
359,380,81981,6,0,P|374:306|328:249,1,154.000004699707,6|2,1:2|1:2,0:0:0:0:
274,160,82527,1,8,0:0:0:0:
512,375,83618,6,0,P|503:341|492:307,1,70,6|0,1:2|1:0,0:0:0:0:
481,210,83981,1,0,1:0:0:0:
395,257,84163,2,0,B|321:247|333:299|263:294,1,140,6|0,1:2|1:0,0:0:0:0:
200,219,84708,2,0,P|209:185|215:150,1,70,6|0,1:2|1:0,0:0:0:0:
175,61,85072,5,0,1:0:0:0:
257,8,85254,2,0,P|325:19|395:31,1,140,6|0,1:2|1:0,0:0:0:0:
491,52,85800,2,0,P|483:91|454:114,1,70,6|0,1:2|1:0,0:0:0:0:
310,139,86163,2,0,P|347:126|382:140,1,70,6|0,1:2|1:0,0:0:0:0:
478,253,86527,6,0,P|448:226|442:189,1,70,6|0,1:2|1:0,0:0:0:0:
461,110,86890,1,0,1:0:0:0:
380,54,87072,2,0,P|305:64|228:77,1,140,6|0,1:2|1:0,0:0:0:0:
164,13,87618,2,0,P|144:45|144:84,1,70,6|0,1:2|1:0,0:0:0:0:
201,154,87981,5,0,1:0:0:0:
144,233,88163,2,0,P|95:185|27:188,1,140,6|0,1:2|1:0,0:0:0:0:
12,286,88709,2,0,P|19:323|26:361,1,70,6|0,1:2|1:0,0:0:0:0:
120,374,89072,2,0,P|126:339|132:305,1,70,6|0,1:2|1:0,0:0:0:0:
219,257,89436,6,0,P|212:222|206:188,2,70,6|0|0,1:2|1:0|1:0,0:0:0:0:
276,336,89981,2,0,B|350:326|338:378|407:373,1,140,6|0,1:2|1:0,0:0:0:0:
504,348,90527,1,6,1:2:0:0:
504,348,90708,1,0,1:0:0:0:
436,276,90890,5,0,1:0:0:0:
509,210,91072,2,0,P|503:162|496:116,1,70,6|0,1:2|1:0,0:0:0:0:
487,42,91436,1,0,1:0:0:0:
392,14,91618,2,0,P|344:34|317:41,1,70,6|0,1:2|1:0,0:0:0:0:
246,95,91981,2,0,P|294:115|321:122,1,70,6|0,1:2|1:0,0:0:0:0:
404,151,92345,6,0,P|367:210|289:217,1,140,6|0,1:2|0:0,0:0:0:0:
212,179,92890,2,0,P|140:194|70:209,1,140,6|0,1:2|0:0,0:0:0:0:
0,135,93436,2,0,P|8:94|15:64,1,70,6|0,1:2|0:0,0:0:0:0:
102,21,93800,6,0,P|122:28|146:37,3,35,0|0|0|0,1:0|1:0|1:0|1:0,0:0:0:0:
148,38,94163,2,0,P|197:18|242:37,1,105,4|0,1:2|0:0,0:0:0:0:
254,43,94527,1,10,0:0:0:0:
189,141,94709,1,10,0:0:0:0:
189,141,95254,6,0,P|246:164|316:148,1,112,6|2,1:2|0:0,0:0:0:0:
354,106,95800,1,2,0:0:0:0:
407,163,95981,2,0,P|443:171|475:179,1,56,10|2,0:0|0:0,0:0:0:0:
408,263,96345,2,0,P|372:271|340:279,1,56,2|0,0:0|0:0,0:0:0:0:
287,241,96709,5,0,1:0:0:0:
287,241,96890,2,0,P|278:309|266:366,1,112,0|2,1:0|0:0,0:0:0:0:
176,292,97436,2,0,P|182:338|190:376,2,84,10|2|2,0:0|0:0|0:0,0:0:0:0:
191,215,98163,6,0,P|150:251|85:250,1,112,2|2,1:2|0:0,0:0:0:0:
23,219,98709,1,2,0:0:0:0:
61,151,98890,2,0,P|69:116|74:89,1,56,8|0,0:0|0:0,0:0:0:0:
29,36,99254,1,2,0:0:0:0:
29,36,99436,1,2,0:0:0:0:
128,8,99618,6,0,P|171:17|254:37,1,112,0|8,1:0|0:0,0:0:0:0:
292,88,100163,2,0,P|335:79|418:59,1,112,6|2,1:2|1:2,0:0:0:0:
466,115,100709,1,2,1:2:0:0:
466,115,100890,1,0,1:0:0:0:
423,181,101072,6,0,P|412:230|408:256,1,56,6|0,1:2|0:0,0:0:0:0:
467,325,101436,1,2,0:0:0:0:
389,343,101618,2,0,P|336:342|312:342,1,56,2|8,0:0|0:0,0:0:0:0:
254,346,101981,1,2,0:0:0:0:
211,280,102163,2,0,P|202:237|193:201,1,56,2|2,0:0|0:0,0:0:0:0:
106,307,102527,6,0,P|97:346|91:374,1,56,2|0,1:2|1:0,0:0:0:0:
6,272,102890,1,2,0:0:0:0:
51,208,103072,2,0,P|42:169|36:141,1,56,2|8,0:0|0:0,0:0:0:0:
13,78,103436,1,2,1:2:0:0:
83,44,103618,2,0,P|130:53|159:58,1,56,2|0,0:0|0:0,0:0:0:0:
206,16,103981,6,0,P|226:54|227:135,1,112,6|2,1:2|0:0,0:0:0:0:
187,190,104527,1,0,1:0:0:0:
187,190,104618,1,0,1:0:0:0:
187,190,104709,2,0,L|175:236,3,28,2|0|0|0,1:2|1:0|1:0|1:0,0:0:0:0:
158,234,105072,2,0,L|170:280,3,28,2|0|0|0,1:2|1:0|1:0|1:0,0:0:0:0:
175,287,105436,5,2,0:0:0:0:
175,287,106345,2,0,L|131:303,2,28,2|2|2,0:0|0:0|0:0,0:0:0:0:
362,343,106890,6,0,P|408:357|447:364,1,70,6|0,1:2|0:0,0:0:0:0:
512,248,107254,2,0,P|466:262|427:269,1,70,10|2,0:0|1:2,0:0:0:0:
363,209,107618,1,2,1:2:0:0:
363,209,107800,1,2,1:2:0:0:
437,145,107981,2,0,P|450:90|456:55,1,70,10|2,0:2|0:0,0:0:0:0:
376,14,108345,6,0,P|335:27|228:47,1,140,0|8,1:0|0:0,0:0:0:0:
146,15,108890,1,2,1:2:0:0:
107,105,109072,2,0,P|58:117|-2:125,2,105,2|2|2,1:2|0:0|0:0,0:0:0:0:
203,124,109800,6,0,P|240:172|228:266,1,140,2|8,1:2|0:0,0:0:0:0:
159,308,110345,1,2,1:2:0:0:
241,360,110527,2,0,P|291:371|321:376,1,70,2|0,1:2|1:0,0:0:0:0:
371,298,110890,2,0,P|421:287|451:282,1,70,10|2,0:0|0:0,0:0:0:0:
313,221,111254,6,0,P|301:163|286:80,1,140,0|8,1:0|0:0,0:0:0:0:
188,72,111800,2,0,P|199:44|217:6,2,70,2|2|0,1:2|1:2|1:0,0:0:0:0:
149,164,112345,1,10,0:0:0:0:
149,164,112527,1,2,0:2:0:0:
66,110,112709,6,0,P|27:142|10:239,1,140,6|8,1:2|0:0,0:0:0:0:
62,307,113254,2,0,P|72:353|79:388,2,70,2|2|2,1:2|1:2|1:2,0:0:0:0:
141,248,113800,1,10,0:2:0:0:
217,308,113981,6,0,P|254:320|296:333,1,70,2|0,1:2|0:0,0:0:0:0:
353,206,114345,2,0,P|316:218|274:231,1,70,2|0,1:2|0:0,0:0:0:0:
195,189,114709,2,0,P|173:137|188:48,1,140,6|2,1:2|0:0,0:0:0:0:
198,36,115163,1,2,0:0:0:0:
217,20,115254,2,0,P|274:30|305:36,1,70,6|2,1:2|0:0,0:0:0:0:
383,17,115618,6,0,P|405:54|434:158,1,140,6|10,1:2|0:0,0:0:0:0:
389,234,116163,2,0,P|344:226|302:219,1,70,2|8,1:2|0:0,0:0:0:0:
429,329,116527,2,0,P|474:321|516:314,1,70,2|8,1:2|0:0,0:0:0:0:
354,378,116890,6,0,P|300:370|204:357,1,140,6|8,1:2|0:0,0:0:0:0:
18,368,117618,2,0,P|-4:311|-6:213,1,140,6|0,1:2|1:0,0:0:0:0:
47,152,118163,2,0,P|58:93|65:39,1,105,8|2,0:0|0:0,0:0:0:0:
67,31,118527,6,0,P|105:61|179:49,1,112,4|2,1:2|0:0,0:0:0:0:
234,19,119072,1,0,0:0:0:0:
269,89,119254,2,0,P|262:125|258:154,1,56,8|0,0:0|0:0,0:0:0:0:
207,203,119618,2,0,P|214:239|218:268,1,56,2|0,0:0|0:0,0:0:0:0:
257,330,119981,5,0,1:0:0:0:
257,330,120163,2,0,P|296:362|378:355,1,112,0|2,1:0|0:0,0:0:0:0:
433,358,120708,2,0,P|419:317|412:297,1,56,8|0,0:0|1:0,0:0:0:0:
354,253,121072,2,0,P|363:226|373:200,1,56,2|8,0:0|0:0,0:0:0:0:
401,126,121436,6,0,P|361:165|302:164,1,112,0|2,1:0|0:0,0:0:0:0:
289,77,121981,1,0,0:0:0:0:
289,77,122163,2,0,L|358:59,1,56,8|10,0:0|0:2,0:0:0:0:
401,14,122527,1,2,0:0:0:0:
492,61,122709,6,0,B|480:123|469:195,1,112,6|2,1:2|0:0,0:0:0:0:
490,248,123254,2,0,P|464:248|435:235,1,56,8|0,0:0|1:2,0:0:0:0:
373,189,123618,2,0,L|362:146,3,28,2|0|0|0,1:2|1:2|1:2|1:2,0:0:0:0:
355,142,123981,2,0,P|327:141|300:154,1,56,6|0,1:2|1:2,0:0:0:0:
217,189,124345,6,0,P|224:223|232:257,1,70,6|0,1:2|0:0,0:0:0:0:
314,311,124708,1,10,0:0:0:0:
234,368,124890,2,0,P|191:361|152:354,1,70,2|8,1:2|0:0,0:0:0:0:
68,334,125254,1,0,1:0:0:0:
133,261,125436,2,0,P|124:206|117:165,1,70,8|2,0:0|1:2,0:0:0:0:
41,134,125800,6,0,P|45:86|127:33,1,140,2|10,1:2|0:0,0:0:0:0:
210,14,126345,2,0,P|253:26|283:33,1,70,2|8,1:2|0:0,0:0:0:0:
365,74,126708,1,2,1:2:0:0:
300,147,126890,2,0,P|266:156|232:165,1,70,10|0,0:2|1:0,0:0:0:0:
140,201,127254,5,6,1:2:0:0:
140,201,127618,2,0,P|131:160|125:130,1,70,8|0,1:2|1:0,0:0:0:0:
211,248,127981,2,0,P|203:282|196:316,1,70,8|0,0:0|1:0,0:0:0:0:
115,372,128345,1,8,0:0:0:0:
115,372,128527,1,0,1:0:0:0:
40,308,128709,6,0,P|47:273|54:239,1,70,8|0,0:0|1:0,0:0:0:0:
117,164,129072,1,8,0:0:0:0:
66,79,129254,2,0,P|28:91|-6:101,1,70,2|10,1:2|0:0,0:0:0:0:
132,12,129618,2,0,P|170:24|204:34,1,70,0|8,1:0|0:0,0:0:0:0:
208,36,129890,1,0,1:0:0:0:
218,41,129981,1,0,1:0:0:0:
297,98,130163,6,0,P|283:141|197:176,1,140,6|0,1:2|1:2,0:0:0:0:
143,256,130709,1,0,1:2:0:0:
207,329,130890,2,0,P|174:342|142:356,2,70,0|0|0,1:2|1:2|1:2,0:0:0:0:
302,351,131436,5,14,1:2:0:0:
184,194,131800,1,10,1:2:0:0:
277,109,131981,1,10,1:2:0:0:
511,360,132890,6,0,P|492:260|484:204,1,154.000004699707,6|2,1:2|0:0,0:0:0:0:
428,115,133436,2,0,P|407:148|362:160,1,77.0000023498536,10|0,0:0|0:0,0:0:0:0:
277,109,133799,1,2,1:2:0:0:
185,127,133981,2,0,P|202:161|216:198,1,77.0000023498536,2|8,1:2|0:0,0:0:0:0:
299,267,134345,6,0,P|228:239|155:259,1,154.000004699707,2|2,1:2|0:0,0:0:0:0:
70,325,134890,2,0,P|63:287|56:249,1,77.0000023498536,10|0,0:0|1:0,0:0:0:0:
137,177,135254,1,2,0:0:0:0:
74,89,135436,2,0,P|41:108|3:106,1,77.0000023498536,2|8,1:2|0:0,0:0:0:0:
95,11,135800,6,0,P|163:25|251:41,1,154.000004699707,2|2,1:2|0:0,0:0:0:0:
332,105,136345,2,0,P|355:70|352:25,1,77.0000023498536,10|0,0:0|0:0,0:0:0:0:
245,125,136708,1,2,1:2:0:0:
321,200,136890,2,0,P|358:191|395:180,1,77.0000023498536,2|8,1:2|0:0,0:0:0:0:
504,182,137254,6,0,P|432:195|403:279,1,154.000004699707,2|2,1:2|0:0,0:0:0:0:
452,357,137799,1,10,0:0:0:0:
346,377,137981,2,0,P|307:371|270:363,1,77.0000023498536,2|0,1:2|0:0,0:0:0:0:
182,300,138345,2,0,P|219:292|257:285,1,77.0000023498536,2|8,1:2|0:0,0:0:0:0:
321,200,138708,1,2,0:0:0:0:
263,108,138890,6,0,P|220:110|185:133,1,77.0000023498536,4|2,1:0|0:0,0:0:0:0:
117,198,139254,2,0,P|72:202|35:182,1,77.0000023498536,10|2,0:0|0:0,0:0:0:0:
1,91,139617,1,2,1:2:0:0:
101,47,139799,1,2,1:2:0:0:
101,47,139981,2,0,P|93:92|87:129,1,77.0000023498536,10|0,0:0|0:0,0:0:0:0:
131,222,140345,6,0,B|207:234|196:178|279:191,1,154.000004699707,6|8,1:2|0:0,0:0:0:0:
368,133,140890,2,0,P|377:208|389:302,1,154.000004699707,6|2,1:2|1:2,0:0:0:0:
458,367,141436,2,0,P|481:328|481:288,1,77.0000023498536,10|2,0:0|0:0,0:0:0:0:
504,191,141799,6,0,P|467:202|431:213,1,77.0000023498536,6|0,1:2|0:0,0:0:0:0:
338,270,142163,1,10,0:0:0:0:
252,203,142345,2,0,P|180:226|145:298,1,154.000004699707,2|0,0:0|1:0,0:0:0:0:
63,362,142890,1,10,0:0:0:0:
4,271,143072,6,0,P|15:219|35:113,1,154.000004699707,6|2,1:2|1:2,0:0:0:0:
124,44,143617,2,0,P|128:82|134:120,1,77.0000023498536,10|0,0:0|1:0,0:0:0:0:
99,222,143981,1,2,1:2:0:0:
184,288,144163,2,0,L|234:279,3,38.5000011749268,0|0|2|0,1:0|1:0|1:2|1:0,0:0:0:0:
245,266,144527,6,0,P|311:278|407:302,1,154.000004699707,6|0,1:2|0:0,0:0:0:0:
476,227,145072,2,0,P|488:177|498:137,1,77.0000023498536,10|0,0:0|0:0,0:0:0:0:
405,91,145436,1,2,1:2:0:0:
304,131,145618,2,0,P|292:81|282:41,1,77.0000023498536,2|10,1:2|0:0,0:0:0:0:
276,36,145890,1,2,1:2:0:0:
263,16,145981,6,0,P|217:10|110:81,1,154.000004699707,2|2,1:2|0:0,0:0:0:0:
78,156,146527,2,0,P|39:167|-7:178,1,77.0000023498536,10|0,0:0|1:0,0:0:0:0:
156,237,146890,1,2,0:0:0:0:
66,296,147072,2,0,P|55:335|44:381,1,77.0000023498536,0|10,1:0|0:0,0:0:0:0:
154,372,147436,6,0,P|237:366|328:327,1,154.000004699707,2|2,1:2|0:0,0:0:0:0:
361,250,147981,2,0,P|319:232|268:217,1,77.0000023498536,10|2,0:0|0:0,0:0:0:0:
187,261,148345,1,2,1:2:0:0:
119,176,148527,2,0,P|105:114|99:79,1,77.0000023498536,2|8,1:2|0:0,0:0:0:0:
176,22,148890,6,0,P|239:8|338:66,1,154.000004699707,2|2,1:2|0:0,0:0:0:0:
379,131,149436,1,10,0:0:0:0:
476,84,149618,2,0,P|486:38|495:4,1,77.0000023498536,2|0,1:2|0:0,0:0:0:0:
403,143,149981,2,0,P|412:180|420:217,1,77.0000023498536,2|8,1:2|0:0,0:0:0:0:
495,296,150345,1,2,0:0:0:0:
403,352,150527,6,0,P|355:364|312:374,1,77.0000023498536,4|2,1:0|0:0,0:0:0:0:
224,341,150890,1,10,0:0:0:0:
270,243,151072,2,0,P|296:187|261:93,1,154.000004699707,6|2,1:2|1:2,0:0:0:0:
197,21,151618,1,10,0:0:0:0:
120,97,151800,6,0,P|70:113|33:122,1,77.0000023498536,6|0,1:2|0:0,0:0:0:0:
193,185,152163,2,0,P|243:201|280:210,1,77.0000023498536,6|2,1:2|0:0,0:0:0:0:
95,227,152527,2,0,P|70:265|75:377,1,154.000004699707,6|2,1:2|1:2,0:0:0:0:
179,375,153072,2,0,L|231:366,3,38.5000011749268,0|0|0|0,1:0|1:0|1:0|1:0,0:0:0:0:
238,352,153436,6,0,P|297:363|331:370,1,77.0000023498536,6|0,1:2|0:0,0:0:0:0:
417,333,153800,1,8,0:0:0:0:
346,252,153981,2,0,P|333:201|325:163,1,77.0000023498536,2|0,0:0|1:0,0:0:0:0:
455,142,154345,2,0,P|446:179|436:216,1,77.0000023498536,0|8,1:0|0:0,0:0:0:0:
417,333,154709,6,0,P|346:371|253:357,1,154.000004699707,6|0,1:2|1:0,0:0:0:0:
186,304,155254,2,0,L|196:249,3,38.5000011749268,8|0|0|0,0:0|1:2|1:2|1:2,0:0:0:0:
197,239,155618,2,0,P|148:223|114:215,1,77.0000023498536,6|0,1:2|0:0,0:0:0:0:
9,135,155981,2,0,P|58:119|92:111,1,77.0000023498536,6|0,1:2|0:0,0:0:0:0:
155,62,156345,6,0,B|204:56|243:24|243:24|302:77|389:77,1,251.999992309571,6|2,1:2|1:2,0:0:0:0:
478,25,157254,1,6,1:2:0:0:
510,198,157618,2,0,P|461:218|381:232,1,125.999996154785,6|8,1:2|0:0,0:0:0:0:
312,188,158163,2,0,P|268:177|238:172,1,62.9999980773926,2|0,0:0|1:0,0:0:0:0:
178,225,158527,2,0,P|134:236|104:241,1,62.9999980773926,2|0,1:2|1:0,0:0:0:0:
60,307,158890,2,0,P|16:296|-14:291,1,62.9999980773926,2|2,0:0|0:0,0:0:0:0:
127,375,159254,6,0,P|191:365|396:342,1,251.999992309571,6|2,1:2|1:2,0:0:0:0:
481,375,160163,1,6,1:2:0:0:
406,199,160527,2,0,P|395:148|384:68,1,125.999996154785,2|0,1:2|1:0,0:0:0:0:
300,47,161072,2,0,P|292:80|285:131,1,62.9999980773926,2|0,0:0|1:0,0:0:0:0:
204,138,161436,2,0,P|221:178|252:239,2,94.499997116089,2|0|0,1:2|1:0|1:0,0:0:0:0:
154,46,162163,5,6,1:2:0:0:
154,46,162527,1,2,0:0:0:0:
83,98,162709,2,0,P|37:109|10:116,1,62.9999980773926,2|0,0:0|1:0,0:0:0:0:
127,179,163072,2,0,P|173:190|200:197,1,62.9999980773926,6|0,1:2|0:0,0:0:0:0:
36,210,163436,6,0,P|17:266|7:342,1,125.999996154785,6|2,1:2|1:2,0:0:0:0:
82,378,163981,1,2,0:0:0:0:
138,309,164163,2,0,P|186:300|220:296,1,62.9999980773926,0|0,1:0|1:0,0:0:0:0:
279,259,164527,2,0,P|288:307|292:341,2,62.9999980773926,0|0|0,1:0|1:0|1:0,0:0:0:0:
246,162,165072,5,6,1:2:0:0:
246,162,165436,2,0,P|206:153|178:148,1,62.9999980773926,0|0,1:0|0:0,0:0:0:0:
277,66,165800,2,0,P|317:57|345:52,1,62.9999980773926,2|0,1:2|0:0,0:0:0:0:
417,14,166163,2,0,P|457:31|489:94,1,94.499997116089,0|0,1:0|0:0,0:0:0:0:
499,101,166527,5,2,1:2:0:0:
499,101,166890,2,0,P|486:140|475:175,1,62.9999980773926,0|0,1:0|0:0,0:0:0:0:
399,268,167254,2,0,P|386:229|375:194,1,62.9999980773926,2|0,1:2|0:0,0:0:0:0:
321,91,167618,1,2,1:2:0:0:
246,164,167800,5,0,1:0:0:0:
246,164,167890,1,0,1:0:0:0:
246,164,167981,2,0,P|197:215|125:216,1,140,6|8,1:2|0:0,0:0:0:0:
55,281,168527,2,0,P|43:211|31:142,1,140,2|0,1:2|1:0,0:0:0:0:
1,49,169072,2,0,P|47:25|97:37,1,105,10|0,0:0|0:0,0:0:0:0:
107,48,169436,6,0,P|161:39|248:26,1,140,2|8,1:2|0:0,0:0:0:0:
342,85,169981,2,0,P|308:105|263:114,1,70,2|0,1:2|0:0,0:0:0:0:
195,165,170345,1,2,1:2:0:0:
260,238,170527,2,0,P|294:227|350:208,1,70,10|0,0:0|0:0,0:0:0:0:
406,165,170890,6,0,L|422:47,2,105,2|2|2,1:2|0:0|1:2,0:0:0:0:
486,222,171618,2,0,P|500:275|448:347,1,140,2|8,0:0|0:0,0:0:0:0:
356,375,172163,5,2,0:0:0:0:
356,375,172254,1,2,0:0:0:0:
356,375,172345,2,0,P|342:309|335:276,1,70,2|0,1:2|0:0,0:0:0:0:
267,231,172709,1,8,0:0:0:0:
344,161,172890,2,0,P|293:116|226:126,1,140,6|2,1:2|1:2,0:0:0:0:
129,83,173436,1,10,0:0:0:0:
129,83,173618,1,2,0:0:0:0:
73,172,173800,6,0,P|89:242|107:322,1,140,6|8,1:2|0:0,0:0:0:0:
191,367,174345,1,0,1:0:0:0:
266,294,174527,2,0,P|249:243|242:220,1,70,2|0,0:0|1:0,0:0:0:0:
285,130,174890,1,10,0:0:0:0:
218,48,175072,6,0,P|184:63|142:84,1,70,2|2,0:0|1:2,0:0:0:0:
63,23,175436,1,2,0:0:0:0:
6,111,175618,1,10,0:0:0:0:
6,111,175709,1,2,1:2:0:0:
6,111,175800,2,0,P|28:174|92:196,1,140,2|2,1:2|1:2,0:0:0:0:
190,159,176345,2,0,P|218:166|269:179,1,70,8|0,0:0|1:0,0:0:0:0:
274,183,176618,1,0,1:0:0:0:
291,190,176709,6,0,P|325:177|378:159,1,70,2|2,1:2|0:0,0:0:0:0:
406,73,177072,1,8,0:0:0:0:
484,142,177254,2,0,P|500:207|445:264,1,140,2|0,1:2|1:2,0:0:0:0:
394,344,177800,2,0,P|379:303|368:271,1,70,8|2,0:0|0:0,0:0:0:0:
281,223,178163,6,0,P|269:255|257:288,1,70,2|2,1:2|1:2,0:0:0:0:
253,301,178436,1,2,1:2:0:0:
249,313,178527,1,10,1:2:0:0:
155,360,178709,2,0,P|134:295|166:234,1,140,6|2,1:2|1:2,0:0:0:0:
226,148,179254,2,0,L|212:107,3,35,10|2|2|2,1:2|1:2|1:2|1:2,0:0:0:0:
210,101,179618,6,0,P|229:36|293:16,1,140,6|8,1:2|0:0,0:0:0:0:
374,72,180163,1,0,1:2:0:0:
374,72,180254,1,0,1:0:0:0:
374,72,180345,2,0,P|406:63|453:51,1,70,2|0,1:2|1:0,0:0:0:0:
506,127,180709,1,8,0:0:0:0:
441,200,180890,5,2,0:0:0:0:
441,200,180981,1,2,0:0:0:0:
441,200,181072,2,0,P|409:191|331:171,2,105,2|2|2,1:2|0:0|1:2,0:0:0:0:
502,277,181800,2,0,P|500:328|465:367,2,105,2|2|2,0:0|1:2|0:0,0:0:0:0:
441,200,182527,6,0,B|364:185|375:234|307:226,1,140,2|8,1:2|0:0,0:0:0:0:
216,189,183072,2,0,P|227:151|237:113,1,70,2|0,1:2|0:0,0:0:0:0:
312,60,183436,1,2,1:2:0:0:
312,60,183618,1,10,0:0:0:0:
230,5,183800,1,2,0:0:0:0:
149,60,183981,6,0,P|109:53|69:48,1,70,2|2,1:2|0:0,0:0:0:0:
66,53,184254,1,2,0:0:0:0:
54,58,184345,1,10,0:0:0:0:
7,144,184527,2,0,P|19:195|108:227,1,140,6|0,1:2|1:0,0:0:0:0:
148,148,185072,2,0,P|180:155|239:167,1,70,2|2,1:2|0:0,0:0:0:0:
298,215,185436,6,0,P|326:194|361:191,1,70,12|0,0:0|1:0,0:0:0:0:
479,256,185800,1,10,0:0:0:0:
479,256,185981,1,0,1:0:0:0:
417,367,186163,2,0,P|371:358|337:352,1,70,10|0,0:0|1:0,0:0:0:0:
240,294,186527,1,10,0:0:0:0:
240,294,186709,1,0,1:0:0:0:
146,373,186890,6,0,B|96:326|96:326|126:261,1,140,10|8,0:0|0:0,0:0:0:0:
134,254,187345,1,0,1:2:0:0:
145,246,187436,1,2,1:2:0:0:
69,148,187618,2,0,P|33:160|-5:173,1,70,10|0,0:0|1:0,0:0:0:0:
151,101,187981,2,0,P|187:113|225:126,1,70,8|0,0:0|1:0,0:0:0:0:
279,199,188345,6,0,L|297:163,3,35,6|2|2|2,1:2|1:2|1:2|1:2,0:0:0:0:
320,142,188709,2,0,L|302:106,3,35,2|2|2|2,1:2|1:2|1:2|1:2,0:0:0:0:
298,81,189072,2,0,L|316:45,3,35,2|2|2|2,1:2|1:2|1:2|1:2,0:0:0:0:
321,24,189436,1,2,1:2:0:0:
418,15,189618,6,0,L|396:92,1,70,14|2,1:2|0:0,0:0:0:0:
475,144,189981,1,10,0:2:0:0:
382,223,190163,1,10,0:2:0:0:
51,289,199981,6,0,P|68:245|92:168,1,112,2|0,0:0|0:0,0:0:0:0:
100,106,200527,2,0,P|63:89|42:80,1,56,2|0,0:0|0:0,0:0:0:0:
172,57,200890,2,0,P|209:40|230:31,1,56,2|0,0:0|0:0,0:0:0:0:
297,59,201254,2,0,B|335:113|335:113|287:275,1,224,2|0,0:0|0:0,0:0:0:0:
240,326,202163,2,0,P|293:307|366:304,1,112,2|0,0:0|0:0,0:0:0:0:
414,345,202709,6,0,B|497:309|538:230|517:152|443:109|443:109|380:182|422:240,1,440.999986541748,2|2,0:0|0:0,0:0:0:0:
256,192,205436,12,2,206527,0:0:0:0:
437,68,207072,6,0,P|392:40|308:47,1,125.999996154785,6|0,1:2|0:0,0:0:0:0:
245,88,207618,2,0,P|249:132|263:235,1,125.999996154785,2|2,0:0|1:2,0:0:0:0:
236,298,208163,2,0,P|245:339|252:374,1,62.9999980773926,2|2,1:2|0:0,0:0:0:0:
160,243,208527,6,0,P|109:231|10:214,1,125.999996154785,6|2,1:2|0:0,0:0:0:0:
121,119,209072,1,6,1:2:0:0:
121,119,209436,2,0,P|109:76|101:47,2,62.9999980773926,2|2|2,0:0|0:0|0:0,0:0:0:0:
154,221,209981,6,0,P|196:249|325:247,1,154.000004699707,4|2,1:2|0:0,0:0:0:0:
399,221,210527,2,0,P|413:258|424:301,1,77.0000023498536,8|2,0:0|0:0,0:0:0:0:
501,176,210890,1,2,1:2:0:0:
423,101,211072,2,0,P|437:64|448:21,1,77.0000023498536,2|8,1:2|0:0,0:0:0:0:
340,4,211436,6,0,P|302:33|289:145,1,154.000004699707,2|0,1:2|0:0,0:0:0:0:
354,214,211981,1,10,0:0:0:0:
282,294,212163,2,0,P|271:344|264:377,1,77.0000023498536,2|0,1:2|0:0,0:0:0:0:
183,264,212527,2,0,P|174:226|166:188,1,77.0000023498536,0|8,1:0|0:0,0:0:0:0:
170,80,212890,1,2,0:0:0:0:
77,135,213072,6,0,P|36:146|0:155,1,77.0000023498536,4|2,1:0|0:0,1:0:0:0:
91,26,213436,2,0,P|132:37|168:46,1,77.0000023498536,10|2,0:0|0:2,0:0:0:0:
264,1,213800,1,2,1:2:0:0:
320,92,213981,1,2,1:2:0:0:
320,92,214163,2,0,P|307:139|297:179,1,77.0000023498536,10|0,0:0|0:0,0:0:0:0:
229,248,214527,6,0,P|258:304|367:334,1,154.000004699707,6|8,1:2|0:0,0:0:0:0:
409,256,215072,2,0,P|380:200|271:170,1,154.000004699707,6|2,1:2|1:2,0:0:0:0:
191,179,215618,2,0,P|153:190|110:200,1,77.0000023498536,10|2,0:0|0:0,0:0:0:0:
26,292,215981,6,0,P|64:303|107:313,1,77.0000023498536,6|0,1:2|0:0,0:0:0:0:
182,382,216345,1,10,0:0:0:0:
272,323,216527,2,0,P|340:309|445:292,1,154.000004699707,2|0,0:0|1:0,0:0:0:0:
511,233,217072,1,10,0:0:0:0:
424,170,217254,6,0,P|415:117|400:9,1,154.000004699707,6|2,1:2|1:2,0:0:0:0:
318,132,217800,2,0,P|271:143|231:152,1,77.0000023498536,10|0,0:0|1:0,0:0:0:0:
164,74,218163,1,2,1:2:0:0:
75,136,218345,2,0,L|64:183,3,38.5000011749268,0|0|2|0,1:0|1:0|1:2|1:0,0:0:0:0:
59,187,218709,6,0,P|30:255|69:319,1,154.000004699707,6|0,1:2|0:0,0:0:0:0:
166,364,219254,2,0,P|203:354|259:337,1,77.0000023498536,10|0,0:0|0:0,0:0:0:0:
344,369,219617,1,2,1:2:0:0:
439,317,219799,2,0,P|440:280|414:244,1,77.0000023498536,2|8,1:2|0:0,0:0:0:0:
344,168,220163,6,0,B|262:177|285:226|208:233,1,154.000004699707,2|2,1:2|0:0,0:0:0:0:
112,183,220709,2,0,P|121:134|127:101,1,77.0000023498536,10|0,0:0|1:0,0:0:0:0:
195,25,221072,1,2,0:0:0:0:
282,88,221254,2,0,P|320:89|356:70,1,77.0000023498536,0|10,1:0|0:0,0:0:0:0:
451,23,221618,6,0,P|443:73|425:184,1,154.000004699707,2|2,1:2|0:0,0:0:0:0:
494,258,222163,2,0,P|457:280|414:278,1,77.0000023498536,10|0,0:0|0:0,0:0:0:0:
331,224,222526,1,2,1:2:0:0:
237,278,222709,2,0,P|246:314|258:368,1,77.0000023498536,2|8,1:2|0:0,0:0:0:0:
363,374,223072,6,0,P|345:291|326:204,1,154.000004699707,2|2,1:2|0:0,0:0:0:0:
346,116,223617,1,10,0:0:0:0:
279,29,223800,2,0,P|243:52|236:91,1,77.0000023498536,2|0,1:2|0:0,0:0:0:0:
127,97,224163,2,0,P|126:134|152:162,1,77.0000023498536,2|8,1:2|0:0,0:0:0:0:
253,200,224527,1,2,0:0:0:0:
202,295,224709,6,0,P|164:286|127:276,1,77.0000023498536,6|0,1:2|0:0,0:0:0:0:
55,357,225072,1,10,0:0:0:0:
4,261,225254,2,0,P|16:176|27:94,1,154.000004699707,6|2,1:2|1:2,0:0:0:0:
83,17,225799,1,8,0:0:0:0:
158,94,225981,6,0,P|195:84|232:74,1,77.0000023498536,6|0,1:2|0:0,0:0:0:0:
345,170,226345,2,0,P|307:160|270:150,1,77.0000023498536,6|0,1:2|0:0,0:0:0:0:
187,219,226709,2,0,P|177:273|241:347,1,154.000004699707,6|2,1:2|1:2,0:0:0:0:
340,371,227254,2,0,P|349:354|361:338,3,38.5000011749268,0|0|0|0,1:0|1:0|1:0|1:0,0:0:0:0:
372,326,227617,6,0,P|402:350|440:350,1,77.0000023498536,6|0,1:2|0:0,0:0:0:0:
505,264,227981,1,10,0:0:0:0:
424,191,228163,2,0,P|416:153|407:115,1,77.0000023498536,2|8,1:2|0:0,0:0:0:0:
325,45,228527,2,0,P|317:82|308:120,1,77.0000023498536,2|8,1:2|0:0,0:0:0:0:
201,189,228890,6,0,P|258:192|303:288,1,154.000004699707,6|10,1:2|0:0,0:0:0:0:
231,368,229436,1,10,0:0:0:0:
0,33,230527,6,0,P|28:13|62:9,1,70,6|0,1:2|1:0,0:0:0:0:
151,50,230890,1,0,1:0:0:0:
73,109,231072,2,0,P|86:162|111:251,1,140,6|0,1:2|1:0,0:0:0:0:
175,317,231618,2,0,P|133:341|89:331,1,70,6|0,1:2|1:0,0:0:0:0:
198,227,231981,5,0,1:0:0:0:
269,291,232163,2,0,B|340:266|330:322|405:306,1,140,6|0,1:2|1:0,0:0:0:0:
499,285,232709,2,0,P|488:247|445:224,1,70,6|0,1:2|1:2,0:0:0:0:
393,162,233072,2,0,P|356:169|305:181,1,70,6|0,1:2|1:2,1:2:0:0:
435,82,233436,6,0,P|470:89|523:101,1,70,6|0,1:2|1:0,0:0:0:0:
373,14,233799,1,0,1:0:0:0:
300,79,233981,2,0,P|225:89|148:102,1,140,6|0,1:2|1:0,0:0:0:0:
85,36,234527,2,0,P|65:68|65:107,1,70,6|0,1:2|1:0,0:0:0:0:
127,174,234890,5,0,1:0:0:0:
42,223,235072,2,0,P|98:261|166:253,1,140,6|0,1:2|1:0,0:0:0:0:
245,194,235618,2,0,P|252:231|259:269,1,70,6|0,1:2|1:0,0:0:0:0:
240,359,235981,2,0,P|187:366|164:355,1,70,6|0,1:2|1:0,0:0:0:0:
91,304,236345,6,0,P|84:269|78:235,2,70,6|0|0,1:2|1:0|1:0,0:0:0:0:
18,369,236890,2,0,P|3:280|-6:223,1,140,6|0,1:2|1:0,0:0:0:0:
39,144,237436,1,6,1:2:0:0:
39,144,237617,1,0,1:0:0:0:
132,173,237799,5,0,1:0:0:0:
220,105,237981,2,0,P|214:57|207:11,1,70,6|0,1:2|1:0,0:0:0:0:
298,151,238345,1,0,1:0:0:0:
354,61,238527,2,0,P|385:75|419:85,1,70,6|0,1:2|1:0,0:0:0:0:
495,147,238890,2,0,P|484:180|470:212,1,70,6|0,1:2|1:0,0:0:0:0:
492,308,239254,6,0,P|445:261|364:265,1,140,6|0,1:2|1:0,0:0:0:0:
312,335,239799,2,0,P|297:266|283:198,1,140,6|0,1:2|1:0,0:0:0:0:
206,135,240345,2,0,P|212:100|220:66,1,70,6|0,1:2|0:0,0:0:0:0:
313,33,240709,6,0,P|333:26|357:17,3,35,0|0|0|0,1:0|1:0|1:0|1:0,0:0:0:0:
362,17,241072,2,0,P|351:67|335:138,1,105,0|0,1:0|0:0,0:0:0:0:
356,140,241436,1,10,0:0:0:0:
270,206,241618,1,10,0:0:0:0:
452,334,241981,6,0,B|319:350|382:222|217:247|217:247|243:339|243:339|164:294|164:294|95:352|95:352|106:259|106:259|31:216|31:216|119:192|119:192|150:107|150:107|192:185|192:185|282:193|282:193|266:212,1,1102.49996635437,6|0,1:2|0:0,0:0:0:0:
