osu file format v14

[General]
AudioFilename: audio.mp3
AudioLeadIn: 0
PreviewTime: 247071
Countdown: 0
SampleSet: Soft
StackLeniency: 0.4
Mode: 0
LetterboxInBreaks: 0
WidescreenStoryboard: 0

[Editor]
Bookmarks: 43591,71826,101826,123003,137121,151238,167121,181238,195356,213003,246532,262415,283591,311826
DistanceSpacing: 1.7
BeatDivisor: 4
GridSize: 8
TimelineZoom: 2.1

[Metadata]
Title:BABYLON~before the day break
TitleUnicode:BABYLON~before the day break
Artist:Imai Asami
ArtistUnicode:今井麻美
Creator:Kalibe
Version:Sorrow
Source:コープスパーティー
Tags:collab collaboration corpse party unlimited live action horror movie komore schoolboy
BeatmapID:1516541
BeatmapSetID:717913

[Difficulty]
HPDrainRate:6
CircleSize:4.1
OverallDifficulty:7.6
ApproachRate:9
SliderMultiplier:1.8
SliderTickRate:1

[Events]
//Background and Video events
0,0,"uwu.png",0,0
//Break Periods
//Storyboard Layer 0 (Background)
//Storyboard Layer 1 (Fail)
//Storyboard Layer 2 (Pass)
//Storyboard Layer 3 (Foreground)
//Storyboard Sound Samples

[TimingPoints]
1284,441.176470588235,4,2,3,40,1,0
15401,-166.666666666667,4,2,3,45,0,0
29474,441.176470588235,4,2,2,60,1,0
29474,-111.111111111111,4,2,2,60,0,0
35760,-111.111111111111,4,2,2,45,0,0
37194,-111.111111111111,4,2,2,60,0,0
42047,-111.111111111111,4,2,2,5,0,0
42157,-111.111111111111,4,2,2,55,0,0
42378,-111.111111111111,4,2,2,5,0,0
42488,-111.111111111111,4,2,2,55,0,0
42709,-111.111111111111,4,2,2,5,0,0
42819,-111.111111111111,4,2,2,55,0,0
43040,-111.111111111111,4,2,2,5,0,0
43150,-66.6666666666667,4,2,2,55,0,0
43591,-166.666666666667,4,2,2,35,0,0
46238,-166.666666666667,4,3,3,35,0,0
46266,-166.666666666667,4,2,2,35,0,0
50540,-142.857142857143,4,2,2,40,0,0
51312,-166.666666666667,4,2,2,35,0,0
53297,-166.666666666667,4,3,3,35,0,0
53325,-166.666666666667,4,2,2,35,0,0
55944,-142.857142857143,4,2,2,40,0,0
57709,-133.333333333333,4,2,2,45,0,0
60356,-133.333333333333,4,3,3,45,0,0
60466,-133.333333333333,4,2,2,45,0,0
67415,-133.333333333333,4,3,3,45,0,0
67525,-133.333333333333,4,2,2,45,0,0
71826,-133.333333333333,4,2,2,50,0,0
84179,-133.333333333333,4,2,2,55,0,0
86606,-133.333333333333,4,2,2,35,0,0
86826,-133.333333333333,4,2,2,60,0,0
87709,-83.3333333333333,4,2,2,65,0,1
88150,-100,4,2,2,65,0,1
101385,-90.9090909090909,4,2,2,65,0,0
101826,-100,4,2,2,65,0,1
106444,441.176470588235,4,2,2,65,1,1
106444,-76.9230769230769,4,2,2,65,0,1
107105,441.176470588235,4,2,2,65,1,0
107105,-76.9230769230769,4,2,2,65,0,0
107766,-200,4,2,2,65,0,1
108428,-100,4,2,2,65,0,0
108869,-100,4,2,2,65,0,1
117714,441.176470588235,4,2,2,65,1,1
117714,-100,4,2,2,65,0,1
119478,-76.9230769230769,4,2,2,70,0,0
123008,-100,4,2,2,60,0,0
135361,-133.333333333333,4,2,2,55,0,0
136684,-66.6666666666667,4,2,2,50,0,0
137125,-133.333333333333,4,2,2,40,0,0
138008,-133.333333333333,4,2,2,40,0,0
139772,-133.333333333333,4,3,3,40,0,0
139883,-133.333333333333,4,2,2,40,0,0
146831,-133.333333333333,4,3,3,40,0,0
147052,-133.333333333333,4,2,2,40,0,0
150140,-133.333333333333,4,2,2,55,0,0
151243,-117.647058823529,4,2,2,50,0,0
152125,-166.666666666667,4,2,2,50,0,0
152787,-117.647058823529,4,2,2,50,0,0
153890,-166.666666666667,4,2,2,50,0,0
154552,-117.647058823529,4,2,2,50,0,0
155655,-166.666666666667,4,2,2,50,0,0
156316,-117.647058823529,4,2,2,50,0,0
157419,-90.9090909090909,4,2,2,50,0,0
158302,-133.333333333333,4,2,2,55,0,0
162713,-111.111111111111,4,2,2,60,0,0
163596,-111.111111111111,4,2,2,65,0,0
164258,-83.3333333333333,4,2,2,70,0,0
164919,-71.4285714285714,4,2,2,70,0,0
166022,-83.3333333333333,4,2,2,60,0,0
166684,-76.9230769230769,4,2,2,60,0,0
167125,-83.3333333333333,4,2,2,70,0,1
167566,-100,4,2,2,70,0,1
168764,441.176470588235,4,2,2,70,1,1
168764,-100,4,2,2,70,0,1
168874,441.176470588235,4,2,2,70,1,1
180344,-100,4,2,2,60,0,0
181226,-100,4,2,2,70,0,1
185638,-76.9230769230769,4,2,2,70,0,1
186521,-76.9230769230769,4,2,2,70,0,0
187182,-133.333333333333,4,2,2,60,0,1
187624,-76.9230769230769,4,2,2,70,0,0
187723,-76.9230769230769,4,2,2,70,0,0
188285,-100,4,2,2,70,0,1
193579,-100,4,2,2,70,0,0
195013,-76.9230769230769,4,2,2,70,0,0
195344,-86.9565217391304,4,2,2,65,0,1
211226,-200,4,2,2,40,0,0
212550,-100,4,2,2,60,0,0
213653,-142.857142857143,4,2,2,45,0,0
226006,-200,4,2,2,40,0,0
227109,-111.111111111111,4,2,2,55,0,0
234142,441.176470588235,4,2,2,60,1,0
234142,-111.111111111111,4,2,2,60,0,0
235932,441.176470588235,4,2,2,60,1,0
235932,-111.111111111111,4,2,2,60,0,0
237034,-90.9090909090908,4,2,2,60,0,0
237696,-111.111111111111,4,2,2,60,0,0
240343,-200,4,2,2,45,0,0
241225,-111.111111111111,4,2,2,50,0,0
241557,-111.111111111111,4,2,2,5,0,0
241667,-111.111111111111,4,2,2,50,0,0
246520,-133.333333333333,4,2,2,45,0,0
247182,-133.333333333333,4,2,2,35,0,0
247292,-133.333333333333,4,2,2,45,0,0
255343,-200,4,2,2,40,0,0
257108,-133.333333333333,4,2,2,45,0,0
258873,-133.333333333333,4,2,2,50,0,0
260637,-133.333333333333,4,2,2,65,0,0
261961,-133.333333333333,4,2,2,60,0,0
262402,-76.9230769230769,4,2,2,70,0,1
262843,-100,4,2,2,70,0,1
265490,-76.9230769230769,4,2,2,70,0,1
265932,-100,4,2,2,70,0,1
266373,-90.9090909090909,4,2,2,70,0,1
266814,-100,4,2,2,65,0,1
267586,-76.9230769230769,4,2,2,70,0,1
267623,-76.9230769230769,4,2,2,70,0,0
268358,-133.333333333333,4,2,2,60,0,1
269020,-83.3333333333333,4,2,2,70,0,0
269461,-83.3333333333333,4,2,2,70,0,1
269682,-100,4,2,2,65,0,1
274093,-76.9230769230769,4,2,2,70,0,0
274755,-66.6666666666667,4,2,2,75,0,1
275858,-66.6666666666667,4,2,2,75,0,0
276520,-90.9090909090909,4,2,2,70,0,1
279608,-125,4,2,2,60,0,1
280049,-76.9230769230769,4,2,2,70,0,0
283579,-100,4,2,2,60,0,0
296373,-83.3333333333333,4,2,2,60,0,0
297696,-100,4,2,2,60,0,0
312305,441.176470588235,4,2,3,45,1,0
312305,-166.666666666667,4,2,3,45,0,0

[Colours]
Combo1 : 142,129,167
Combo2 : 90,201,126
Combo3 : 218,181,103
Combo4 : 102,158,185

[HitObjects]
16,61,1284,5,2,0:0:0:0:
73,115,1725,1,0,0:0:0:0:
150,132,2166,1,0,0:0:0:0:
224,104,2607,1,0,0:0:0:0:
286,152,3048,1,0,0:0:0:0:
343,98,3489,1,0,0:0:0:0:
420,81,3930,1,0,0:0:0:0:
494,109,4371,1,0,0:0:0:0:
427,64,4813,5,2,0:0:0:0:
371,260,5254,1,0,0:0:0:0:
447,238,5695,1,0,0:0:0:0:
389,183,6136,1,0,0:0:0:0:
309,189,6578,1,0,0:0:0:0:
258,249,7019,1,0,0:0:0:0:
193,294,7460,1,0,0:0:0:0:
114,306,7901,1,0,0:0:0:0:
44,267,8342,5,2,0:0:0:0:
276,355,8783,1,0,0:0:0:0:
341,310,9225,1,0,0:0:0:0:
365,234,9666,1,0,0:0:0:0:
337,159,10107,1,0,0:0:0:0:
267,197,10548,1,0,0:0:0:0:
312,262,10990,1,0,0:0:0:0:
388,286,11431,1,0,0:0:0:0:
463,258,11872,1,0,0:0:0:0:
433,351,12313,5,0,0:0:0:0:
388,286,12755,1,0,0:0:0:0:
312,262,13196,1,0,0:0:0:0:
237,290,13637,1,0,0:0:0:0:
179,230,14078,5,2,0:0:0:0:
272,357,14519,1,0,0:0:0:0:
195,339,14960,5,0,0:0:0:0:
272,357,15181,1,8,0:3:0:0:
348,377,15401,1,2,0:0:0:0:
348,377,15842,6,0,P|401:368|459:359,1,107.999996704102
459,355,16725,1,0,0:0:0:0:
243,248,17166,2,0,P|296:257|354:266,1,107.999996704102
355,261,18048,1,0,0:0:0:0:
139,334,18489,1,0,0:0:0:0:
76,287,18931,2,0,P|51:243|78:186,1,107.999996704102,2|0,0:0|0:0,0:0:0:0:
246,84,19813,5,0,0:0:0:0:
324,66,20254,1,0,0:0:0:0:
186,162,20695,5,0,0:0:0:0:
289,190,21136,1,0,0:0:0:0:
187,306,21578,5,0,0:0:0:0:
377,261,22019,1,0,0:0:0:0:
227,383,22460,5,2,0:0:0:0:
376,244,22901,2,0,P|331:219|275:232,1,107.999996704102
273,234,23783,1,0,0:0:0:0:
140,346,24225,2,0,P|95:371|39:358,1,107.999996704102
37,356,25107,1,0,0:0:0:0:
177,234,25548,1,0,0:0:0:0:
69,211,25989,6,0,L|175:228,1,107.999996704102,2|0,0:0|0:0,0:0:0:0:
83,294,26872,1,0,0:0:0:0:
247,174,27313,1,0,0:0:0:0:
220,145,27754,5,0,0:0:0:0:
355,232,28195,1,0,0:0:0:0:
231,335,28636,1,0,0:0:0:0:
396,156,29078,5,2,0:0:0:0:
440,224,29298,1,0,0:0:0:0:
475,126,29474,6,0,B|384:96|407:166|306:136,1,161.999995056153,4|2,0:0|0:0,0:0:0:0:
213,205,30135,2,0,P|171:251|180:306,1,121.499996292114,2|0,3:2|0:0,0:0:0:0:
223,372,30576,1,0,3:0:0:0:
350,250,30797,1,8,0:0:0:0:
409,360,31018,5,0,0:0:0:0:
406,362,31128,1,0,0:0:0:0:
404,365,31238,2,0,B|414:321|414:321|431:302|431:302|446:243,2,121.499996292114,8|0|2,3:0|3:0|3:2,0:0:0:0:
269,243,32121,1,0,0:0:0:0:
272,262,32231,1,0,0:0:0:0:
275,281,32341,1,0,3:0:0:0:
379,179,32562,6,0,P|339:173|299:159,1,80.9999975280763,8|0,0:0|0:0,0:0:0:0:
182,312,33003,2,0,P|142:318|102:332,1,80.9999975280763,0|0,3:0|0:0,0:0:0:0:
3,269,33334,1,0,0:0:0:0:
10,265,33444,6,0,L|62:280,1,40.4999987640381,2|0,0:0|0:0,0:0:0:0:
110,356,33665,1,2,3:2:0:0:
294,139,33885,6,0,L|242:154,1,40.4999987640381,2|0,0:0|0:0,0:0:0:0:
194,230,34106,1,0,3:0:0:0:
194,230,34326,2,0,B|269:240|240:277|312:284,1,121.499996292114,8|0,0:0|0:0,0:0:0:0:
357,338,34768,6,0,P|378:303|376:254,1,80.9999975280763,8|0,3:0|0:0,0:0:0:0:
426,133,35099,2,0,P|447:168|445:217,1,80.9999975280763,8|0,3:0|0:0,0:0:0:0:
491,383,35429,2,0,P|512:348|510:299,1,80.9999975280763,8|0,0:0|0:0,0:0:0:0:
472,238,35760,1,8,0:0:0:0:
460,229,35871,5,8,0:0:0:0:
421,217,35981,1,8,0:0:0:0:
382,228,36091,1,8,0:0:0:0:
354,257,36201,1,8,3:0:0:0:
318,277,36312,1,8,3:0:0:0:
277,276,36422,1,8,3:0:0:0:
242,255,36532,1,4,3:2:0:0:
301,193,37194,5,4,0:0:0:0:
138,290,37415,1,2,0:0:0:0:
133,266,37525,1,2,0:0:0:0:
127,242,37635,1,0,3:0:0:0:
247,304,37856,2,0,P|235:342|222:391,1,80.9999975280763,8|0,0:0|0:0,0:0:0:0:
57,307,38297,6,0,P|91:286|135:291,1,80.9999975280763,0|0,3:0|0:0,0:0:0:0:
210,204,38628,2,0,P|244:225|288:220,1,80.9999975280763,0|0,3:0|0:0,0:0:0:0:
357,317,38959,2,0,P|391:296|435:301,1,80.9999975280763,8|0,0:0|0:0,0:0:0:0:
504,356,39290,5,2,0:0:0:0:
501,349,39400,2,0,L|516:298,1,40.4999987640381,4|0,3:0|0:0,0:0:0:0:
368,207,39621,1,8,0:0:0:0:
372,213,39731,2,0,L|348:311,1,80.9999975280763,8|0,3:0|0:0,0:0:0:0:
370,363,40062,6,0,P|321:318|271:330,1,121.499996292114,0|0,3:0|3:0,0:0:0:0:
205,373,40503,1,2,0:0:0:0:
372,210,40723,1,8,0:0:0:0:
349,201,40834,1,8,0:0:0:0:
325,206,40944,2,0,L|332:254,1,40.4999987640381,8|8,3:0|0:0,0:0:0:0:
205,373,41165,2,0,L|216:334,1,40.4999987640381,8|8,0:0|0:0,0:0:0:0:
163,233,41385,5,8,0:0:0:0:
135,215,41496,1,8,0:0:0:0:
103,208,41606,1,4,3:0:0:0:
71,214,41716,1,0,3:0:0:0:
45,233,41826,6,0,P|38:192|31:138,1,80.9999975280763,8|0,3:0|0:0,0:0:0:0:
163,233,42157,2,0,P|157:192|150:152,1,80.9999975280763,8|0,3:0|0:0,0:0:0:0:
135,54,42488,6,0,P|142:95|149:149,1,80.9999975280763,8|0,3:0|0:0,0:0:0:0:
17,54,42819,2,0,P|22:94|29:134,1,80.9999975280763,8|0,3:0|0:0,0:0:0:0:
45,233,43150,6,0,P|135:212|61:297,1,270.000010299683,2|2,3:1|0:0,0:0:0:0:
79,310,44032,5,2,0:0:0:0:
79,310,44253,2,0,B|170:288|146:355|246:332,1,161.999995056153
512,185,45356,5,0,0:0:0:0:
438,233,45576,1,0,0:0:0:0:
358,194,45797,1,2,0:0:0:0:
346,106,46018,1,0,0:0:0:0:
369,205,46238,6,0,B|279:195|309:264|209:253,1,161.999995056153,4|0,0:0|0:0,0:0:0:0:
145,208,47121,2,0,P|127:238|152:309,1,107.999996704102,0|2,0:0|0:0,0:0:0:0:
362,380,48003,2,0,P|380:350|355:279,1,107.999996704102
282,331,48665,1,2,0:0:0:0:
211,201,48885,6,0,P|219:225|223:253,1,53.9999983520508,2|0,0:0|0:0,0:0:0:0:
349,150,49326,2,0,P|343:173|334:212,1,53.9999983520508,2|0,0:0|0:0,0:0:0:0:
259,119,49768,2,0,P|250:60|243:7,1,107.999996704102,2|2,0:0|0:0,0:0:0:0:
144,146,50429,5,0,0:0:0:0:
144,146,50650,2,0,P|194:162|260:103,1,125.999996154785,0|2,0:0|0:0,0:0:0:0:
328,50,51312,2,0,B|456:73|383:131|510:152,1,215.999993408203,2|0,0:0|0:0,0:0:0:0:
470,243,52415,5,0,0:0:0:0:
439,262,52635,5,0,0:0:0:0:
371,234,52856,5,2,0:0:0:0:
301,291,53076,5,2,0:0:0:0:
197,240,53297,6,0,P|184:159|250:113,1,161.999995056153,4|0,0:3|0:0,0:0:0:0:
312,165,54179,6,0,P|306:190|300:218,1,53.9999983520508
240,114,54621,1,2,0:0:0:0:
313,62,54841,2,0,P|362:45|427:79,1,107.999996704102,2|0,0:0|0:0,0:0:0:0:
480,123,55503,1,2,0:0:0:0:
425,206,55723,1,0,0:0:0:0:
257,170,55944,6,0,L|265:210,1,31.4999990386963
245,216,56165,2,0,L|237:176,1,31.4999990386963
333,276,56385,6,0,L|325:316,1,31.4999990386963,2|0,0:0|0:0,0:0:0:0:
353,334,56606,2,0,L|361:294,1,31.4999990386963,2|0,0:0|0:0,0:0:0:0:
456,241,56826,5,0,0:0:0:0:
454,228,56937,1,2,0:0:0:0:
452,215,57047,1,0,0:0:0:0:
450,202,57157,1,2,0:0:0:0:
448,189,57268,1,2,0:0:0:0:
446,176,57378,1,0,0:0:0:0:
378,147,57488,5,2,0:0:0:0:
375,128,57598,1,2,0:0:0:0:
370,109,57709,6,0,B|293:123|326:156|253:169,1,135.000005149842,4|2,3:0|0:0,0:0:0:0:
153,128,58371,1,0,0:0:0:0:
159,129,58591,2,0,P|165:162|171:195,1,67.5000025749208
259,265,59032,2,0,L|246:331,1,67.5000025749208,2|0,0:0|0:0,0:0:0:0:
58,360,59473,6,0,P|101:310|165:315,1,135.000005149842,0|2,0:0|0:0,0:0:0:0:
237,376,60135,1,0,0:0:0:0:
351,278,60356,1,4,0:0:0:0:
256,226,60576,1,0,0:0:0:0:
256,226,60687,1,0,0:0:0:0:
256,226,60797,2,0,P|262:259|268:292,1,67.5000025749208,2|0,0:0|0:0,0:0:0:0:
426,380,61238,6,0,P|453:319|431:257,1,135.000005149842,0|2,0:0|0:0,0:0:0:0:
421,249,61900,1,0,0:0:0:0:
320,156,62121,2,0,P|330:222|340:289,1,135.000005149842
320,381,62782,1,2,0:0:0:0:
212,318,63003,5,0,0:0:0:0:
257,237,63223,1,0,0:0:0:0:
205,160,63444,1,2,0:0:0:0:
287,80,63665,1,0,0:0:0:0:
279,65,63775,1,0,0:0:0:0:
272,52,63885,6,0,P|263:122|258:142,1,67.5000025749208,2|0,0:0|0:0,0:0:0:0:
421,207,64326,2,0,P|415:173|412:140,1,67.5000025749208,2|2,0:0|0:0,0:0:0:0:
281,261,64768,6,0,B|215:248|220:286|148:275,1,135.000005149842,12|0,3:0|0:0,0:0:0:0:
28,135,65429,2,0,P|32:154|36:177,1,33.7500012874604
115,195,65650,2,0,P|126:153|111:122,1,67.5000025749208,0|0,3:0|0:0,0:0:0:0:
6,267,66091,2,0,P|14:301|21:345,1,67.5000025749208,2|0,0:0|0:0,0:0:0:0:
178,382,66532,6,0,L|199:219,1,135.000005149842,0|2,0:0|0:0,0:0:0:0:
121,181,67194,1,2,0:0:0:0:
192,95,67415,1,4,0:0:0:0:
187,101,67635,2,0,P|241:156|311:119,1,135.000005149842
360,72,68297,6,0,B|440:78|402:120|486:125,1,135.000005149842
377,209,68959,1,2,0:0:0:0:
372,196,69069,1,0,0:0:0:0:
375,182,69179,1,0,0:0:0:0:
464,142,69400,2,0,P|456:200|441:305,1,135.000005149842
358,365,70062,5,2,0:0:0:0:
256,192,70172,12,0,71606,0:0:0:0:
57,152,71826,5,2,0:0:0:0:
111,202,72047,1,0,0:0:0:0:
182,221,72268,1,0,0:0:0:0:
252,197,72488,1,0,0:0:0:0:
294,135,72709,2,0,L|275:28,2,101.250003862381,2|0|0,0:0|0:0|0:0,0:0:0:0:
377,119,73591,6,0,P|324:159|330:222,1,135.000005149842,2|0,0:0|0:0,0:0:0:0:
271,309,74253,2,0,L|406:289,1,135.000005149842,2|0,0:0|0:0,0:0:0:0:
471,349,74915,1,2,0:0:0:0:
253,382,75356,6,0,B|227:335|227:335|254:258,1,135.000005149842,0|0,3:0|0:0,0:0:0:0:
104,327,76018,1,2,0:0:0:0:
73,255,76238,2,0,P|123:249|168:282,2,101.250003862381,2|2|0,0:0|0:0|0:0,0:0:0:0:
113,355,77121,6,0,P|189:369|235:328,1,135.000005149842,2|0,0:0|0:0,0:0:0:0:
283,222,77782,1,0,0:0:0:0:
281,216,77893,1,0,0:0:0:0:
279,211,78003,5,2,0:0:0:0:
202,265,78223,1,2,0:0:0:0:
252,345,78444,1,2,0:0:0:0:
330,291,78665,1,2,0:0:0:0:
414,364,78885,6,0,P|457:337|505:349,1,101.250003862381,2|0,0:0|0:0,0:0:0:0:
512,352,79326,2,0,P|504:313|500:277,1,67.5000025749208,2|0,0:0|0:0,0:0:0:0:
338,182,79768,6,0,P|346:143|350:107,1,67.5000025749208,2|0,0:0|0:0,0:0:0:0:
412,35,80098,1,2,0:0:0:0:
416,61,80209,1,2,0:0:0:0:
420,87,80319,1,2,0:0:0:0:
425,113,80429,1,2,0:0:0:0:
305,257,80650,5,2,0:0:0:0:
299,230,80760,1,2,0:0:0:0:
308,204,80871,1,2,0:0:0:0:
416,192,81091,5,0,0:0:0:0:
276,350,81312,1,2,0:0:0:0:
249,346,81422,1,2,0:0:0:0:
229,327,81532,2,0,P|284:292|362:310,1,135.000005149842
394,369,82194,1,0,0:0:0:0:
507,307,82415,5,2,0:0:0:0:
288,192,82856,2,0,P|280:226|266:270,1,67.5000025749208,2|0,0:0|0:0,0:0:0:0:
168,381,83297,5,2,0:0:0:0:
243,77,83738,1,2,0:0:0:0:
167,129,83959,5,2,0:0:0:0:
163,134,84069,1,0,0:0:0:0:
157,137,84179,2,0,P|116:130|85:121,1,67.5000025749208,2|0,0:0|0:0,0:0:0:0:
197,216,84510,6,0,P|130:226|52:245,1,135.000005149842,2|0,0:0|0:0,0:0:0:0:
0,329,85062,5,2,3:2:0:0:
31,316,85172,1,0,3:0:0:0:
64,316,85282,1,0,3:0:0:0:
92,334,85393,1,0,3:0:0:0:
122,360,85503,5,8,3:0:0:0:
161,367,85613,1,8,3:0:0:0:
199,354,85723,1,8,3:0:0:0:
229,327,85834,1,8,3:0:0:0:
249,280,85944,5,2,0:0:0:0:
266,262,86606,6,0,L|311:253,1,33.7500012874604,2|0,0:0|0:0,0:0:0:0:
401,327,86826,5,4,3:2:0:0:
423,292,86937,1,8,3:0:0:0:
424,248,87047,1,8,3:0:0:0:
404,205,87157,1,8,3:0:0:0:
331,163,87268,5,8,1:0:0:0:
301,121,87378,1,8,1:0:0:0:
301,67,87488,1,8,0:0:0:0:
338,23,87598,1,8,0:0:0:0:
395,102,87709,6,0,B|310:129|326:62|237:86,1,161.999995056153,6|0,0:0|0:0,0:0:0:0:
147,135,88150,2,0,P|106:117|62:114,1,90,8|0,0:0|0:0,0:0:0:0:
218,172,88481,5,8,0:0:0:0:
212,177,88591,2,0,L|201:221,1,45,2|0,0:0|3:0,0:0:0:0:
86,265,88812,2,0,L|105:214,1,45,0|0,3:0|0:0,0:0:0:0:
251,325,89032,2,0,P|206:335|148:352,1,90,8|2,0:0|0:0,0:0:0:0:
90,378,89363,1,8,0:0:0:0:
74,376,89473,5,8,3:0:0:0:
195,243,89694,1,8,3:0:0:0:
332,380,89915,2,0,B|354:340|354:340|340:289,1,90,8|0,0:0|0:0,0:0:0:0:
271,305,90246,5,2,0:0:0:0:
271,305,90356,2,0,L|329:314,1,45,8|0,3:0|3:0,0:0:0:0:
456,244,90576,1,0,3:0:0:0:
336,98,90797,5,8,0:0:0:0:
318,128,90907,1,2,0:0:0:0:
316,164,91018,1,0,3:0:0:0:
329,197,91128,1,0,3:0:0:0:
355,221,91238,2,0,L|451:204,1,90,4|0,3:0|3:0,0:0:0:0:
506,116,91679,5,8,0:0:0:0:
276,40,91900,1,0,0:0:0:0:
263,37,92010,1,8,0:0:0:0:
250,35,92121,2,0,L|260:96,2,45,2|8|0,0:0|3:0|3:0,0:0:0:0:
150,146,92562,5,8,0:0:0:0:
396,40,92782,1,2,0:0:0:0:
396,40,92893,1,8,0:0:0:0:
396,40,93003,6,0,P|381:120|366:187,1,135,2|0,0:0|0:0,0:0:0:0:
397,246,93444,1,8,0:0:0:0:
211,188,93665,2,0,L|219:238,1,45,2|8,0:0|0:0,0:0:0:0:
234,372,93885,5,2,0:0:0:0:
244,363,93996,1,8,0:0:0:0:
245,349,94106,2,0,P|214:339|194:335,1,45,8|0,3:0|0:0,0:0:0:0:
77,369,94326,5,12,0:0:0:0:
309,268,94547,1,8,0:0:0:0:
239,234,94657,1,8,0:0:0:0:
134,269,94768,6,0,P|116:228|132:178,1,90,4|0,0:0|0:0,0:0:0:0:
222,135,95098,1,0,0:0:0:0:
222,135,95209,2,0,L|277:146,1,45,8|0,0:0|0:0,0:0:0:0:
176,51,95429,5,2,0:0:0:0:
196,35,95540,2,0,L|295:24,1,90,8|0,0:0|3:0,0:0:0:0:
308,49,95871,1,8,3:0:0:0:
358,245,96091,1,8,0:0:0:0:
477,80,96312,5,2,0:0:0:0:
464,84,96422,1,0,3:0:0:0:
451,89,96532,2,0,P|463:132|474:179,1,90,2|0,3:2|3:0,0:0:0:0:
275,357,96973,2,0,P|264:316|290:271,1,90,8|2,0:0|0:0,0:0:0:0:
362,222,97304,1,8,0:0:0:0:
374,231,97415,2,0,L|381:287,2,45,0|8|0,3:0|3:0|3:0,0:0:0:0:
512,368,97856,6,0,B|441:345|449:398|368:376,1,135,10|0,0:0|0:0,0:0:0:0:
355,366,98297,1,2,3:2:0:0:
473,256,98518,5,0,3:0:0:0:
324,150,98738,1,8,0:0:0:0:
247,347,98959,5,2,0:0:0:0:
259,342,99069,1,8,0:0:0:0:
272,336,99179,2,0,L|260:404,2,45,0|8|0,3:0|3:0|3:0,0:0:0:0:
308,145,99621,6,0,L|292:243,1,90,8|0,0:0|0:0,0:0:0:0:
285,246,99951,1,8,0:0:0:0:
220,209,100062,5,4,3:0:0:0:
198,231,100172,1,0,3:0:0:0:
169,243,100282,1,8,3:0:0:0:
137,241,100393,1,0,3:0:0:0:
112,221,100503,6,0,L|125:164,1,45,8|0,0:0|0:0,0:0:0:0:
10,266,100723,2,0,L|0:222,1,45,0|0,3:0|3:0,0:0:0:0:
41,88,100944,5,8,0:0:0:0:
76,60,101054,1,8,0:0:0:0:
121,56,101165,1,8,0:0:0:0:
163,70,101275,1,8,0:0:0:0:
193,103,101385,6,0,P|199:126|200:153,1,49.5000015106202,8|8,1:0|1:0,0:0:0:0:
92,265,101606,2,0,P|113:257|141:253,1,49.5000015106202,2|2,0:0|0:0,0:0:0:0:
336,340,101826,6,0,B|292:342|242:355|242:355|184:327,1,135,4|0,0:0|0:0,0:0:0:0:
84,274,102268,2,0,P|61:309|80:372,1,90,8|2,0:0|0:0,0:0:0:0:
167,258,102598,5,8,0:0:0:0:
174,251,102709,2,0,L|166:191,1,45,0|0,3:0|0:0,0:0:0:0:
82,138,102929,1,0,3:0:0:0:
265,192,103150,6,0,P|313:198|359:160,1,90,8|2,0:0|0:0,0:0:0:0:
450,114,103481,1,8,3:0:0:0:
438,118,103591,6,0,L|426:207,1,90,4|0,3:0|3:0,0:0:0:0:
408,384,104032,1,8,0:0:0:0:
326,278,104253,5,2,0:0:0:0:
321,291,104363,1,8,0:0:0:0:
315,304,104473,2,0,P|358:293|373:280,1,45,2|0,0:0|3:0,0:0:0:0:
512,314,104694,2,0,P|470:301|454:290,1,45,8|0,3:0|3:0,0:0:0:0:
384,164,104915,6,0,L|406:38,1,90,8|0,0:0|0:0,0:0:0:0:
301,0,105246,1,2,0:0:0:0:
292,12,105356,6,0,B|272:54|272:54|287:105,1,90,8|0,3:0|3:0,0:0:0:0:
485,202,105797,2,0,B|505:160|505:160|490:109,1,90,8|2,0:0|0:0,0:0:0:0:
401,19,106128,5,8,0:0:0:0:
393,30,106238,2,0,L|403:102,1,45,8|8,3:0|3:0,0:0:0:0:
296,185,106444,6,0,P|291:156|300:128,1,58.4999973220826,2|0,0:0|3:0,0:0:0:0:
484,232,106664,2,0,P|488:260|478:287,1,58.4999973220826,8|0,0:0|0:0,0:0:0:0:
307,384,106885,5,2,0:0:0:0:
272,317,106995,1,8,0:0:0:0:
344,261,107106,6,0,L|414:270,1,58.4999973220826,6|0,0:0|0:0,0:0:0:0:
172,367,107326,1,0,0:0:0:0:
182,355,107436,2,0,P|134:315|50:344,1,116.999994644165,2|0,0:0|0:0,0:0:0:0:
0,203,107767,6,0,P|44:195|88:188,1,90,4|4,0:0|3:0,0:0:0:0:
218,108,108319,1,8,3:0:0:0:
218,108,108429,6,0,L|228:171,1,45,8|8,0:0|0:0,0:0:0:0:
91,50,108650,2,0,L|101:108,1,45,8|8,3:0|0:0,0:0:0:0:
278,214,108870,6,0,L|258:107,1,90,4|8,0:0|3:0,0:0:0:0:
147,206,109201,1,2,0:0:0:0:
140,214,109311,2,0,P|115:250|132:297,1,90,8|2,0:0|0:0,0:0:0:0:
235,241,109642,5,8,0:0:0:0:
246,233,109753,2,0,L|325:250,1,45,0|8,0:0|3:0,0:0:0:0:
358,357,109973,2,0,P|313:361|268:372,1,90,0|8,3:0|0:0,0:0:0:0:
469,254,110414,6,0,P|477:232|476:201,1,45,2|8,0:0|0:0,0:0:0:0:
395,162,110635,2,0,L|286:183,1,90,4|0,0:0|3:0,0:0:0:0:
126,266,110966,5,2,0:0:0:0:
117,278,111076,2,0,P|159:284|173:285,1,45,8|0,0:0|0:0,0:0:0:0:
311,361,111297,5,2,0:0:0:0:
337,282,111407,1,10,0:0:0:0:
248,245,111517,6,0,P|254:273|259:317,1,45,0|8,0:0|0:0,0:0:0:0:
409,168,111738,2,0,P|404:190|398:240,1,45,2|0,3:2|0:0,0:0:0:0:
201,111,111958,6,0,P|134:119|67:127,1,135,12|8,0:0|0:0,0:0:0:0:
0,38,112400,6,0,P|44:42|89:47,1,90,4|0,3:0|3:0,0:0:0:0:
211,192,112731,1,2,0:0:0:0:
224,182,112841,2,0,P|243:132|197:85,1,90,8|2,0:0|0:0,0:0:0:0:
126,221,113172,5,8,0:0:0:0:
119,235,113282,2,0,L|131:289,1,45,2|8,0:0|0:0,0:0:0:0:
231,358,113503,2,0,L|240:314,1,45,4|0,3:0|3:0,0:0:0:0:
369,276,113723,5,8,0:0:0:0:
437,322,113833,1,8,0:0:0:0:
499,269,113944,2,0,L|492:224,1,45,8|0,3:0|3:0,0:0:0:0:
488,115,114164,6,0,P|455:90|386:101,1,90,12|2,0:0|0:0,0:0:0:0:
273,218,114495,2,0,P|319:224|361:194,1,90,12|0,0:0|0:0,0:0:0:0:
167,126,114826,5,12,0:0:0:0:
158,136,114936,2,0,L|137:253,1,90,2|8,0:0|0:0,0:0:0:0:
252,373,115267,2,0,P|274:327|236:268,1,90,6|8,0:0|0:0,0:0:0:0:
39,105,115708,5,10,0:0:0:0:
48,153,115819,1,10,0:0:0:0:
20,229,115929,6,0,B|65:239|65:239|116:207,1,90,4|0,0:0|3:0,0:0:0:0:
224,118,116260,2,0,P|218:162|212:207,1,90,2|0,0:0|0:0,0:0:0:0:
120,105,116591,2,0,P|115:82|111:60,1,45,2|8,0:0|0:0,0:0:0:0:
317,182,116811,6,0,P|377:147|456:162,1,135,4|0,3:0|0:0,0:0:0:0:
457,165,117253,1,8,0:0:0:0:
268,16,117473,5,2,0:0:0:0:
256,97,117583,1,2,0:0:0:0:
252,26,117714,6,0,P|257:59|266:133,1,90,4|0,0:0|0:0,0:0:0:0:
126,244,118045,2,0,P|112:195|161:151,1,90,2|0,0:0|3:0,0:0:0:0:
266,262,118376,6,0,P|262:283|257:320,1,45,2|8,0:0|3:0,0:0:0:0:
158,87,118596,1,2,0:0:0:0:
356,228,118816,5,8,0:3:0:0:
356,228,118927,1,8,0:3:0:0:
356,228,119037,2,0,B|436:234|398:280|492:289,1,135,2|0,0:0|0:0,0:0:0:0:
497,77,119478,5,14,0:0:0:0:
434,120,119589,1,8,0:0:0:0:
348,77,119699,1,10,0:0:0:0:
181,245,120140,5,10,0:0:0:0:
231,187,120251,1,10,0:0:0:0:
182,104,120361,1,8,0:0:0:0:
321,369,120802,5,10,0:0:0:0:
332,255,120912,2,0,P|366:298|348:351,1,116.999994644165,12|0,0:0|0:0,0:0:0:0:
321,369,121243,5,8,0:0:0:0:
462,206,121464,1,8,0:0:0:0:
307,70,121684,1,10,0:0:0:0:
146,268,121905,5,8,3:0:0:0:
167,179,122015,1,8,0:0:0:0:
87,43,122236,5,8,3:0:0:0:
4,124,122346,2,0,P|35:125|78:101,1,58.4999973220826,2|0,0:0|3:0,0:0:0:0:
244,30,122567,5,8,1:0:0:0:
256,25,122677,2,0,B|325:31|295:71|368:79,1,116.999994644165,8|8,1:0|0:0,0:0:0:0:
450,40,123008,5,6,0:0:0:0:
255,177,123449,6,0,P|211:179|165:150,1,90,8|0,0:0|0:0,0:0:0:0:
74,208,123780,2,0,P|112:186|157:188,1,90,8|0,0:0|0:0,0:0:0:0:
203,267,124111,6,0,P|191:308|178:358,1,90,6|8,0:0|0:0,0:0:0:0:
301,251,124441,2,0,P|289:294|277:337,1,90,6|8,0:0|0:0,0:0:0:0:
404,239,124772,5,0,3:0:0:0:
398,261,124882,1,8,3:0:0:0:
392,283,124993,1,8,3:0:0:0:
413,123,125214,6,0,L|471:138,1,45,8|8,0:0|3:0,0:0:0:0:
334,58,125434,1,0,0:0:0:0:
321,65,125544,2,0,B|296:104|296:104|308:151,1,90,8|0,0:0|3:0,0:0:0:0:
472,162,125875,6,0,L|376:134,1,90,6|8,0:0|0:0,0:0:0:0:
246,200,126206,2,0,P|219:233|231:283,1,90,6|8,0:0|0:0,0:0:0:0:
293,361,126537,5,4,0:0:0:0:
298,340,126647,1,2,0:0:0:0:
303,319,126758,1,2,0:0:0:0:
117,203,126978,6,0,P|119:232|127:269,1,60,2|2,1:1|1:1,0:0:0:0:
84,378,127272,1,2,1:1:0:0:
0,344,127419,6,0,L|10:289,1,45,8|8,3:0|0:0,0:0:0:0:
143,279,127640,6,0,P|134:234|131:190,1,90,6|8,0:0|0:0,0:0:0:0:
8,105,127971,2,0,P|16:149|20:194,1,90,6|8,0:0|0:0,0:0:0:0:
106,108,128302,5,4,3:0:0:0:
140,98,128412,1,8,0:0:0:0:
175,103,128522,1,8,0:0:0:0:
203,124,128633,1,0,3:0:0:0:
221,154,128743,1,8,0:0:0:0:
383,41,128964,5,8,0:0:0:0:
383,41,129074,1,8,0:0:0:0:
299,118,129184,6,0,L|311:62,1,45,0|8,0:0|3:0,0:0:0:0:
460,125,129405,2,0,L|446:64,1,45,0|8,3:0|3:0,0:0:0:0:
377,160,129625,5,8,3:0:0:0:
401,192,129736,1,8,3:0:0:0:
377,213,129846,1,4,3:0:0:0:
386,242,129956,1,2,3:2:0:0:
380,263,130066,5,6,0:0:0:0:
380,263,130508,6,0,B|420:241|420:241|475:253,1,90,10|0,0:0|0:0,0:0:0:0:
472,340,130839,2,0,B|432:362|432:362|377:350,1,90,10|0,0:0|0:0,0:0:0:0:
277,296,131169,6,0,P|267:252|289:212,1,90,6|8,0:0|0:0,0:0:0:0:
442,135,131500,2,0,P|464:175|452:230,1,90,6|8,0:0|0:0,0:0:0:0:
390,272,131831,6,0,L|326:258,1,45,8|8,3:0|0:0,0:0:0:0:
216,194,132052,2,0,L|274:184,1,45,0|0,3:0|3:0,0:0:0:0:
346,124,132272,1,8,0:0:0:0:
356,122,132383,1,8,3:2:0:0:
252,311,132603,5,8,0:0:0:0:
242,308,132714,2,0,L|232:366,1,45,8|8,3:0|3:0,0:0:0:0:
180,213,132934,6,0,L|159:312,1,90,6|8,0:0|0:0,0:0:0:0:
63,175,133265,2,0,L|81:263,1,90,6|0,0:0|0:0,0:0:0:0:
123,362,133596,6,0,L|139:310,1,45,4|2,3:0|0:0,0:0:0:0:
202,237,133816,2,0,L|215:193,1,45,0|0,3:0|3:0,0:0:0:0:
164,103,134037,1,8,0:0:0:0:
159,88,134147,1,8,3:2:0:0:
361,21,134368,5,8,0:0:0:0:
357,36,134478,2,0,P|330:27|301:22,1,45,0|8,3:0|0:0,0:0:0:0:
271,119,134699,6,0,P|298:110|327:105,1,45,10|0,0:0|0:0,0:0:0:0:
446,162,134919,1,8,0:0:0:0:
354,191,135030,6,0,P|396:182|453:173,1,90,8|0,3:0|0:0,0:0:0:0:
499,92,135361,6,0,L|431:75,1,67.5000025749208,2|0,3:0|0:0,0:0:0:0:
499,242,135691,2,0,L|426:259,1,67.5000025749208,2|0,3:0|0:0,0:0:0:0:
354,191,136022,6,0,L|284:174,1,67.5000025749208,2|0,3:0|0:0,0:0:0:0:
354,341,136353,2,0,L|281:358,1,67.5000025749208,2|0,3:0|0:0,0:0:0:0:
302,270,136684,6,0,B|195:241|220:333|111:302,1,202.500007724762,2|0,0:1|0:0,0:0:0:0:
34,259,137125,1,4,0:0:0:0:
80,178,137566,5,2,3:0:0:0:
15,127,137787,1,0,0:0:0:0:
10,137,138008,2,0,P|76:164|139:128,1,135.000005149842,2|0,3:0|0:0,0:0:0:0:
194,73,138669,1,0,0:0:0:0:
268,133,138890,6,0,B|355:134|319:175|404:171,1,135.000005149842,2|0,3:0|0:0,0:0:0:0:
492,97,139552,1,2,0:0:0:0:
485,100,139772,2,0,L|469:245,1,135.000005149842,4|0,0:3|0:0,0:0:0:0:
512,305,140434,1,2,3:0:0:0:
284,374,140655,6,0,P|270:314|302:276,1,101.250003862381,2|0,3:0|0:0,0:0:0:0:
375,257,141096,2,0,P|369:290|365:339,1,67.5000025749208,2|0,3:0|0:0,0:0:0:0:
235,224,141537,2,0,P|241:193|250:142,1,67.5000025749208,2|0,3:0|0:0,0:0:0:0:
290,283,141978,1,2,3:0:0:0:
197,346,142199,1,2,3:0:0:0:
185,345,142309,1,2,3:0:0:0:
173,344,142419,5,0,0:0:0:0:
107,286,142640,1,0,0:0:0:0:
170,225,142861,1,2,3:0:0:0:
105,166,143081,1,0,0:0:0:0:
174,107,143302,6,0,P|208:112|248:119,1,67.5000025749208,2|0,0:0|0:0,0:0:0:0:
68,52,143743,2,0,P|34:57|-6:64,1,67.5000025749208,2|0,3:2|0:0,0:0:0:0:
12,212,144184,6,0,B|71:225|87:179|143:192,1,135.000005149842,2|2,3:2|3:0,0:0:0:0:
303,98,144846,1,2,0:0:0:0:
299,90,145066,2,0,P|219:78|172:139,1,135.000005149842,2|0,3:0|0:0,0:0:0:0:
301,244,145728,1,0,0:0:0:0:
301,244,145838,1,0,0:0:0:0:
301,244,145949,6,0,B|351:250|389:258|389:258|434:220,1,135.000005149842,2|2,0:0|3:0,0:0:0:0:
360,156,146611,1,2,0:0:0:0:
222,245,146831,1,4,0:0:0:0:
227,250,147052,2,0,P|170:274|96:234,1,135.000005149842,2|0,0:0|0:0,0:0:0:0:
92,234,147603,1,0,0:0:0:0:
76,223,147713,6,0,L|87:317,1,67.5000025749208,2|0,3:0|0:0,0:0:0:0:
205,384,148155,2,0,P|224:345|173:246,1,135.000005149842,2|2,0:0|3:0,0:0:0:0:
135,202,148816,1,0,0:0:0:0:
206,124,149037,1,2,3:0:0:0:
118,42,149258,1,0,0:0:0:0:
118,42,149368,1,0,0:0:0:0:
117,42,149478,6,0,P|184:63|252:29,1,135.000005149842,2|0,3:0|0:0,0:0:0:0:
342,102,150140,1,2,0:0:0:0:
274,196,150361,1,2,3:0:0:0:
371,288,150581,5,8,0:0:0:0:
176,208,150802,1,8,3:0:0:0:
368,100,151022,1,0,3:0:0:0:
241,54,151243,6,0,L|251:131,1,76.5000014591217,4|2,0:0|0:0,0:0:0:0:
330,187,151574,2,0,L|349:103,1,76.5000014591217,0|0,3:0|0:0,0:0:0:0:
420,47,151905,1,0,3:0:0:0:
424,51,152125,6,0,P|459:91|453:147,1,107.999996704102,8|2,0:0|0:0,0:0:0:0:
358,210,152787,1,0,3:0:0:0:
412,279,153008,6,0,P|375:284|335:297,1,76.5000014591217,4|0,3:0|0:0,0:0:0:0:
455,142,153449,2,0,P|418:137|378:124,1,76.5000014591217,0|2,3:0|0:0,0:0:0:0:
266,347,153890,6,0,B|237:302|237:302|264:252,1,107.999996704102,8|2,0:0|0:0,0:0:0:0:
307,188,154552,1,0,3:0:0:0:
184,363,154772,6,0,P|146:361|112:343,1,76.5000014591217,4|0,3:0|0:0,0:0:0:0:
35,320,155103,2,0,P|73:318|107:300,1,76.5000014591217,0|0,3:0|0:0,0:0:0:0:
178,237,155434,1,2,3:2:0:0:
175,232,155655,6,0,P|120:222|55:209,1,107.999996704102,8|0,0:0|0:0,0:0:0:0:
13,156,156316,1,0,3:0:0:0:
121,46,156537,2,0,P|158:109|137:156,2,114.750002188683,0|2|2,3:0|3:2|3:2,0:0:0:0:
259,148,157419,6,0,L|328:137,1,66.0000020141602,10|2,0:0|0:0,0:0:0:0:
346,153,157640,2,0,L|355:102,2,33.0000010070801,2|2|2,0:0|0:0|0:0,0:0:0:0:
335,234,157861,5,2,0:0:0:0:
334,240,158081,1,0,3:1:0:0:
399,328,158302,6,0,P|334:323|281:367,1,135.000005149842,0|2,3:0|0:0,0:0:0:0:
180,289,158963,1,0,3:0:0:0:
248,146,159184,2,0,L|260:218,1,67.5000025749208,8|2,0:0|0:0,0:0:0:0:
178,211,159515,5,2,0:0:0:0:
173,205,159625,2,0,L|162:149,1,33.7500012874604,2|2,0:0|0:0,0:0:0:0:
324,105,159846,2,0,L|330:140,1,33.7500012874604,2|0,3:2|0:0,0:0:0:0:
259,212,160066,5,2,3:2:0:0:
253,179,160177,1,2,0:0:0:0:
248,146,160287,1,2,0:0:0:0:
339,81,160508,6,0,L|349:147,1,67.5000025749208,0|8,0:0|3:0,0:0:0:0:
153,222,160949,2,0,L|143:156,1,67.5000025749208,8|0,0:0|0:0,0:0:0:0:
132,80,161280,1,8,0:0:0:0:
134,71,161390,5,2,0:0:0:0:
227,118,161611,2,0,L|276:107,1,33.7500012874604,0|2,3:0|0:0,0:0:0:0:
139,238,161831,2,0,P|89:228|33:218,1,101.250003862381,4|8,3:0|3:0,0:0:0:0:
32,225,162272,5,2,0:0:0:0:
173,379,162493,1,8,0:0:0:0:
103,315,162713,5,0,3:0:0:0:
131,299,162824,1,8,3:0:0:0:
162,290,162934,1,8,0:2:0:0:
194,291,163044,1,8,0:2:0:0:
224,306,163155,1,8,0:0:0:0:
247,328,163265,1,8,3:0:0:0:
265,354,163375,2,0,L|279:303,1,40.4999987640381,2|0,3:2|0:0,0:0:0:0:
373,200,163596,6,0,P|419:261|401:305,1,121.499996292114,12|0,0:0|3:0,0:0:0:0:
355,359,164037,1,8,3:0:0:0:
500,298,164258,6,0,B|444:310|444:310|412:350|412:350|356:363,1,161.999995056153,14|8,0:0|0:0,0:0:0:0:
253,278,164699,6,0,L|311:289,1,53.9999983520508,8|8,3:3|3:3,0:0:0:0:
398,176,164919,6,0,P|373:186|332:191,1,62.9999980773926,2|8,0:2|3:0,0:0:0:0:
235,59,165140,2,0,P|205:47|174:44,1,62.9999980773926,2|2,0:0|0:0,0:0:0:0:
34,108,165361,5,8,3:2:0:0:
206,178,166022,6,0,L|246:166,2,26.9999991760254,0|8|0,0:0|3:0|3:0,0:0:0:0:
142,119,166243,5,8,0:0:0:0:
183,93,166353,1,8,0:0:0:0:
231,85,166463,1,8,0:0:0:0:
280,96,166574,1,8,0:0:0:0:
350,177,166684,5,8,1:0:0:0:
340,169,166794,2,0,B|276:156|289:200|222:186,1,116.999994644165,8|0,1:0|0:0,0:0:0:0:
142,119,167125,6,0,P|86:196|101:256,1,161.999995056153,4|0,0:0|3:0,0:0:0:0:
24,359,167566,2,0,P|68:339|119:344,1,90,8|2,0:0|0:0,0:0:0:0:
260,379,167897,5,8,3:0:0:0:
250,370,168008,2,0,L|259:304,1,45,2|0,0:0|3:0,0:0:0:0:
167,223,168228,2,0,L|171:267,1,45,2|0,0:0|3:0,0:0:0:0:
350,347,168449,6,0,P|398:361|434:335,1,90,8|0,0:0|0:0,0:0:0:0:
292,282,168764,1,2,0:0:0:0:
281,272,168874,6,0,B|208:282|245:328|160:341,1,135,4|0,3:0|0:0,0:0:0:0:
102,299,169315,1,8,0:0:0:0:
220,175,169536,5,2,0:0:0:0:
149,127,169646,1,0,3:0:0:0:
227,99,169756,2,0,P|222:142|207:186,1,90,2|0,0:0|3:0,0:0:0:0:
355,376,170197,2,0,P|340:333|335:288,1,90,8|0,0:0|0:0,0:0:0:0:
402,228,170528,1,2,0:0:0:0:
356,155,170639,6,0,P|346:215|330:316,1,135,4|0,3:0|0:0,0:0:0:0:
384,351,171080,1,8,0:0:0:0:
125,213,171300,1,0,0:0:0:0:
118,219,171411,1,8,0:0:0:0:
112,226,171521,2,0,L|43:240,2,45,2|8|0,0:0|3:0|3:0,0:0:0:0:
271,122,171962,6,0,P|286:84|256:33,1,90,8|2,0:0|0:0,0:0:0:0:
245,38,172293,1,8,0:0:0:0:
201,173,172403,5,6,0:0:0:0:
404,109,172624,1,0,3:0:0:0:
145,7,172845,1,10,0:0:0:0:
31,193,173065,5,0,0:0:0:0:
29,205,173175,1,8,0:0:0:0:
27,218,173286,2,0,P|71:189|125:196,1,90,2|0,0:0|3:0,0:0:0:0:
287,301,173727,2,0,P|265:290|232:289,1,45,8|0,0:0|3:0,0:0:0:0:
153,332,173947,1,8,0:0:0:0:
141,355,174058,1,8,0:0:0:0:
153,376,174168,6,0,P|144:310|135:243,1,135,4|0,0:0|0:0,0:0:0:0:
70,198,174609,1,8,0:0:0:0:
262,31,174830,5,2,0:0:0:0:
244,36,174940,2,0,P|235:81|228:125,1,90,8|8,0:0|0:0,0:0:0:0:
250,145,175271,1,0,3:0:0:0:
44,36,175492,1,8,0:0:0:0:
369,99,175712,5,0,0:0:0:0:
369,99,175822,1,8,0:0:0:0:
369,99,175933,6,0,P|403:141|382:249,1,135,4|0,0:0|3:0,0:0:0:0:
336,273,176374,1,8,0:0:0:0:
249,147,176595,6,0,P|253:125|259:103,1,45,2|8,0:0|0:0,0:0:0:0:
151,1,176815,2,0,L|168:98,1,90,0|0,3:0|3:0,0:0:0:0:
34,218,177256,2,0,P|22:169|56:125,1,90,8|0,0:0|0:0,0:0:0:0:
195,292,177587,1,8,0:0:0:0:
183,285,177697,6,0,B|112:294|150:339|59:358,1,135,4|0,3:0|3:0,0:0:0:0:
9,312,178139,1,8,0:0:0:0:
271,236,178359,5,2,0:0:0:0:
311,242,178470,1,0,3:0:0:0:
350,248,178580,1,0,0:0:0:0:
389,253,178690,1,8,3:0:0:0:
428,259,178800,1,0,3:0:0:0:
232,124,179021,6,0,P|189:134|145:143,1,90,10|0,0:0|0:0,0:0:0:0:
135,163,179352,1,8,0:0:0:0:
18,218,179462,2,0,P|6:169|44:134,1,90,6|8,0:0|3:0,0:0:0:0:
181,270,179902,1,8,0:0:0:0:
56,361,180123,5,8,3:0:0:0:
253,148,180344,1,8,3:0:0:0:
249,129,180454,1,8,3:0:0:0:
184,86,180564,5,2,3:2:0:0:
191,56,180674,1,8,0:0:0:0:
266,14,180785,5,8,1:0:0:0:
313,1,180895,1,8,1:0:0:0:
357,22,181005,1,0,3:0:0:0:
376,67,181116,1,8,3:0:0:0:
323,133,181227,6,0,P|256:120|190:109,1,135,4|0,0:0|3:0,0:0:0:0:
111,173,181668,2,0,B|85:213|85:213|106:259,1,90,10|2,0:0|0:0,0:0:0:0:
170,346,181999,1,0,3:0:0:0:
185,323,182109,1,2,0:0:0:0:
187,295,182220,1,8,0:0:0:0:
108,253,182330,6,0,L|44:266,1,45,8|0,3:0|0:0,0:0:0:0:
224,125,182550,2,0,L|131:110,1,90,8|2,0:0|0:0,0:0:0:0:
68,41,182881,1,8,0:0:0:0:
57,47,182992,6,0,P|30:82|43:125,1,90,4|0,3:0|3:0,0:0:0:0:
241,213,183433,2,0,P|284:205|331:199,1,90,8|0,0:0|0:0,0:0:0:0:
344,184,183764,1,8,3:0:0:0:
373,67,183874,6,0,L|361:120,1,45,2|8,0:0|0:0,0:0:0:0:
470,266,184094,2,0,L|483:213,1,45,0|0,3:0|0:0,0:0:0:0:
314,286,184315,2,0,B|294:327|294:327|315:370,1,90,8|0,0:0|0:0,0:0:0:0:
337,384,184646,1,8,0:0:0:0:
433,325,184756,6,0,L|457:228,1,90,6|0,0:0|3:0,0:0:0:0:
352,35,185197,2,0,L|330:122,1,90,8|2,0:0|0:0,0:0:0:0:
341,143,185528,1,0,3:0:0:0:
250,61,185639,6,0,P|221:68|187:73,1,58.4999973220826,0|8,0:0|0:0,0:0:0:0:
76,177,185859,2,0,P|105:184|139:195,1,58.4999973220826,2|0,3:2|0:0,0:0:0:0:
364,284,186080,6,0,P|307:279|256:317,1,116.999994644165,8|0,0:0|0:0,0:0:0:0:
178,384,186411,1,8,0:0:0:0:
141,228,186521,5,6,0:2:0:0:
149,242,186631,2,0,P|142:270|131:305,1,58.4999973220826,2|8,0:0|0:0,0:0:0:0:
347,168,186852,2,0,P|356:225|363:283,1,116.999994644165,6|0,0:0|0:0,0:0:0:0:
235,184,187183,6,0,P|230:133|275:98,1,101.250003862381,6|8,0:0|0:0,0:0:0:0:
255,13,187624,6,0,P|282:21|311:26,1,58.4999973220826,12|8,3:0|0:0,0:0:0:0:
472,145,187845,1,8,0:0:0:0:
404,125,187955,1,8,0:0:0:0:
334,131,188065,1,8,0:0:0:0:
275,169,188175,1,8,0:0:0:0:
231,229,188286,6,0,P|153:259|104:233,1,135,4|0,0:0|3:0,0:0:0:0:
34,166,188727,1,8,0:0:0:0:
133,377,188947,5,2,0:0:0:0:
138,359,189058,1,8,3:0:0:0:
145,342,189168,2,0,L|84:358,2,45,2|8|0,0:0|0:0|3:0,0:0:0:0:
348,165,189609,6,0,B|370:207|370:207|356:256,1,90,8|0,0:0|0:0,0:0:0:0:
266,330,189940,1,8,0:0:0:0:
287,317,190050,2,0,P|329:322|381:345,1,90,4|0,3:0|3:0,0:0:0:0:
463,219,190381,5,2,0:0:0:0:
449,227,190492,2,0,P|444:251|439:281,1,45,8|0,0:0|0:0,0:0:0:0:
322,87,190712,2,0,P|328:132|336:178,1,90,2|0,0:0|3:0,0:0:0:0:
424,112,191043,5,8,0:0:0:0:
296,240,191153,2,0,P|304:219|311:178,1,45,8|0,3:0|0:0,0:0:0:0:
144,50,191374,6,0,P|81:74|77:136,1,135,12|0,0:0|0:0,0:0:0:0:
141,221,191815,5,4,3:0:0:0:
151,206,191925,1,0,3:0:0:0:
155,188,192036,1,8,3:0:0:0:
228,377,192256,1,10,0:0:0:0:
354,130,192477,5,2,0:0:0:0:
346,146,192587,1,8,3:0:0:0:
340,162,192697,2,0,P|345:184|354:219,1,45,2|8,0:0|0:0,0:0:0:0:
258,62,192918,2,0,P|263:40|272:5,1,45,2|0,0:0|0:0,0:0:0:0:
122,200,193139,6,0,P|80:212|32:219,1,90,8|0,0:0|3:0,0:0:0:0:
12,207,193470,1,8,3:0:0:0:
55,346,193580,6,0,P|62:322|76:295,1,45,14|10,0:0|0:0,0:0:0:0:
194,146,193800,2,0,P|201:170|215:197,1,45,10|2,0:0|0:0,0:0:0:0:
308,312,194021,5,12,0:0:0:0:
458,242,194242,5,8,0:0:0:0:
482,338,194352,1,12,0:0:0:0:
300,206,194572,5,8,0:0:0:0:
324,110,194683,2,0,L|264:122,1,45,8|8,3:0|3:0,0:0:0:0:
120,266,194903,5,8,1:0:0:0:
198,332,195014,2,0,B|225:292|225:292|209:215,1,116.999994644165,8|2,1:0|0:0,0:0:0:0:
199,204,195344,6,0,P|250:215|300:229,1,103.500001974106,4|8,0:0|3:0,0:0:0:0:
415,130,195675,2,0,P|364:142|313:150,1,103.500001974106,2|0,0:0|0:0,0:0:0:0:
225,61,196006,2,0,P|233:93|244:139,1,51.7500009870529,0|8,3:0|0:0,0:0:0:0:
387,227,196226,6,0,P|432:250|500:236,1,103.500001974106,2|4,0:0|3:0,0:0:0:0:
504,115,196557,2,0,P|459:92|391:106,1,103.500001974106,2|0,0:0|0:0,0:0:0:0:
291,180,196888,2,0,P|295:208|300:247,1,51.7500009870529,0|8,3:0|0:0,0:0:0:0:
75,327,197109,6,0,P|170:313|198:309,1,103.500001974106,4|0,0:0|3:0,0:0:0:0:
298,231,197440,2,0,P|257:198|188:218,1,103.500001974106,2|0,0:0|0:0,0:0:0:0:
99,158,197771,2,0,P|106:187|110:208,1,51.7500009870529,2|8,0:0|0:0,0:0:0:0:
302,366,197991,5,0,3:0:0:0:
322,350,198101,1,8,0:0:0:0:
322,324,198212,2,0,P|317:297|308:264,1,51.7500009870529,2|0,0:0|3:0,0:0:0:0:
242,212,198432,5,8,0:0:0:0:
392,271,198543,2,0,P|444:262|509:253,1,103.500001974106,2|8,0:0|3:0,0:0:0:0:
512,169,198873,6,0,P|456:146|395:191,1,103.500001974106,4|8,0:0|0:0,0:0:0:0:
311,273,199204,2,0,P|295:220|324:170,1,103.500001974106,0|8,3:0|3:0,0:0:0:0:
420,273,199535,2,0,L|405:343,1,51.7500009870529,2|8,0:0|0:0,0:0:0:0:
300,372,199756,6,0,P|248:365|197:360,1,103.500001974106,2|4,0:0|0:0,0:0:0:0:
81,345,200087,2,0,P|138:339|192:335,1,103.500001974106,2|0,0:0|0:0,0:0:0:0:
245,261,200418,2,0,P|248:238|238:210,1,51.7500009870529,2|8,0:0|0:0,0:0:0:0:
154,71,200638,6,0,P|107:129|127:201,1,155.250002961159,4|0,0:0|3:0,0:0:0:0:
153,196,201079,1,8,0:0:0:0:
11,355,201300,1,0,3:0:0:0:
0,331,201410,1,8,0:0:0:0:
12,307,201521,1,2,0:0:0:0:
147,254,201741,6,0,P|197:238|255:273,1,103.500001974106,0|8,3:0|0:0,0:0:0:0:
344,192,202072,1,8,3:0:0:0:
315,193,202182,2,0,P|322:222|331:251,1,51.7500009870529,2|0,3:2|0:0,0:0:0:0:
452,344,202403,6,0,P|474:295|449:248,1,103.500001974106,4|0,0:0|3:0,0:0:0:0:
340,140,202734,2,0,B|325:262,1,103.500001974106,2|0,0:0|0:0,0:0:0:0:
236,313,203065,2,0,P|227:281|230:253,1,51.7500009870529,0|8,0:0|0:0,0:0:0:0:
128,200,203285,6,0,P|70:196|23:235,1,103.500001974106,2|4,0:0|0:0,0:0:0:0:
53,345,203616,2,0,P|111:349|158:310,1,103.500001974106,2|0,0:0|3:0,0:0:0:0:
283,267,203947,2,0,P|257:260|231:252,1,51.7500009870529,2|8,0:0|0:0,0:0:0:0:
398,372,204168,6,0,P|415:321|384:266,1,103.500001974106,4|0,0:0|3:0,0:0:0:0:
310,242,204498,1,8,3:0:0:0:
317,259,204609,1,8,0:0:0:0:
384,45,204829,6,0,B|361:106|404:145|383:198,1,155.250002961159,2|0,0:0|0:0,0:0:0:0:
317,259,205271,1,6,0:0:0:0:
512,154,205491,1,8,0:0:0:0:
269,35,205712,1,2,0:0:0:0:
238,133,205822,1,8,0:0:0:0:
253,30,205932,6,0,P|226:57|243:133,1,103.500001974106,4|8,0:0|0:0,0:0:0:0:
330,207,206263,1,8,3:0:0:0:
342,218,206373,2,0,P|392:209|443:200,1,103.500001974106,8|2,0:0|0:0,0:0:0:0:
501,370,206704,6,0,P|450:362|392:353,1,103.500001974106,8|8,0:0|3:0,0:0:0:0:
314,332,207035,2,0,P|345:328|377:323,1,51.7500009870529,2|0,3:2|3:2,3:2:0:0:
211,351,207256,5,12,0:2:0:0:
170,285,207366,1,8,3:0:0:0:
174,207,207476,1,0,3:0:0:0:
223,146,207587,1,8,3:0:0:0:
299,82,207697,5,12,0:0:0:0:
308,164,207807,1,8,3:0:0:0:
318,246,207918,1,0,3:0:0:0:
308,261,208028,1,8,3:0:0:0:
404,268,208138,6,0,B|409:242|409:242|400:209,1,51.7500009870529,4|8,3:0|3:0,0:0:0:0:
245,320,208359,2,0,B|240:346|240:346|249:379,1,51.7500009870529,2|0,0:0|3:0,0:0:0:0:
361,371,208579,6,0,B|410:372|455:377|455:377|486:358|469:321,1,155.250002961159,2|0,0:0|0:0,0:0:0:0:
413,246,209021,6,0,P|406:274|401:305,1,51.7500009870529,12|0,0:0|0:0,0:0:0:0:
307,160,209241,1,0,0:0:0:0:
456,26,209462,5,6,0:0:0:0:
411,165,209682,1,2,0:0:0:0:
296,324,209903,5,12,0:0:0:0:
259,76,210123,1,2,0:0:0:0:
187,42,210234,1,8,3:0:0:0:
119,81,210344,6,0,P|113:107|109:132,1,51.7500009870529,8|0,3:0|0:0,0:0:0:0:
186,238,210565,2,0,P|183:193|161:168,1,51.7500009870529,2|0,3:2|0:0,0:0:0:0:
17,315,210785,5,2,0:0:0:0:
48,312,210896,1,2,3:2:0:0:
78,309,211006,1,2,0:0:0:0:
108,306,211116,1,2,0:0:0:0:
178,359,211226,6,0,B|136:212|234:275|185:120,1,247.5,6|0,0:0|0:0,0:0:0:0:
128,58,212550,5,8,0:1:0:0:
117,51,212660,2,0,P|74:102|101:171,1,135,8|4,1:0|0:0,0:0:0:0:
8,274,213653,6,0,L|74:261,1,62.9999980773926,2|0,0:0|0:0,0:0:0:0:
77,252,214094,1,0,0:0:0:0:
175,207,214315,2,0,L|241:220,1,62.9999980773926
316,323,214756,1,2,0:0:0:0:
303,314,215197,5,0,0:0:0:0:
397,250,215418,1,2,0:0:0:0:
333,188,215638,5,0,0:0:0:0:
390,138,215859,5,0,0:0:0:0:
367,99,216079,5,0,0:0:0:0:
382,68,216300,5,0,0:0:0:0:
375,50,216521,5,2,0:0:0:0:
288,118,216962,5,2,0:0:0:0:
288,118,217182,2,0,P|256:110|223:107,1,62.9999980773926
158,68,217623,1,0,0:0:0:0:
63,198,217844,2,0,P|95:190|128:187,1,62.9999980773926,2|0,0:0|0:0,0:0:0:0:
232,288,218285,1,2,0:0:0:0:
224,302,218726,5,0,0:0:0:0:
278,200,218947,1,2,0:0:0:0:
328,360,219168,5,0,0:0:0:0:
240,300,219388,5,0,0:0:0:0:
160,280,219609,5,0,0:0:0:0:
84,304,219829,5,0,0:0:0:0:
55,325,220050,5,2,0:0:0:0:
149,243,220491,5,2,0:0:0:0:
149,243,220712,2,0,L|81:226,1,62.9999980773926,2|0,0:0|0:0,0:0:0:0:
33,170,221153,1,0,0:0:0:0:
206,89,221373,2,0,P|197:118|190:150,1,62.9999980773926,2|0,0:0|0:0,0:0:0:0:
99,46,221815,1,2,0:0:0:0:
104,59,222256,5,0,0:0:0:0:
190,149,222476,1,2,0:0:0:0:
283,57,222697,5,0,0:0:0:0:
300,210,222918,5,0,0:0:0:0:
368,112,223138,5,2,0:0:0:0:
386,189,223359,5,2,0:0:0:0:
425,163,223579,5,2,0:0:0:0:
425,163,224021,2,0,L|409:229,1,62.9999980773926
354,39,224462,6,0,P|322:33|288:23,1,62.9999980773926,2|0,0:0|0:0,0:0:0:0:
220,145,224903,2,0,P|250:136|281:130,1,62.9999980773926
154,67,225344,2,0,P|101:116|111:169,1,125.999996154785,2|0,0:0|0:0,0:0:0:0:
227,253,226006,6,0,B|142:242|155:323|53:309,1,180,8|2,3:0|0:0,0:0:0:0:
0,261,226998,1,2,0:0:0:0:
11,254,227109,6,0,P|49:260|91:278,1,80.9999975280763,4|2,0:0|0:0,0:0:0:0:
155,365,227440,1,0,3:0:0:0:
151,359,227550,2,0,L|174:293,1,40.4999987640381,2|0,0:0|0:0,0:0:0:0:
252,226,227771,2,0,L|264:283,1,40.4999987640381,2|0,0:0|0:0,0:0:0:0:
128,169,227991,2,0,P|139:129|151:83,1,80.9999975280763,8|2,0:0|0:0,0:0:0:0:
29,145,228432,5,0,3:0:0:0:
263,56,228653,1,0,3:0:0:0:
282,49,228763,1,0,0:0:0:0:
301,43,228873,2,0,B|320:77|320:77|307:116,1,80.9999975280763,4|0,3:0|0:0,0:0:0:0:
172,81,229315,5,0,0:0:0:0:
288,217,229535,2,0,B|275:178|275:178|294:143,1,80.9999975280763,2|8,0:0|0:0,0:0:0:0:
173,291,229976,2,0,B|79:288|118:350|8:348,1,161.999995056153,2|0,0:0|3:0,0:0:0:0:
152,205,230638,6,0,P|216:216|279:226,1,121.499996292114,0|4,3:0|3:0,0:0:0:0:
321,289,231079,1,2,0:0:0:0:
406,142,231300,1,2,0:0:0:0:
260,47,231521,6,0,B|300:57|300:57|341:36,1,80.9999975280763,10|0,0:0|0:0,0:0:0:0:
490,157,231962,2,0,B|454:138|454:138|414:148,1,80.9999975280763,2|12,0:0|3:0,0:0:0:0:
268,211,232403,1,0,3:0:0:0:
414,148,232623,6,0,L|393:227,1,80.9999975280763,4|0,3:0|0:0,0:0:0:0:
309,110,233065,1,0,3:0:0:0:
475,266,233285,6,0,P|398:258|342:321,1,161.999995056153,8|0,0:0|3:0,0:0:0:0:
468,360,233947,2,0,L|416:349,1,40.4999987640381,0|0,3:0|3:0,0:0:0:0:
280,252,234142,6,0,P|255:282|256:334,1,80.9999975280763,4|0,0:0|0:0,0:0:0:0:
312,384,234472,1,2,0:0:0:0:
312,384,234583,1,0,3:0:0:0:
171,255,234803,1,8,3:0:0:0:
120,361,235024,5,8,0:0:0:0:
274,223,235244,1,0,0:0:0:0:
266,204,235354,1,0,0:0:0:0:
258,185,235465,2,0,P|254:225|239:281,1,80.9999975280763,2|0,0:0|3:0,0:0:0:0:
14,159,235932,6,0,P|63:125|122:137,1,121.499996292114,4|0,0:0|3:0,0:0:0:0:
227,35,236373,2,0,L|215:75,1,40.4999987640381,2|8,0:0|0:0,0:0:0:0:
293,175,236593,1,4,3:0:0:0:
296,172,236703,1,0,3:0:0:0:
299,169,236814,2,0,L|288:115,1,40.4999987640381,8|0,0:0|0:0,0:0:0:0:
112,223,237034,6,0,L|98:278,1,49.5000015106202,2|0,0:0|3:0,0:0:0:0:
155,368,237255,1,2,0:0:0:0:
192,344,237365,1,0,0:0:0:0:
235,338,237475,1,8,3:0:0:0:
277,352,237586,1,0,3:0:0:0:
303,378,237696,6,0,P|361:370|438:357,1,121.499996292114,4|0,0:0|3:0,0:0:0:0:
485,308,238137,2,0,P|487:285|496:252,1,40.4999987640381,2|8,0:0|0:0,0:0:0:0:
327,189,238358,2,0,P|324:209|320:228,1,40.4999987640381,8|0,3:0|0:0,0:0:0:0:
398,284,238579,6,0,B|426:220|391:237|421:166,1,121.499996292114,8|8,0:0|3:0,0:0:0:0:
485,102,239020,1,2,0:0:0:0:
456,79,239130,1,2,0:0:0:0:
419,74,239240,1,2,0:0:0:0:
384,86,239350,1,2,0:0:0:0:
357,110,239461,6,0,L|373:198,1,80.9999975280763,4|0,3:0|0:0,0:0:0:0:
266,124,239792,2,0,L|275:85,1,40.4999987640381,2|0,0:0|3:0,0:0:0:0:
167,179,240012,1,0,3:0:0:0:
172,191,240122,1,8,3:0:0:0:
66,225,240343,6,0,B|110:212|110:212|151:225|151:225|203:208,1,135,10|0,0:0|3:0,0:0:0:0:
275,318,241226,6,0,B|229:281|229:281|164:302,1,121.499996292114,4|0,0:0|0:0,0:0:0:0:
152,319,241667,1,0,0:0:0:0:
208,193,241886,1,2,0:0:0:0:
223,384,242107,5,8,3:0:0:0:
295,145,242329,1,0,3:0:0:0:
341,224,242548,5,0,3:0:0:0:
317,312,242769,1,0,0:0:0:0:
474,87,242990,6,0,B|390:61|411:141|306:114,1,161.999995056153,4|0,0:0|0:0,0:0:0:0:
247,60,243653,5,2,0:0:0:0:
395,164,243873,1,8,3:0:0:0:
321,117,244094,5,0,3:0:0:0:
395,164,244315,1,0,3:0:0:0:
327,231,244535,1,0,0:0:0:0:
476,286,244755,6,0,P|401:308|342:257,1,161.999995056153,4|0,0:0|0:0,0:0:0:0:
265,54,245418,6,0,L|274:16,2,26.9999991760254,2|0|0,3:2|3:0|0:0,0:0:0:0:
242,138,245638,5,8,3:0:0:0:
165,197,245785,1,8,3:0:0:0:
254,234,245932,1,0,3:0:0:0:
212,329,246078,5,8,3:0:0:0:
235,260,246226,1,0,3:0:0:0:
164,274,246373,1,0,3:0:0:0:
207,293,246520,6,0,B|325:268|282:368|399:339,1,202.500007724762,4|0,0:0|0:0,0:0:0:0:
488,216,247402,6,0,P|428:256|355:234,1,135.000005149842,2|2,0:0|0:0,0:0:0:0:
271,117,248064,1,2,3:2:0:0:
271,117,248174,1,2,3:2:0:0:
271,117,248284,6,0,P|262:183|254:250,1,135.000005149842,2|0,0:0|0:0,0:0:0:0:
177,216,248946,1,2,0:0:0:0:
107,262,249167,2,0,P|101:227|94:189,1,67.5000025749208,0|2,0:0|0:0,0:0:0:0:
196,293,249608,2,0,P|191:326|186:365,1,67.5000025749208
211,382,249939,1,0,0:0:0:0:
211,382,250049,6,0,P|265:345|352:375,1,135.000005149842
495,270,250711,1,2,0:0:0:0:
401,242,250932,2,0,P|407:275|415:316,1,67.5000025749208,0|2,0:0|0:0,0:0:0:0:
484,176,251373,1,0,0:0:0:0:
364,128,251593,1,0,0:0:0:0:
364,128,251704,1,0,0:0:0:0:
364,128,251814,6,0,B|288:119|303:167|239:163,1,135.000005149842,2|0,0:0|0:0,0:0:0:0:
169,121,252476,1,2,0:0:0:0:
99,164,252696,2,0,L|110:230,1,67.5000025749208
239,327,253137,2,0,P|250:296|235:249,1,67.5000025749208,2|0,0:0|0:0,0:0:0:0:
183,220,253468,1,0,0:0:0:0:
183,220,253579,6,0,L|160:379,1,135.000005149842,2|0,0:0|0:0,0:0:0:0:
255,316,254240,1,2,0:0:0:0:
255,316,254461,2,0,P|297:327|324:334,1,67.5000025749208,8|0,3:0|0:0,0:0:0:0:
84,265,254902,2,0,P|42:276|15:283,1,67.5000025749208
177,183,255233,5,2,0:0:0:0:
164,196,255343,2,0,P|210:220|280:171,1,135,2|2,0:0|0:0,0:0:0:0:
340,126,256446,5,0,0:0:0:0:
383,201,256667,1,0,0:0:0:0:
325,288,256887,1,0,0:0:0:0:
325,288,256998,1,0,0:0:0:0:
325,288,257108,6,0,P|396:262|454:286,1,135.000005149842,2|0,0:0|0:0,0:0:0:0:
505,217,257770,1,2,0:0:0:0:
445,159,257990,2,0,P|450:126|457:92,1,67.5000025749208,0|0,3:0|0:0,0:0:0:0:
358,231,258432,2,0,P|365:264|370:297,1,67.5000025749208,2|0,0:0|0:0,0:0:0:0:
197,373,258873,6,0,P|181:317|232:246,1,135.000005149842,2|0,0:0|0:0,0:0:0:0:
284,201,259534,1,2,0:0:0:0:
207,150,259755,1,0,3:0:0:0:
312,95,259976,1,0,0:0:0:0:
226,0,260196,2,0,P|230:33|235:66,1,67.5000025749208,2|0,0:0|0:0,0:0:0:0:
356,347,260637,5,12,0:0:0:0:
405,268,260748,1,10,0:0:0:0:
318,183,260858,1,8,0:0:0:0:
156,347,261299,5,12,0:0:0:0:
107,268,261410,1,10,0:0:0:0:
194,183,261520,1,8,0:0:0:0:
125,124,261740,5,2,0:0:0:0:
265,256,261961,1,8,1:0:0:0:
315,252,262071,1,8,1:0:0:0:
365,249,262182,1,2,0:0:0:0:
415,246,262292,1,2,0:0:0:0:
465,241,262402,6,0,B|408:214|408:214|401:267|387:328,1,175.499991966248,4|0,0:0|0:0,0:0:0:0:
285,384,262843,2,0,P|267:344|279:293,1,90,8|2,0:0|0:0,0:0:0:0:
336,185,263174,5,0,3:0:0:0:
336,185,263284,2,0,L|323:237,1,45,2|0,0:0|0:0,0:0:0:0:
285,384,263505,1,0,3:0:0:0:
173,215,263726,5,8,0:0:0:0:
146,197,263836,1,2,0:0:0:0:
114,191,263946,1,2,0:0:0:0:
83,199,264057,1,0,3:0:0:0:
56,216,264167,2,0,P|68:260|71:307,1,90,4|0,3:0|3:0,0:0:0:0:
247,81,264608,2,0,P|203:93|156:96,1,90,8|0,0:0|0:0,0:0:0:0:
66,48,264939,5,0,3:0:0:0:
75,58,265049,2,0,L|61:118,1,45,2|8,0:0|0:0,0:0:0:0:
175,257,265270,2,0,L|189:197,1,45,0|0,3:0|0:0,0:0:0:0:
351,33,265490,6,0,P|391:70|386:129,1,116.999994644165,8|2,0:0|0:0,0:0:0:0:
280,194,265821,1,8,0:0:0:0:
293,187,265932,6,0,L|346:200,1,45,0|8,3:0|3:0,0:0:0:0:
478,56,266152,2,0,L|434:66,1,45,8|8,3:0|3:0,0:0:0:0:
460,234,266373,6,0,L|401:251,1,49.5000015106202,8|0,0:0|3:0,0:0:0:0:
271,87,266593,2,0,L|322:99,1,49.5000015106202,8|8,0:0|3:0,0:0:0:0:
422,157,266814,5,8,3:0:0:0:
192,322,267034,1,8,3:0:0:0:
181,291,267145,1,8,3:0:0:0:
194,262,267255,2,0,P|236:272|288:282,1,90,8|0,3:0|3:0,0:0:0:0:
391,306,267586,1,8,0:0:0:0:
384,294,267696,6,0,P|323:287|274:340,1,116.999994644165,4|8,0:0|0:0,0:0:0:0:
77,202,268027,2,0,P|122:236|178:227,1,116.999994644165,4|0,0:0|0:0,0:0:0:0:
339,138,268358,6,0,B|369:81|325:63|356:0,1,135.000005149842,4|8,0:0|3:0,0:0:0:0:
363,16,268909,1,8,0:0:0:0:
262,96,269020,6,0,P|233:87|190:82,1,53.9999983520508,8|8,0:0|0:0,0:0:0:0:
404,184,269240,2,0,P|430:179|456:171,1,53.9999983520508,8|8,0:0|0:0,0:0:0:0:
256,263,269461,6,0,P|220:304|225:366,1,107.999996704102,4|0,0:0|3:0,0:0:0:0:
238,381,269792,1,2,0:0:0:0:
238,381,269902,1,8,0:0:0:0:
146,145,270123,5,2,0:0:0:0:
138,161,270233,1,8,0:0:0:0:
130,177,270343,2,0,L|114:125,2,45,0|8|4,0:0|0:0|3:0,0:0:0:0:
29,342,270784,6,0,B|10:301|10:301|29:248,1,90,8|0,0:0|0:0,0:0:0:0:
130,177,271115,1,2,0:0:0:0:
146,187,271226,2,0,B|161:229|161:229|142:270,1,90,4|0,3:0|3:0,0:0:0:0:
191,342,271557,5,2,0:0:0:0:
200,349,271667,2,0,L|254:339,1,45,8|0,0:0|0:0,0:0:0:0:
350,384,271887,5,2,0:0:0:0:
452,314,271998,2,0,B|469:271|469:271|447:223,1,90,8|8,0:0|0:0,0:0:0:0:
496,133,272329,6,0,L|447:140,1,45,2|0,0:0|0:0,0:0:0:0:
512,365,272549,2,0,L|363:344,1,135,12|10,0:0|0:0,0:0:0:0:
303,286,272990,6,0,P|293:245|320:210,1,90,4|0,0:0|3:0,0:0:0:0:
490,35,273432,2,0,P|517:68|507:111,1,90,8|2,0:0|0:0,0:0:0:0:
398,187,273762,6,0,L|301:174,1,90,2|8,3:2|0:0,0:0:0:0:
227,87,274093,1,4,3:0:0:0:
235,71,274204,1,0,3:0:0:0:
244,56,274314,6,0,P|247:84|256:123,1,58.4999973220826,8|0,0:0|0:0,0:0:0:0:
81,284,274534,2,0,P|87:255|90:226,1,58.4999973220826,8|0,3:0|0:0,0:0:0:0:
86,130,274755,6,0,B|162:133|137:181|213:183,1,135.000005149842,12|0,0:0|0:0,0:0:0:0:
375,60,275086,2,0,P|308:52|278:110,1,135.000005149842,12|0,0:0|0:0,0:0:0:0:
411,273,275417,2,0,B|420:207|440:140|440:140|416:154|376:172,1,202.500007724762,12|8,0:0|3:0,0:0:0:0:
293,185,275858,6,0,P|293:150|315:115,1,67.5000025749208,6|8,0:0|0:0,0:0:0:0:
180,262,276079,2,0,P|150:277|116:276,1,67.5000025749208,10|8,0:0|0:0,0:0:0:0:
296,333,276299,2,0,P|322:353|336:383,1,67.5000025749208,10|8,0:0|0:0,0:0:0:0:
262,261,276520,5,6,0:0:0:0:
18,381,276740,1,0,3:0:0:0:
10,357,276851,1,2,0:0:0:0:
0,334,276961,2,0,L|60:347,1,49.5000015106202,8|0,0:0|0:0,0:0:0:0:
177,375,277182,6,0,B|155:330|155:330|181:282,1,99.0000030212403,2|0,0:0|0:0,0:0:0:0:
249,162,277512,1,8,0:0:0:0:
260,172,277623,2,0,B|283:215|283:215|261:260,1,99.0000030212403,8|8,3:0|0:0,0:0:0:0:
97,88,278064,2,0,L|155:76,1,49.5000015106202,2|8,0:0|0:0,0:0:0:0:
351,35,278284,5,4,0:0:0:0:
363,51,278395,2,0,P|351:102|339:162,1,99.0000030212403,8|2,0:0|0:0,0:0:0:0:
481,105,278726,6,0,P|454:111|415:121,1,49.5000015106202,8|8,0:0|3:0,0:0:0:0:
282,217,278946,2,0,P|329:226|382:247,1,99.0000030212403,2|4,0:0|3:0,0:0:0:0:
477,183,279277,6,0,L|460:117,1,49.5000015106202,8|0,0:0|3:0,0:0:0:0:
375,332,279498,1,10,0:0:0:0:
367,319,279608,6,0,P|381:267|398:214,1,108,12|8,0:0|3:0,0:0:0:0:
432,116,280049,5,12,0:0:0:0:
363,147,280159,1,10,0:0:0:0:
275,102,280270,1,8,0:0:0:0:
222,32,280711,5,8,0:0:0:0:
180,95,280821,1,8,0:0:0:0:
226,183,280932,1,10,0:0:0:0:
270,353,281373,5,8,0:0:0:0:
291,231,281483,2,0,P|243:265|180:256,1,116.999994644165,12|0,0:0|0:0,0:0:0:0:
101,188,281814,5,8,0:0:0:0:
181,381,282034,1,8,0:0:0:0:
314,217,282255,1,10,0:0:0:0:
165,280,282476,5,8,3:0:0:0:
270,353,282586,2,0,P|282:322|292:281,1,58.4999973220826,8|2,0:0|0:0,0:0:0:0:
179,200,282807,5,8,3:0:0:0:
74,273,282917,2,0,P|62:242|52:201,1,58.4999973220826,8|2,0:0|0:0,0:0:0:0:
124,36,283137,5,8,1:0:0:0:
134,27,283248,2,0,P|167:72|143:132,1,116.999994644165,8|0,1:0|0:0,0:0:0:0:
35,209,283579,5,4,0:0:0:0:
35,209,284020,6,0,P|81:201|130:193,1,90,8|0,0:0|0:0,0:0:0:0:
238,267,284351,2,0,P|193:274|149:282,1,90,8|8,0:0|0:0,0:0:0:0:
83,356,284682,1,8,3:0:0:0:
349,334,284902,6,0,P|366:286|337:245,1,90,8|0,0:0|0:0,0:0:0:0:
261,196,285233,1,8,0:0:0:0:
272,210,285343,6,0,P|339:195|414:179,1,135,8|0,3:0|0:0,0:0:0:0:
426,194,285784,1,8,0:0:0:0:
224,86,286005,1,2,0:0:0:0:
301,40,286115,6,0,P|326:77|302:137,1,90,8|0,0:0|0:0,0:0:0:0:
178,210,286446,2,0,P|153:173|177:113,1,90,8|8,3:0|0:0,0:0:0:0:
360,278,286887,5,0,0:0:0:0:
360,278,286998,1,8,0:0:0:0:
360,278,287108,2,0,B|440:280|401:327|492:338,1,135,0|0,3:0|0:0,0:0:0:0:
491,330,287549,1,8,0:0:0:0:
353,199,287770,1,2,0:0:0:0:
269,259,287880,6,0,P|263:214|257:169,1,90,8|0,0:0|3:0,0:0:0:0:
360,278,288211,2,0,L|351:340,1,45,8|0,3:0|0:0,0:0:0:0:
276,377,288432,1,8,0:0:0:0:
28,241,288652,5,0,0:0:0:0:
36,253,288762,1,8,0:0:0:0:
25,280,288873,5,0,3:0:0:0:
29,230,288983,1,8,0:0:0:0:
33,180,289093,1,0,3:0:0:0:
37,130,289204,1,8,3:0:0:0:
42,80,289314,6,0,P|46:96|63:175,1,90,8|2,0:0|0:0,0:0:0:0:
133,33,289645,2,0,P|137:49|154:128,1,90,8|0,0:0|3:0,0:0:0:0:
249,191,289976,5,0,3:0:0:0:
276,194,290086,1,8,3:0:0:0:
298,210,290196,2,0,P|345:221|396:192,1,90,8|0,0:0|0:0,0:0:0:0:
493,142,290527,1,8,0:0:0:0:
479,136,290637,6,0,L|458:273,1,135,4|0,0:0|0:0,0:0:0:0:
466,283,291079,1,8,0:0:0:0:
264,171,291299,1,2,0:0:0:0:
341,118,291409,6,0,P|357:189|368:220,1,90,8|8,0:0|0:0,0:0:0:0:
236,287,291740,2,0,P|223:231|256:189,1,90,8|8,3:0|0:0,0:0:0:0:
143,34,292181,5,0,0:0:0:0:
143,34,292292,1,8,3:0:0:0:
143,34,292402,2,0,P|105:66|116:162,1,135,0|0,3:0|3:0,0:0:0:0:
116,158,292843,1,8,0:0:0:0:
13,298,293064,1,0,0:0:0:0:
74,355,293174,6,0,P|115:333|167:341,1,90,8|8,0:0|3:0,0:0:0:0:
257,315,293505,1,0,3:0:0:0:
254,335,293615,1,0,3:0:0:0:
183,257,293726,2,0,B|164:217|164:217|185:170,1,90,8|0,0:0|0:0,0:0:0:0:
259,96,294056,1,8,0:0:0:0:
243,104,294167,6,0,P|309:133|377:90,1,135,2|8,3:2|3:0,0:0:0:0:
386,32,294608,1,8,0:0:0:0:
478,236,294829,1,2,0:0:0:0:
399,297,294939,6,0,L|385:185,1,90,8|0,0:0|3:0,0:0:0:0:
292,145,295270,1,0,3:0:0:0:
255,133,295380,1,8,3:0:0:0:
219,145,295490,2,0,P|167:162|113:144,1,90,8|0,0:0|0:0,0:0:0:0:
11,84,295821,1,8,0:0:0:0:
33,75,295931,5,4,3:0:0:0:
31,111,296042,1,8,0:0:0:0:
29,146,296152,1,8,3:0:0:0:
28,181,296262,1,0,3:0:0:0:
16,265,296373,6,0,P|49:257|91:248,1,53.9999983520508,8|8,0:0|3:0,0:0:0:0:
271,157,296593,2,0,P|238:149|196:140,1,53.9999983520508,8|8,0:0|3:0,0:0:0:0:
89,45,296814,5,0,3:0:0:0:
120,31,296924,2,0,P|112:85|102:138,1,107.999996704102,12|0,3:0|3:0,0:0:0:0:
190,267,297255,1,8,3:0:0:0:
251,311,297365,1,8,3:0:0:0:
326,320,297476,1,0,3:0:0:0:
394,289,297586,1,8,3:0:0:0:
439,228,297696,6,0,B|338:239|381:294|275:301,1,180,4|8,0:0|0:0,0:0:0:0:
130,223,298358,1,0,0:0:0:0:
139,219,298468,1,8,0:0:0:0:
146,215,298579,2,0,P|140:258|121:338,1,90,0|8,3:0|3:0,0:0:0:0:
314,192,299020,2,0,P|304:147|298:103,1,90,8|0,0:0|3:0,0:0:0:0:
375,26,299351,1,8,3:0:0:0:
364,35,299461,6,0,P|433:21|483:93,1,135,0|0,3:0|0:0,0:0:0:0:
481,73,299902,1,8,0:0:0:0:
366,228,300123,1,2,0:0:0:0:
366,228,300233,1,8,0:0:0:0:
366,228,300343,2,0,B|353:183|353:183|370:143,1,90,0|4,3:0|3:0,0:0:0:0:
482,318,300784,1,8,0:0:0:0:
443,304,300895,1,8,3:0:0:0:
402,306,301005,1,2,0:0:0:0:
368,328,301115,1,8,0:0:0:0:
345,361,301226,6,0,L|182:350,1,135,4|0,3:0|3:0,0:0:0:0:
40,312,301667,6,0,P|77:289|122:292,1,90,8|2,0:0|0:0,0:0:0:0:
231,275,301998,2,0,P|193:252|148:255,1,90,8|0,0:0|3:0,0:0:0:0:
73,175,302329,5,2,0:0:0:0:
83,155,302439,1,0,3:0:0:0:
0,93,302549,6,0,P|6:116|11:159,1,45,8|0,0:0|0:0,0:0:0:0:
175,133,302770,2,0,P|169:156|164:199,1,45,8|8,0:0|3:0,0:0:0:0:
102,32,302990,5,4,0:0:0:0:
119,53,303101,2,0,P|162:59|214:28,1,90,8|0,0:0|3:0,0:0:0:0:
355,127,303431,2,0,P|297:100|259:119,1,90,8|2,0:0|0:0,0:0:0:0:
206,183,303762,1,8,0:0:0:0:
193,170,303873,6,0,P|197:139|205:100,1,45,0|8,3:0|0:0,0:0:0:0:
95,205,304093,2,0,P|84:235|100:275,1,45,8|0,0:0|3:0,0:0:0:0:
207,326,304314,6,0,B|260:318|260:318|293:333|293:333|354:321,1,150,12|8,0:0|0:0,0:0:0:0:
400,247,304755,6,0,P|372:296|467:311,1,180,4|8,0:0|0:0,0:0:0:0:
309,221,305417,1,2,0:0:0:0:
300,216,305527,1,8,0:0:0:0:
291,211,305637,2,0,B|218:223|251:267|174:275,1,135,0|0,0:0|3:0,0:0:0:0:
166,264,306079,1,8,0:0:0:0:
51,153,306299,5,0,0:0:0:0:
51,153,306409,1,8,3:0:0:0:
51,152,306520,2,0,P|61:219|72:286,1,135,0|0,3:0|3:0,0:0:0:0:
28,346,306961,1,8,0:0:0:0:
218,185,307181,1,2,0:0:0:0:
255,276,307292,6,0,P|210:268|155:263,1,90,8|0,0:0|3:0,0:0:0:0:
58,205,307623,2,0,P|86:199|120:194,1,45,8|0,3:0|0:0,0:0:0:0:
187,93,307843,5,8,0:0:0:0:
219,68,307954,1,8,3:0:0:0:
259,64,308064,1,2,0:0:0:0:
296,79,308174,1,8,0:0:0:0:
323,108,308284,6,0,L|307:221,1,90,4|2,0:0|0:0,0:0:0:0:
434,305,308615,1,4,3:0:0:0:
434,305,308726,2,0,B|450:260|450:260|425:208,1,90,8|8,0:0|0:0,0:0:0:0:
358,263,309056,1,8,0:0:0:0:
358,263,309167,1,0,3:0:0:0:
173,363,309387,5,8,3:0:0:0:
143,335,309498,1,8,3:0:0:0:
129,296,309608,1,0,3:0:0:0:
143,258,309718,1,0,0:0:0:0:
177,236,309829,1,0,3:0:0:0:
19,147,310049,5,12,0:0:0:0:
99,169,310159,1,8,3:0:0:0:
210,76,310380,5,12,0:0:0:0:
290,54,310490,1,8,3:0:0:0:
395,150,310711,5,12,0:0:0:0:
376,232,310821,1,8,3:0:0:0:
231,302,311042,5,12,0:0:0:0:
209,222,311152,1,8,3:0:0:0:
290,54,311299,6,0,L|300:12,2,30,8|8|12,0:0|0:0|0:0,0:0:0:0:
262,138,311520,5,8,3:0:0:0:
402,247,311648,2,0,L|480:233,1,67.5,8|8,3:0|0:0,0:0:0:0:
22,235,312305,5,2,0:0:0:0:
95,205,312746,1,0,0:0:0:0:
172,216,313187,1,0,0:0:0:0:
229,270,313629,1,0,0:0:0:0:
289,319,314070,1,0,0:0:0:0:
366,329,314510,1,0,0:0:0:0:
436,293,314952,1,0,0:0:0:0:
470,222,315393,1,0,0:0:0:0:
453,144,315834,5,2,0:0:0:0:
426,124,316275,1,0,0:0:0:0:
394,117,316716,1,0,0:0:0:0:
362,122,317157,1,0,0:0:0:0:
334,138,317599,5,2,0:0:0:0:
332,148,318040,1,0,0:0:0:0:
330,158,318481,1,0,0:0:0:0:
328,168,318922,1,0,0:0:0:0:
