osu file format v14

[General]
AudioFilename: audio.mp3
AudioLeadIn: 0
PreviewTime: 44831
Countdown: 0
SampleSet: Soft
StackLeniency: 0.7
Mode: 0
LetterboxInBreaks: 0
WidescreenStoryboard: 1

[Editor]
DistanceSpacing: 1
BeatDivisor: 2
GridSize: 4
TimelineZoom: 1

[Metadata]
Title:Asayake no Starmine (TV Size)
TitleUnicode:朝焼けのスターマイン (TV Size)
Artist:Imai Asami
ArtistUnicode:今井麻美
Creator:Sanayui
Version:Normal
Source:プラスティック・メモリーズ
Tags:Plastic Memories ed ending anime japanese female vocal purasutikku memorizu bkmoonp1g J-pop Jpop pop
BeatmapID:3178409
BeatmapSetID:1555846

[Difficulty]
HPDrainRate:4
CircleSize:2
OverallDifficulty:4
ApproachRate:4
SliderMultiplier:1.2
SliderTickRate:1

[Events]
//Background and Video events
0,0,"yui.jpg",0,0
//Break Periods
//Storyboard Layer 0 (Background)
//Storyboard Layer 1 (Fail)
//Storyboard Layer 2 (Pass)
//Storyboard Layer 3 (Foreground)
//Storyboard Layer 4 (Overlay)
//Storyboard Sound Samples

[TimingPoints]
-630,461.538461538462,4,2,0,70,1,0
639,-100,4,2,2,70,0,0
1216,-100,4,2,26,70,0,0
1446,-100,4,2,2,70,0,0
1677,-100,4,2,27,70,0,0
1908,-100,4,2,2,70,0,0
2139,-100,4,2,28,70,0,0
2370,-100,4,2,2,70,0,0
2600,-100,4,2,26,70,0,0
2831,-100,4,2,2,70,0,0
3062,-100,4,2,27,70,0,0
3293,-100,4,2,2,70,0,0
3523,-100,4,2,30,70,0,0
3754,-100,4,2,2,70,0,0
3985,-100,4,2,27,70,0,0
4216,-100,4,2,2,70,0,0
4446,-100,4,2,26,70,0,0
4677,-100,4,2,2,70,0,0
4908,-100,4,2,25,70,0,0
5136,-100,4,2,2,70,0,0
5370,-100,4,2,26,70,0,0
5600,-100,4,2,2,70,0,0
5831,-100,4,2,27,70,0,0
6062,-100,4,2,2,70,0,0
6293,-100,4,2,25,70,0,0
6523,-100,4,2,2,70,0,0
6754,-100,4,2,26,70,0,0
6985,-100,4,2,2,70,0,0
7216,-100,4,2,27,70,0,0
7446,-100,4,2,2,70,0,0
7677,-100,4,2,28,70,0,0
7790,-100,4,2,2,70,0,0
8139,-100,4,2,26,70,0,0
8254,-100,4,2,2,70,0,0
8600,-100,4,2,26,70,0,0
8831,-100,4,2,2,70,0,0
9059,-100,4,2,27,70,0,0
9293,-100,4,2,2,70,0,0
9521,-100,4,2,28,70,0,0
9754,-100,4,2,2,70,0,0
9982,-100,4,2,26,70,0,0
10216,-100,4,2,2,70,0,0
10444,-100,4,2,27,70,0,0
10677,-100,4,2,2,70,0,0
10905,-100,4,2,30,70,0,0
11139,-100,4,2,2,70,0,0
11367,-100,4,2,27,70,0,0
11600,-100,4,2,2,70,0,0
11828,-100,4,2,26,70,0,0
12062,-100,4,2,2,70,0,0
12290,-100,4,2,25,70,0,0
12523,-100,4,2,2,70,0,0
12752,-100,4,2,26,70,0,0
12985,-100,4,2,2,70,0,0
13213,-100,4,2,27,70,0,0
13446,-100,4,2,2,70,0,0
13675,-100,4,2,25,70,0,0
13908,-100,4,2,2,70,0,0
14136,-100,4,2,26,70,0,0
14370,-100,4,2,2,70,0,0
14598,-100,4,2,27,70,0,0
14831,-100,4,2,2,70,0,0
15059,-100,4,2,28,70,0,0
15293,-100,4,2,2,70,0,0
15521,-100,4,2,26,70,0,0
15754,-100,4,2,2,70,0,0
15985,-100,4,2,26,70,0,0
16216,-100,4,2,2,70,0,0
16677,-100,4,2,2,70,0,0
16908,-100,4,2,31,70,0,0
17139,-100,4,2,32,70,0,0
17254,-100,4,2,2,70,0,0
17370,-100,4,2,33,70,0,0
17600,-100,4,2,32,70,0,0
17831,-100,4,2,2,70,0,0
18062,-100,4,2,2,70,0,0
18985,-100,4,2,2,70,0,0
19908,-100,4,2,2,70,0,0
20370,-100,4,2,2,70,0,0
20831,-100,4,2,2,70,0,0
21293,-100,4,2,2,70,0,0
21754,-100,4,2,2,70,0,0
21985,-100,4,2,33,70,0,0
22216,-100,4,2,2,70,0,0
22446,-100,4,2,34,70,0,0
22677,-100,4,2,2,70,0,0
22908,-100,4,2,35,70,0,0
23139,-100,4,2,2,70,0,0
23600,-100,4,2,2,70,0,0
24062,-100,4,2,2,70,0,0
24293,-100,4,2,31,70,0,0
24523,-100,4,2,2,70,0,0
24754,-100,4,2,33,70,0,0
24985,-100,4,2,2,70,0,0
25216,-100,4,2,30,70,0,0
25446,-100,4,2,2,70,0,0
26139,-100,4,2,30,70,0,0
26370,-100,4,2,31,70,0,0
26485,-100,4,2,2,70,0,0
26831,-100,4,2,2,70,0,0
27523,-100,4,2,2,70,0,0
27754,-100,4,2,2,70,0,0
28216,-100,4,2,2,70,0,0
29831,-100,4,2,34,70,0,0
29946,-100,4,2,33,70,0,0
30062,-100,4,2,32,70,0,0
30177,-100,4,2,31,70,0,0
30293,-100,4,2,30,70,0,0
30408,-100,4,2,29,70,0,0
30523,-100,4,2,28,70,0,0
30639,-100,4,2,27,70,0,0
30754,-100,4,2,26,70,0,0
30870,-100,4,2,2,70,0,0
30985,-100,4,2,2,70,0,0
31216,-100,4,2,26,70,0,0
31446,-100,4,2,30,70,0,0
31677,-100,4,2,2,70,0,0
31908,-100,4,2,29,70,0,0
32023,-100,4,2,29,70,0,0
32139,-100,4,2,28,70,0,0
32370,-100,4,2,2,70,0,0
32831,-100,4,2,2,70,0,0
33293,-100,4,2,2,70,0,0
34216,-100,4,2,2,70,0,0
34677,-100,4,2,32,70,0,0
34908,-100,4,2,30,70,0,0
35139,-100,4,2,36,70,0,0
35370,-100,4,2,2,70,0,0
35600,-100,4,2,2,70,0,0
36062,-100,4,2,2,70,0,0
36523,-100,4,2,2,70,0,0
36985,-100,4,2,2,70,0,0
37446,-100,4,2,2,70,0,0
38139,-100,4,2,2,70,0,0
38370,-100,4,2,32,70,0,0
38600,-100,4,2,30,70,0,0
38831,-100,4,2,36,70,0,0
39062,-100,4,2,2,70,0,0
39293,-100,4,2,29,70,0,0
39523,-100,4,2,28,70,0,0
39754,-100,4,2,2,70,0,0
40216,-100,4,2,2,70,0,0
40677,-100,4,2,2,70,0,0
41139,-100,4,2,2,70,0,0
41370,-100,4,2,2,70,0,0
41831,-100,4,2,29,70,0,0
42062,-100,4,2,28,70,0,0
42293,-100,4,2,26,70,0,0
42523,-100,4,2,29,70,0,0
42754,-100,4,2,28,70,0,0
42985,-100,4,2,26,70,0,0
43216,-100,4,2,29,70,0,0
43446,-100,4,2,28,70,0,0
43908,-100,4,2,23,70,0,0
44023,-100,4,2,2,70,0,0
44139,-100,4,2,24,70,0,0
44370,-100,4,2,25,70,0,0
44600,-100,4,2,26,70,0,0
44831,-100,4,2,27,70,0,0
45062,-100,4,2,28,70,0,0
45293,-100,4,2,29,70,0,0
45523,-100,4,2,2,70,0,1
45754,-100,4,2,2,70,0,1
46216,-100,4,2,2,70,0,1
46677,-100,4,2,2,70,0,1
46908,-100,4,2,23,70,0,1
47139,-100,4,2,2,70,0,1
47600,-100,4,2,2,70,0,1
47828,-100,4,2,30,70,0,1
48062,-100,4,2,2,70,0,1
48293,-100,4,2,29,70,0,1
48523,-100,4,2,2,70,0,1
48751,-100,4,2,28,70,0,1
48985,-100,4,2,2,70,0,1
49446,-100,4,2,2,70,0,1
49908,-100,4,2,2,70,0,1
50370,-100,4,2,2,70,0,1
50600,-100,4,2,23,70,0,1
50831,-100,4,2,2,70,0,1
51293,-100,4,2,2,70,0,1
51523,-100,4,2,31,70,0,1
51754,-100,4,2,2,70,0,1
51985,-100,4,2,32,70,0,1
52216,-100,4,2,2,70,0,1
52446,-100,4,2,33,70,0,1
52677,-100,4,2,2,70,0,1
53139,-100,4,2,2,70,0,1
53600,-100,4,2,2,70,0,1
54062,-100,4,2,22,70,0,1
54293,-100,4,2,23,70,0,1
54523,-100,4,2,2,70,0,1
54985,-100,4,2,2,70,0,1
55446,-100,4,2,2,70,0,1
55908,-100,4,2,2,70,0,1
56139,-100,4,2,2,70,0,1
56370,-100,4,2,2,70,0,1
56597,-100,4,2,20,70,0,1
56600,-100,4,2,20,70,0,1
56831,-100,4,2,2,70,0,1
57290,-100,4,2,20,70,0,1
57408,-100,4,2,2,70,0,1
57982,-100,4,2,22,70,0,1
57985,-100,4,2,22,70,0,1
58213,-100,4,2,23,70,0,1
58216,-100,4,2,23,70,0,1
58446,-100,4,2,2,70,0,1
58680,-100,4,2,23,70,0,1
58793,-100,4,2,2,70,0,1
58905,-100,4,2,24,70,0,1
58908,-100,4,2,24,70,0,1
59136,-100,4,2,25,70,0,1
59139,-100,4,2,25,70,0,1
59254,-100,4,2,2,70,0,1
59369,-100,4,2,26,70,0,1
59370,-100,4,2,26,70,0,1
59485,-100,4,2,2,70,0,1
59600,-100,4,2,27,70,0,1
59716,-100,4,2,27,70,0,1
59831,-100,4,2,28,70,0,1
59946,-100,4,2,2,70,0,1
60523,-100,4,2,2,70,0,1
60985,-100,4,2,2,70,0,1
61446,-100,4,2,22,70,0,1
61562,-100,4,2,2,70,0,1
61677,-100,4,2,23,70,0,1
61908,-100,4,2,2,70,0,1
62369,-100,4,2,2,70,0,1
62600,-100,4,2,30,70,0,1
62831,-100,4,2,2,70,0,1
63062,-100,4,2,29,70,0,1
63292,-100,4,2,2,70,0,1
63293,-100,4,2,2,70,0,1
63523,-100,4,2,28,70,0,1
63754,-100,4,2,2,70,0,1
63985,-100,4,2,27,70,0,1
64216,-100,4,2,2,70,0,1
64446,-100,4,2,2,70,0,1
64677,-100,4,2,2,70,0,1
64908,-100,4,2,25,70,0,1
65139,-100,4,2,2,70,0,1
65369,-100,4,2,2,70,0,1
65600,-100,4,2,2,70,0,1
65831,-100,4,2,26,70,0,1
66062,-100,4,2,2,70,0,1
66523,-100,4,2,2,70,0,1
66985,-100,4,2,2,70,0,1
67446,-100,4,2,2,70,0,1
67908,-100,4,2,2,70,0,1
68369,-100,4,2,2,70,0,1
68831,-100,4,2,2,70,0,1
69062,-100,4,2,2,70,0,1
69523,-100,4,2,27,70,0,1
69754,-100,4,2,2,70,0,1
70215,-100,4,2,28,70,0,1
70216,-100,4,2,28,70,0,1
70446,-100,4,2,2,70,0,1
70677,-100,4,2,2,70,0,1
70908,-100,4,2,29,70,0,1
71139,-100,4,2,2,70,0,1
71370,-100,4,2,30,70,0,1
71600,-100,4,2,2,70,0,1
72062,-100,4,2,2,70,0,1
72523,-100,4,2,2,70,0,1
72754,-100,4,2,29,70,0,1
72985,-100,4,2,2,70,0,1
73216,-100,4,2,28,70,0,1
73440,-100,4,2,2,70,0,1
73446,-100,4,2,2,70,0,1
73908,-100,4,2,2,70,0,1
74139,-100,4,2,27,70,0,1
74254,-100,4,2,2,70,0,1
74370,-100,4,2,2,70,0,1
75062,-100,4,2,26,70,0,0
75293,-100,4,2,2,70,0,0
75523,-100,4,2,27,70,0,0
75754,-100,4,2,2,70,0,0
75985,-100,4,2,28,70,0,0
76216,-100,4,2,2,70,0,0
76446,-100,4,2,26,70,0,0
76677,-100,4,2,2,70,0,0
76908,-100,4,2,27,70,0,0
77139,-100,4,2,2,70,0,0
77369,-100,4,2,30,70,0,0
77600,-100,4,2,2,70,0,0
77831,-100,4,2,27,70,0,0
78062,-100,4,2,2,70,0,0
78292,-100,4,2,26,70,0,0
78523,-100,4,2,2,70,0,0
78754,-100,4,2,25,70,0,0
78985,-100,4,2,2,70,0,0
79216,-100,4,2,26,70,0,0
79446,-100,4,2,2,70,0,0
79677,-100,4,2,27,70,0,0
79908,-100,4,2,2,70,0,0
80139,-100,4,2,25,70,0,0
80370,-100,4,2,2,70,0,0
80600,-100,4,2,26,70,0,0
80831,-100,4,2,2,70,0,0
81062,-100,4,2,27,70,0,0
81293,-100,4,2,2,70,0,0
81523,-100,4,2,28,70,0,0
81754,-100,4,2,2,70,0,0
81985,-100,4,2,26,70,0,0
82216,-100,4,2,2,70,0,0
82444,-100,4,2,26,50,0,0
82446,-100,4,2,26,50,0,0
82677,-100,4,2,2,50,0,0
82905,-100,4,2,27,50,0,0
83139,-100,4,2,2,50,0,0
83367,-100,4,2,28,50,0,0
83600,-100,4,2,2,50,0,0
83828,-100,4,2,26,50,0,0
84062,-100,4,2,2,50,0,0
84290,-100,4,2,27,50,0,0
84523,-100,4,2,2,50,0,0
84751,-100,4,2,30,50,0,0
84985,-100,4,2,2,50,0,0
85213,-100,4,2,27,50,0,0
85446,-100,4,2,2,50,0,0
85674,-100,4,2,26,50,0,0
85908,-100,4,2,2,50,0,0
86136,-100,4,2,25,50,0,0
86370,-100,4,2,2,50,0,0
86598,-100,4,2,26,50,0,0
86831,-100,4,2,2,50,0,0
87059,-100,4,2,27,50,0,0
87293,-100,4,2,2,50,0,0
87521,-100,4,2,25,50,0,0
87754,-100,4,2,2,50,0,0
87982,-100,4,2,26,50,0,0

[Colours]
Combo1 : 255,128,128
Combo2 : 105,176,255
Combo3 : 128,128,255
Combo4 : 255,128,64

[HitObjects]
505,349,1216,6,0,P|455:299|383:293,1,120,6|2,0:2|3:2,0:0:0:0:
299,340,2139,2,0,P|245:349|152:299,1,120,2|2,3:2|3:2,0:0:0:0:
93,249,3062,2,0,L|50:370,2,120,2|2|2,3:2|3:2|3:2,0:0:0:0:
138,138,4446,1,2,3:2:0:0:
235,67,4908,6,0,P|230:127|292:152,1,120,2|2,3:2|3:2,0:0:0:0:
394,135,5831,2,0,P|423:190|391:237,1,120,2|2,3:2|3:2,0:0:0:0:
288,253,6754,2,0,L|319:402,2,120,2|2|2,3:2|3:2|3:2,0:0:0:0:
263,147,8139,1,2,1:2:0:0:
180,77,8600,6,0,P|132:37|64:58,1,120,6|10,1:2|1:2,0:0:0:0:
8,127,9523,1,2,3:2:0:0:
69,216,9985,1,10,1:2:0:0:
174,236,10446,2,0,L|128:374,2,120,2|10|2,3:2|1:2|3:2,0:0:0:0:
233,146,11831,1,10,1:2:0:0:
314,74,12293,6,0,P|365:40|424:67,1,120,2|10,3:2|1:2,0:0:0:0:
496,130,13216,1,2,3:2:0:0:
442,227,13677,1,10,1:2:0:0:
333,227,14139,2,0,L|271:237,1,60,2|8,3:2|1:2,0:0:0:0:
228,266,14600,2,0,L|164:226,1,60,10|0,1:2|3:2,0:0:0:0:
159,182,15062,1,10,1:2:0:0:
236,107,15523,1,10,1:2:0:0:
169,24,15985,6,0,B|166:24|106:7,1,60,6|0,3:2|0:2,0:0:0:0:
72,42,16446,2,0,P|18:83|49:165,1,120,0|2,3:2|1:2,0:0:0:0:
82,217,17370,1,2,3:2:0:0:
129,313,17831,2,0,L|258:301,1,120,0|0,3:2|3:2,0:0:0:0:
343,352,18754,2,0,P|400:361|422:289,1,120,2|0,1:2|3:2,0:0:0:0:
482,219,19677,6,0,L|445:171,1,60,2|0,3:2|0:2,0:0:0:0:
396,148,20139,2,0,P|341:178|274:172,1,120,0|2,3:2|1:2,0:0:0:0:
180,192,21062,1,0,3:2:0:0:
77,226,21523,2,0,P|43:247|58:324,1,120,0|2,3:2|3:2,0:0:0:0:
158,330,22446,2,0,L|278:359,1,120,2|2,1:2|3:2,0:0:0:0:
379,382,23370,6,0,L|431:339,1,60,2|0,3:2|0:2,0:0:0:0:
427,289,23831,2,0,P|455:253|401:171,1,120,0|2,3:2|1:2,0:0:0:0:
342,131,24754,1,2,3:2:0:0:
259,59,25216,2,0,L|124:101,1,120,2|0,3:2|3:2,0:0:0:0:
59,161,26139,2,0,P|87:200|74:267,1,120,2|0,1:2|3:2,0:0:0:0:
129,359,27062,6,0,L|273:304,1,120,2|0,3:2|3:2,0:0:0:0:
293,329,27754,1,0,0:2:0:0:
346,335,27985,2,0,P|422:338|459:284,1,120,2|0,1:2|3:2,0:0:0:0:
465,203,28908,2,0,P|454:93|344:89,1,240,2|2,3:2|1:2,0:0:0:0:
298,186,30293,1,2,1:2:0:0:
343,296,30754,6,0,L|277:314,1,60,14|0,3:2|0:2,0:0:0:0:
236,346,31216,2,0,P|183:293|124:281,1,120,8|0,1:2|3:2,0:0:0:0:
21,294,32139,1,2,3:2:0:0:
33,174,32600,2,0,P|46:125|116:84,1,120,0|10,3:2|1:2,0:0:0:0:
157,104,33293,1,0,0:2:0:0:
206,69,33523,2,0,L|336:85,1,120,0|2,3:2|3:2,0:0:0:0:
439,46,34446,6,0,L|417:104,1,60,0|2,3:2|0:2,0:0:0:0:
398,159,34908,2,0,P|461:213|417:272,1,120,10|0,1:2|3:2,0:0:0:0:
370,323,35831,1,2,3:2:0:0:
250,331,36293,2,0,L|216:201,1,120,0|10,3:2|1:2,0:0:0:0:
249,162,36985,1,0,0:2:0:0:
234,103,37216,2,0,P|200:47|127:64,1,120,0|2,3:2|3:2,0:0:0:0:
54,117,38139,5,0,3:2:0:0:
54,117,38370,1,2,0:2:0:0:
54,117,38600,2,0,L|73:237,1,120,10|0,1:2|3:2,0:0:0:0:
97,353,39523,1,2,3:2:0:0:
210,312,39985,2,0,P|266:345|330:347,1,120,0|10,3:2|1:2,0:0:0:0:
368,314,40677,1,0,0:2:0:0:
427,322,40908,2,0,L|412:192,1,120,0|8,3:2|3:2,0:0:0:0:
309,141,41831,6,0,L|177:170,1,120,6|2,1:2|3:2,0:0:0:0:
132,157,42523,2,0,P|102:118|107:49,1,120,2|2,1:2|3:2,0:0:0:0:
153,11,43216,2,0,L|220:22,1,60,2|10,1:2|1:2,0:0:0:0:
329,45,43908,6,0,L|389:23,2,60,2|10|2,3:2|1:2|3:2,0:0:0:0:
287,88,44600,2,0,L|296:236,1,120,10|10,3:2|0:2,0:0:0:0:
236,312,45523,5,6,1:2:0:0:
341,369,45985,2,0,L|423:348,1,60,10|0,3:2|0:2,0:0:0:0:
456,334,46446,2,0,P|484:263|434:220,1,120,0|10,3:2|3:2,0:0:0:0:
343,231,47370,1,0,1:2:0:0:
238,290,47831,2,0,L|79:323,2,120,10|2|10,3:2|3:2|3:2,0:0:0:0:
337,357,49216,6,0,L|359:292,1,60,2|0,1:2|0:2,0:0:0:0:
416,300,49677,2,0,P|476:264|454:195,1,120,10|0,3:2|3:2,0:0:0:0:
423,111,50600,1,10,3:2:0:0:
306,138,51062,1,0,1:2:0:0:
227,47,51523,2,0,L|96:19,1,120,10|2,3:2|3:2,0:0:0:0:
0,71,52446,1,10,3:2:0:0:
97,141,52908,6,0,L|87:202,1,60,2|0,1:2|0:2,0:0:0:0:
30,219,53370,2,0,P|34:274|93:301,1,120,10|0,3:2|3:2,0:0:0:0:
140,328,54062,2,0,L|221:304,1,60,2|10,0:2|3:2,0:0:0:0:
292,237,54754,2,0,L|326:369,2,120,2|10|0,1:2|3:2|3:2,0:0:0:0:
351,228,55908,2,0,L|432:247,1,60,0|10,0:2|3:2,0:0:0:0:
498,163,56600,6,0,P|496:120|419:88,1,120,2|8,1:2|3:2,0:0:0:0:
385,49,57293,2,0,L|260:88,1,120,2|0,0:2|0:2,0:0:0:0:
214,106,57985,1,10,3:2:0:0:
214,106,58216,1,2,0:2:0:0:
97,77,58677,6,0,L|41:50,2,60,2|2|2,1:2|3:2|1:2,0:0:0:0:
83,135,59370,2,0,P|46:191|76:266,1,120,2|2,3:2|1:2,0:0:0:0:
62,360,60293,6,0,L|144:341,1,60,14|0,1:2|0:2,0:0:0:0:
173,317,60754,2,0,P|235:326|305:302,1,120,8|0,3:2|3:2,0:0:0:0:
408,324,61677,1,10,3:2:0:0:
490,236,62139,2,0,P|482:156|446:116,1,120,2|10,1:2|3:2,0:0:0:0:
346,169,63062,2,0,P|354:238|406:287,1,120,2|10,3:2|3:2,0:0:0:0:
326,379,63985,6,0,L|266:366,1,60,2|0,1:2|0:2,0:0:0:0:
214,338,64446,2,0,P|121:347|92:321,1,120,8|2,3:2|3:2,0:0:0:0:
50,226,65370,1,8,3:2:0:0:
103,118,65831,2,0,L|31:11,2,120,2|10|0,1:2|3:2|3:2,0:0:0:0:
223,117,67216,1,10,3:2:0:0:
319,187,67677,6,0,L|375:207,1,60,2|0,1:2|0:2,0:0:0:0:
434,193,68139,2,0,P|470:148|452:93,1,120,10|0,3:2|3:2,0:0:0:0:
366,10,69062,1,10,3:2:0:0:
252,49,69523,2,0,L|119:76,1,120,2|8,1:2|3:2,0:0:0:0:
74,70,70216,2,0,P|51:111|89:187,1,120,2|0,0:2|0:2,0:0:0:0:
92,233,70908,1,10,3:2:0:0:
113,351,71370,6,0,L|218:316,1,60,6|0,1:2|0:2,0:0:0:0:
229,326,71831,2,0,P|287:362|346:324,1,120,10|8,3:2|0:3,0:0:0:0:
407,252,72754,1,2,1:2:0:0:
332,159,73216,2,0,L|188:200,1,120,14|0,1:2|3:2,0:0:0:0:
158,184,73908,2,0,P|115:123|126:72,1,120,2|8,3:2|1:2,0:0:0:0:
165,41,74600,1,8,0:2:0:0:
285,37,75062,6,0,L|400:75,1,120,6|10,1:2|3:2,0:0:0:0:
469,171,75985,2,0,P|400:191|357:225,1,120,2|10,1:2|0:2,0:0:0:0:
244,244,76908,2,0,L|288:397,2,120,2|10|2,1:2|0:2|1:2,0:0:0:0:
208,129,78293,1,10,3:2:0:0:
119,48,78754,6,0,L|-9:86,1,120,6|10,3:2|0:2,0:0:0:0:
6,202,79677,2,0,P|88:202|128:231,1,120,2|10,1:2|0:2,0:0:0:0:
195,313,80600,2,0,L|179:374,2,60,2|0|2,1:2|1:2|1:2,0:0:0:0:
302,259,81523,2,0,L|382:275,1,60,10|10,1:2|1:2,0:0:0:0:
417,249,81985,2,0,L|494:178,1,60,10|10,1:2|1:2,0:0:0:0:
465,148,82446,6,0,L|382:57,1,120,2|2,2:2|2:2,0:0:0:0:
263,58,83370,2,0,L|152:134,1,120,2|2,2:2|2:2,0:0:0:0:
149,244,84293,2,0,L|231:357,1,120,2|2,0:2|0:2,0:0:0:0:
339,337,85216,2,0,L|457:248,1,120,2|2,0:2|0:2,0:0:0:0:
465,148,86139,5,2,0:2:0:0:
364,82,86600,1,2,0:2:0:0:
294,179,87062,1,2,0:2:0:0:
393,245,87523,1,2,0:2:0:0:
465,148,87985,5,2,0:2:0:0:
