osu file format v14

[General]
AudioFilename: audio.mp3
AudioLeadIn: 0
PreviewTime: 44831
Countdown: 0
SampleSet: Soft
StackLeniency: 0.7
Mode: 0
LetterboxInBreaks: 0
WidescreenStoryboard: 1

[Editor]
Bookmarks: 81870
DistanceSpacing: 1.3
BeatDivisor: 4
GridSize: 4
TimelineZoom: 1

[Metadata]
Title:Asayake no Starmine (TV Size)
TitleUnicode:朝焼けのスターマイン (TV Size)
Artist:Imai Asami
ArtistUnicode:今井麻美
Creator:Sanayui
Version:Insane
Source:プラスティック・メモリーズ
Tags:Plastic Memories ed ending anime japanese female vocal purasutikku memorizu bkmoonp1g J-pop Jpop pop
BeatmapID:3178406
BeatmapSetID:1555846

[Difficulty]
HPDrainRate:6
CircleSize:4
OverallDifficulty:7
ApproachRate:8
SliderMultiplier:1.5
SliderTickRate:1

[Events]
//Background and Video events
0,0,"yui.jpg",0,0
//Break Periods
//Storyboard Layer 0 (Background)
//Storyboard Layer 1 (Fail)
//Storyboard Layer 2 (Pass)
//Storyboard Layer 3 (Foreground)
//Storyboard Layer 4 (Overlay)
//Storyboard Sound Samples

[TimingPoints]
-630,461.538461538462,4,2,0,70,1,0
639,-100,4,2,2,70,0,0
1216,-100,4,2,26,70,0,0
1446,-100,4,2,2,70,0,0
1677,-100,4,2,27,70,0,0
1908,-100,4,2,2,70,0,0
2139,-100,4,2,28,70,0,0
2370,-100,4,2,2,70,0,0
2600,-100,4,2,26,70,0,0
2831,-100,4,2,2,70,0,0
3062,-100,4,2,27,70,0,0
3293,-100,4,2,2,70,0,0
3523,-100,4,2,30,70,0,0
3754,-100,4,2,2,70,0,0
3985,-100,4,2,27,70,0,0
4216,-100,4,2,2,70,0,0
4446,-100,4,2,26,70,0,0
4677,-100,4,2,2,70,0,0
4908,-100,4,2,25,70,0,0
5136,-100,4,2,2,70,0,0
5370,-100,4,2,26,70,0,0
5600,-100,4,2,2,70,0,0
5831,-100,4,2,27,70,0,0
6062,-100,4,2,2,70,0,0
6293,-100,4,2,25,70,0,0
6523,-100,4,2,2,70,0,0
6754,-100,4,2,26,70,0,0
6985,-100,4,2,2,70,0,0
7216,-100,4,2,27,70,0,0
7446,-100,4,2,2,70,0,0
7677,-100,4,2,28,70,0,0
7790,-100,4,2,2,70,0,0
8139,-100,4,2,26,70,0,0
8254,-100,4,2,2,70,0,0
8600,-100,4,2,26,70,0,0
8831,-100,4,2,2,70,0,0
9059,-100,4,2,27,70,0,0
9293,-100,4,2,2,70,0,0
9521,-100,4,2,28,70,0,0
9754,-100,4,2,2,70,0,0
9982,-100,4,2,26,70,0,0
10216,-100,4,2,2,70,0,0
10444,-100,4,2,27,70,0,0
10677,-100,4,2,2,70,0,0
10905,-100,4,2,30,70,0,0
11139,-100,4,2,2,70,0,0
11367,-100,4,2,27,70,0,0
11600,-100,4,2,2,70,0,0
11828,-100,4,2,26,70,0,0
12062,-100,4,2,2,70,0,0
12290,-100,4,2,25,70,0,0
12523,-100,4,2,2,70,0,0
12752,-100,4,2,26,70,0,0
12985,-100,4,2,2,70,0,0
13213,-100,4,2,27,70,0,0
13446,-100,4,2,2,70,0,0
13675,-100,4,2,25,70,0,0
13908,-100,4,2,2,70,0,0
14136,-100,4,2,26,70,0,0
14370,-100,4,2,2,70,0,0
14598,-100,4,2,27,70,0,0
14831,-100,4,2,2,70,0,0
15059,-100,4,2,28,70,0,0
15293,-100,4,2,2,70,0,0
15521,-100,4,2,26,70,0,0
15754,-100,4,2,2,70,0,0
15985,-100,4,2,26,70,0,0
16216,-100,4,2,2,70,0,0
16677,-100,4,2,2,70,0,0
16908,-100,4,2,31,70,0,0
17139,-100,4,2,32,70,0,0
17254,-100,4,2,2,70,0,0
17370,-100,4,2,33,70,0,0
17600,-100,4,2,32,70,0,0
17831,-100,4,2,2,70,0,0
18062,-100,4,2,2,70,0,0
18985,-100,4,2,2,70,0,0
19908,-100,4,2,2,70,0,0
20370,-100,4,2,2,70,0,0
20831,-100,4,2,2,70,0,0
21293,-100,4,2,2,70,0,0
21754,-100,4,2,2,70,0,0
21985,-100,4,2,33,70,0,0
22216,-100,4,2,2,70,0,0
22446,-100,4,2,34,70,0,0
22677,-100,4,2,2,70,0,0
22908,-100,4,2,35,70,0,0
23139,-100,4,2,2,70,0,0
23600,-100,4,2,2,70,0,0
24062,-100,4,2,2,70,0,0
24293,-100,4,2,31,70,0,0
24523,-100,4,2,2,70,0,0
24754,-100,4,2,33,70,0,0
24985,-100,4,2,2,70,0,0
25216,-100,4,2,30,70,0,0
25446,-100,4,2,2,70,0,0
26139,-100,4,2,30,70,0,0
26370,-100,4,2,31,70,0,0
26485,-100,4,2,2,70,0,0
26831,-100,4,2,2,70,0,0
27523,-100,4,2,2,70,0,0
27754,-100,4,2,2,70,0,0
28216,-100,4,2,2,70,0,0
29831,-100,4,2,34,70,0,0
29946,-100,4,2,33,70,0,0
30062,-100,4,2,32,70,0,0
30177,-100,4,2,31,70,0,0
30293,-100,4,2,30,70,0,0
30408,-100,4,2,29,70,0,0
30523,-100,4,2,28,70,0,0
30639,-100,4,2,27,70,0,0
30754,-100,4,2,26,70,0,0
30870,-100,4,2,2,70,0,0
30985,-100,4,2,2,70,0,0
31216,-100,4,2,26,70,0,0
31446,-100,4,2,30,70,0,0
31677,-100,4,2,2,70,0,0
31908,-100,4,2,29,70,0,0
32023,-100,4,2,29,70,0,0
32139,-100,4,2,28,70,0,0
32370,-100,4,2,2,70,0,0
32831,-100,4,2,2,70,0,0
33293,-100,4,2,2,70,0,0
34216,-100,4,2,2,70,0,0
34677,-100,4,2,32,70,0,0
34908,-100,4,2,30,70,0,0
35139,-100,4,2,36,70,0,0
35370,-100,4,2,2,70,0,0
35600,-100,4,2,2,70,0,0
36062,-100,4,2,2,70,0,0
36523,-100,4,2,2,70,0,0
36985,-100,4,2,2,70,0,0
37446,-100,4,2,2,70,0,0
38139,-100,4,2,2,70,0,0
38370,-100,4,2,32,70,0,0
38600,-100,4,2,30,70,0,0
38831,-100,4,2,36,70,0,0
39062,-100,4,2,2,70,0,0
39293,-100,4,2,29,70,0,0
39523,-100,4,2,28,70,0,0
39754,-100,4,2,2,70,0,0
40216,-100,4,2,2,70,0,0
40677,-100,4,2,2,70,0,0
41139,-100,4,2,2,70,0,0
41370,-100,4,2,2,70,0,0
41831,-100,4,2,29,70,0,0
42062,-100,4,2,28,70,0,0
42293,-100,4,2,26,70,0,0
42523,-100,4,2,29,70,0,0
42754,-100,4,2,28,70,0,0
42985,-100,4,2,26,70,0,0
43216,-100,4,2,29,70,0,0
43446,-100,4,2,28,70,0,0
43908,-100,4,2,23,70,0,0
44023,-100,4,2,2,70,0,0
44139,-100,4,2,24,70,0,0
44370,-100,4,2,25,70,0,0
44600,-100,4,2,26,70,0,0
44831,-100,4,2,27,70,0,0
45062,-100,4,2,28,70,0,0
45293,-100,4,2,29,70,0,0
45523,-100,4,2,2,70,0,1
45754,-100,4,2,2,70,0,1
46216,-100,4,2,2,70,0,1
46677,-100,4,2,2,70,0,1
46908,-100,4,2,23,70,0,1
47139,-100,4,2,2,70,0,1
47600,-100,4,2,2,70,0,1
47828,-100,4,2,30,70,0,1
48062,-100,4,2,2,70,0,1
48293,-100,4,2,29,70,0,1
48523,-100,4,2,2,70,0,1
48751,-100,4,2,28,70,0,1
48985,-100,4,2,2,70,0,1
49446,-100,4,2,2,70,0,1
49908,-100,4,2,2,70,0,1
50370,-100,4,2,2,70,0,1
50600,-100,4,2,23,70,0,1
50831,-100,4,2,2,70,0,1
51293,-100,4,2,2,70,0,1
51523,-100,4,2,31,70,0,1
51754,-100,4,2,2,70,0,1
51985,-100,4,2,32,70,0,1
52216,-100,4,2,2,70,0,1
52446,-100,4,2,33,70,0,1
52677,-100,4,2,2,70,0,1
53139,-100,4,2,2,70,0,1
53600,-100,4,2,2,70,0,1
54062,-100,4,2,22,70,0,1
54293,-100,4,2,23,70,0,1
54523,-100,4,2,2,70,0,1
54985,-100,4,2,2,70,0,1
55446,-100,4,2,2,70,0,1
55908,-100,4,2,2,70,0,1
56139,-100,4,2,2,70,0,1
56370,-100,4,2,2,70,0,1
56597,-100,4,2,20,70,0,1
56600,-100,4,2,20,70,0,1
56831,-100,4,2,2,70,0,1
57290,-100,4,2,20,70,0,1
57408,-100,4,2,2,70,0,1
57982,-100,4,2,22,70,0,1
57985,-100,4,2,22,70,0,1
58213,-100,4,2,23,70,0,1
58216,-100,4,2,23,70,0,1
58446,-100,4,2,2,70,0,1
58680,-100,4,2,23,70,0,1
58793,-100,4,2,2,70,0,1
58905,-100,4,2,24,70,0,1
58908,-100,4,2,24,70,0,1
59136,-100,4,2,25,70,0,1
59139,-100,4,2,25,70,0,1
59254,-100,4,2,2,70,0,1
59369,-100,4,2,26,70,0,1
59370,-100,4,2,26,70,0,1
59485,-100,4,2,2,70,0,1
59600,-100,4,2,27,70,0,1
59716,-100,4,2,27,70,0,1
59831,-100,4,2,28,70,0,1
59946,-100,4,2,2,70,0,1
60523,-100,4,2,2,70,0,1
60985,-100,4,2,2,70,0,1
61446,-100,4,2,22,70,0,1
61562,-100,4,2,2,70,0,1
61677,-100,4,2,23,70,0,1
61908,-100,4,2,2,70,0,1
62369,-100,4,2,2,70,0,1
62600,-100,4,2,30,70,0,1
62831,-100,4,2,2,70,0,1
63062,-100,4,2,29,70,0,1
63292,-100,4,2,2,70,0,1
63293,-100,4,2,2,70,0,1
63523,-100,4,2,28,70,0,1
63754,-100,4,2,2,70,0,1
63985,-100,4,2,27,70,0,1
64216,-100,4,2,2,70,0,1
64446,-100,4,2,2,70,0,1
64677,-100,4,2,2,70,0,1
64908,-100,4,2,25,70,0,1
65139,-100,4,2,2,70,0,1
65369,-100,4,2,2,70,0,1
65600,-100,4,2,2,70,0,1
65831,-100,4,2,26,70,0,1
66062,-100,4,2,2,70,0,1
66523,-100,4,2,2,70,0,1
66985,-100,4,2,2,70,0,1
67446,-100,4,2,2,70,0,1
67908,-100,4,2,2,70,0,1
68369,-100,4,2,2,70,0,1
68831,-100,4,2,2,70,0,1
69062,-100,4,2,2,70,0,1
69523,-100,4,2,27,70,0,1
69754,-100,4,2,2,70,0,1
70215,-100,4,2,28,70,0,1
70216,-100,4,2,28,70,0,1
70446,-100,4,2,2,70,0,1
70677,-100,4,2,2,70,0,1
70908,-100,4,2,29,70,0,1
71139,-100,4,2,2,70,0,1
71370,-100,4,2,30,70,0,1
71600,-100,4,2,2,70,0,1
72062,-100,4,2,2,70,0,1
72523,-100,4,2,2,70,0,1
72754,-100,4,2,29,70,0,1
72985,-100,4,2,2,70,0,1
73216,-100,4,2,28,70,0,1
73440,-100,4,2,2,70,0,1
73446,-100,4,2,2,70,0,1
73908,-100,4,2,2,70,0,1
74139,-100,4,2,27,70,0,1
74254,-100,4,2,2,70,0,1
74370,-100,4,2,2,70,0,1
75062,-100,4,2,26,70,0,0
75293,-100,4,2,2,70,0,0
75523,-100,4,2,27,70,0,0
75754,-100,4,2,2,70,0,0
75985,-100,4,2,28,70,0,0
76216,-100,4,2,2,70,0,0
76446,-100,4,2,26,70,0,0
76677,-100,4,2,2,70,0,0
76908,-100,4,2,27,70,0,0
77139,-100,4,2,2,70,0,0
77369,-100,4,2,30,70,0,0
77600,-100,4,2,2,70,0,0
77831,-100,4,2,27,70,0,0
78062,-100,4,2,2,70,0,0
78292,-100,4,2,26,70,0,0
78523,-100,4,2,2,70,0,0
78754,-100,4,2,25,70,0,0
78985,-100,4,2,2,70,0,0
79216,-100,4,2,26,70,0,0
79446,-100,4,2,2,70,0,0
79677,-100,4,2,27,70,0,0
79908,-100,4,2,2,70,0,0
80139,-100,4,2,25,70,0,0
80370,-100,4,2,2,70,0,0
80600,-100,4,2,26,70,0,0
80831,-100,4,2,2,70,0,0
81062,-100,4,2,27,70,0,0
81293,-100,4,2,2,70,0,0
81523,-100,4,2,28,70,0,0
81754,-100,4,2,2,70,0,0
81985,-100,4,2,26,70,0,0
82216,-100,4,2,2,70,0,0
82444,-100,4,2,26,50,0,0
82446,-100,4,2,26,50,0,0
82677,-100,4,2,2,50,0,0
82905,-100,4,2,27,50,0,0
83139,-100,4,2,2,50,0,0
83367,-100,4,2,28,50,0,0
83600,-100,4,2,2,50,0,0
83828,-100,4,2,26,50,0,0
84062,-100,4,2,2,50,0,0
84290,-100,4,2,27,50,0,0
84523,-100,4,2,2,50,0,0
84751,-100,4,2,30,50,0,0
84985,-100,4,2,2,50,0,0
85213,-100,4,2,27,50,0,0
85446,-100,4,2,2,50,0,0
85674,-100,4,2,26,50,0,0
85908,-100,4,2,2,50,0,0
86136,-100,4,2,25,50,0,0
86370,-100,4,2,2,50,0,0
86598,-100,4,2,26,50,0,0
86831,-100,4,2,2,50,0,0
87059,-100,4,2,27,50,0,0
87293,-100,4,2,2,50,0,0
87521,-100,4,2,25,50,0,0
87754,-100,4,2,2,50,0,0
87982,-100,4,2,26,50,0,0

[Colours]
Combo1 : 255,128,128
Combo2 : 105,176,255
Combo3 : 128,128,255
Combo4 : 255,128,64

[HitObjects]
32,326,639,5,0,3:2:0:0:
32,326,755,1,0,1:2:0:0:
32,326,870,1,0,3:2:0:0:
67,104,1216,6,0,L|94:194,1,75,6|0,0:2|0:2,0:0:0:0:
155,342,1677,2,0,L|171:249,1,75,2|0,3:2|0:2,0:0:0:0:
324,217,2139,2,0,P|278:210|255:188,1,75,2|0,3:2|0:2,0:0:0:0:
416,268,2600,1,2,3:2:0:0:
416,268,2831,1,0,0:2:0:0:
430,150,3062,6,0,L|520:180,1,75,2|0,3:2|0:2,0:0:0:0:
354,25,3523,2,0,P|366:67|349:109,1,75,2|0,3:2|0:2,0:0:0:0:
199,131,3985,2,0,L|284:111,1,75,2|0,3:2|0:2,0:0:0:0:
106,97,4446,1,2,3:2:0:0:
106,97,4677,1,0,0:2:0:0:
59,221,4908,6,0,P|48:186|15:153,1,75,2|0,3:2|0:2,0:0:0:0:
142,231,5370,2,0,P|195:220|224:233,1,75,2|0,3:2|0:2,0:0:0:0:
312,280,5831,2,0,L|289:185,1,75,2|0,3:2|0:2,0:0:0:0:
399,303,6293,1,2,3:2:0:0:
399,303,6523,1,0,0:2:0:0:
222,227,6754,6,0,L|322:198,1,75,2|0,3:2|0:2,0:0:0:0:
475,141,7216,2,0,P|420:136|394:145,1,75,2|0,3:2|3:2,0:0:0:0:
375,184,7562,1,0,3:2:0:0:
375,184,7677,1,2,3:2:0:0:
375,184,7793,2,0,L|378:265,1,75,0|0,1:2|0:0,0:0:0:0:
340,290,8139,1,2,1:2:0:0:
295,283,8254,1,0,1:2:0:0:
250,277,8370,1,0,3:2:0:0:
160,171,8600,6,0,L|259:181,1,75,6|0,1:2|0:2,0:0:0:0:
74,127,9062,2,0,L|-24:155,1,75,10|0,1:2|0:2,0:0:0:0:
91,294,9523,2,0,P|74:259|87:211,1,75,2|0,3:2|0:2,0:0:0:0:
165,338,9985,1,10,1:2:0:0:
165,338,10216,1,0,0:2:0:0:
5,238,10446,6,0,L|106:218,1,75,2|0,3:2|0:2,0:0:0:0:
165,338,10908,2,0,P|155:305|173:261,1,75,10|0,1:2|0:2,0:0:0:0:
235,99,11370,2,0,L|259:182,1,75,2|0,3:2|0:2,0:0:0:0:
308,52,11831,1,10,1:2:0:0:
308,52,12062,1,0,0:2:0:0:
449,77,12293,6,0,P|417:97|380:96,1,75,2|0,3:2|0:2,0:0:0:0:
200,36,12754,2,0,P|229:69|234:108,1,75,10|0,1:2|0:2,0:0:0:0:
322,277,13216,2,0,L|306:189,1,75,2|0,3:2|0:2,0:0:0:0:
262,346,13677,1,10,1:2:0:0:
262,346,13908,1,0,0:2:0:0:
399,330,14139,6,0,P|381:274|357:254,1,75,2|8,3:2|1:2,0:0:0:0:
457,219,14600,2,0,L|475:142,1,75,10|0,1:2|3:2,0:0:0:0:
484,106,14946,1,0,3:2:0:0:
484,106,15062,1,10,1:2:0:0:
415,22,15293,1,2,3:2:0:0:
378,28,15408,1,0,0:0:0:0:
402,54,15523,1,10,1:2:0:0:
300,82,15754,1,10,1:2:0:0:
134,39,15985,6,0,L|219:60,1,75,6|0,3:2|0:2,0:0:0:0:
337,147,16446,2,0,L|300:82,1,75,0|0,3:2|0:2,0:0:0:0:
114,83,16908,5,2,1:2:0:0:
180,154,17139,1,2,0:2:0:0:
19,238,17370,5,2,3:2:0:0:
42,149,17600,1,2,0:2:0:0:
146,218,17831,6,0,P|224:198|293:223,1,150,0|0,3:2|3:2,0:0:0:0:
352,167,18523,2,0,L|331:95,1,75,0|2,0:2|1:2,0:0:0:0:
446,149,18985,1,0,0:2:0:0:
495,233,19216,1,0,3:2:0:0:
438,312,19446,1,0,0:2:0:0:
279,275,19677,6,0,P|315:259|351:254,1,75,2|0,3:2|0:2,0:0:0:0:
187,266,20139,2,0,P|151:275|101:248,1,75,0|0,3:2|0:2,0:0:0:0:
33,343,20600,1,2,1:2:0:0:
21,246,20831,1,0,0:2:0:0:
11,148,21062,1,0,3:2:0:0:
116,262,21293,5,0,0:2:0:0:
116,262,21408,1,0,0:0:0:0:
116,262,21523,2,0,P|151:234|207:225,1,75,0|0,3:2|0:2,0:0:0:0:
413,281,21985,2,0,L|342:256,1,75,2|0,3:2|0:2,0:0:0:0:
265,316,22446,1,2,1:2:0:0:
116,262,22677,2,0,L|132:181,2,75,2|2|0,0:2|3:2|0:2,0:0:0:0:
11,119,23370,6,0,P|65:125|115:104,1,75,2|0,3:2|0:2,0:0:0:0:
161,60,23831,1,0,3:2:0:0:
252,93,24062,1,0,0:2:0:0:
348,106,24293,2,0,L|437:83,1,75,2|0,1:2|0:2,0:0:0:0:
456,213,24754,2,0,P|489:170|487:132,1,75,2|0,3:2|0:2,0:0:0:0:
402,285,25216,6,0,P|349:245|309:247,1,75,2|0,3:2|0:2,0:0:0:0:
265,303,25677,1,0,3:2:0:0:
177,276,25908,1,0,0:2:0:0:
177,276,26023,1,0,0:0:0:0:
177,276,26139,1,2,1:2:0:0:
88,316,26370,2,0,L|12:327,2,75,2|0|0,0:2|3:2|0:2,0:0:0:0:
124,133,27062,6,0,P|109:173|123:214,1,75,2|0,3:2|0:2,0:0:0:0:
177,276,27523,1,0,3:2:0:0:
265,303,27754,1,0,0:2:0:0:
265,303,27870,1,0,0:2:0:0:
265,303,27985,2,0,L|361:276,1,75,2|0,1:2|0:2,0:0:0:0:
478,246,28446,2,0,P|439:250|405:206,1,75,0|2,3:2|0:2,0:0:0:0:
407,179,28793,1,0,0:2:0:0:
376,141,28908,6,0,L|283:127,1,75,2|0,3:2|0:2,0:0:0:0:
204,137,29370,1,0,3:2:0:0:
162,224,29600,1,0,0:2:0:0:
238,361,29831,5,2,1:2:0:0:
228,313,29946,1,2,3:2:0:0:
186,287,30062,1,2,3:2:0:0:
137,289,30177,1,2,3:2:0:0:
99,246,30293,5,2,1:2:0:0:
109,190,30408,1,2,1:2:0:0:
157,161,30523,1,2,1:2:0:0:
210,178,30639,1,2,1:2:0:0:
210,178,30754,5,14,3:2:0:0:
307,200,30985,2,0,L|381:177,1,75,0|8,0:2|1:2,0:0:0:0:
512,280,31446,2,0,L|424:251,1,75,2|0,0:2|3:2,0:0:0:0:
389,331,31908,1,2,0:2:0:0:
286,308,32139,2,0,L|294:387,1,75,2|0,3:2|0:2,0:0:0:0:
204,241,32600,5,0,3:2:0:0:
115,199,32831,2,0,P|71:194|32:170,1,75,0|10,0:2|1:2,0:0:0:0:
153,48,33293,2,0,L|146:123,1,75,0|0,0:2|3:2,0:0:0:0:
240,145,33754,1,0,0:2:0:0:
204,241,33985,2,0,P|240:247|288:233,1,75,2|0,3:2|0:2,0:0:0:0:
512,231,34446,6,0,P|459:214|411:228,1,75,0|2,3:2|0:2,0:0:0:0:
368,282,34908,1,10,1:2:0:0:
275,384,35139,2,0,L|267:308,1,75,2|0,0:2|3:2,0:0:0:0:
183,220,35600,1,0,0:2:0:0:
29,276,35831,6,0,L|122:270,1,75,2|0,3:2|0:2,0:0:0:0:
183,220,36293,1,0,3:2:0:0:
259,280,36523,1,0,0:2:0:0:
353,253,36754,1,10,1:2:0:0:
469,187,36985,2,0,L|367:165,1,75,0|0,0:2|3:2,0:0:0:0:
250,3,37446,1,0,0:2:0:0:
232,99,37677,1,2,3:2:0:0:
324,68,37908,1,0,0:2:0:0:
0,43,38139,6,0,L|90:25,1,75,0|2,3:2|0:2,0:0:0:0:
156,79,38600,1,10,1:2:0:0:
152,176,38831,1,2,0:2:0:0:
310,221,39062,2,0,P|265:221|234:235,1,75,0|2,3:2|0:2,0:0:0:0:
215,327,39523,1,2,3:2:0:0:
17,193,39754,6,0,L|91:230,1,75,0|0,0:2|3:2,0:0:0:0:
105,384,40216,2,0,P|92:329|108:296,1,75,0|10,0:2|1:2,0:0:0:0:
324,330,40677,1,0,0:2:0:0:
409,282,40908,1,0,3:2:0:0:
320,240,41139,1,0,0:2:0:0:
452,132,41370,2,0,L|369:147,1,75,8|8,3:2|3:2,0:0:0:0:
154,373,41831,5,6,1:2:0:0:
135,284,42062,1,2,3:2:0:0:
114,196,42293,1,2,3:2:0:0:
223,41,42523,5,2,1:2:0:0:
210,130,42754,1,2,3:2:0:0:
195,218,42985,1,2,3:2:0:0:
364,175,43216,5,2,1:2:0:0:
286,220,43446,1,10,1:2:0:0:
7,228,43908,5,2,3:2:0:0:
7,228,44023,1,0,3:2:0:0:
7,228,44139,1,10,1:2:0:0:
79,165,44370,1,2,3:2:0:0:
171,182,44600,1,10,3:2:0:0:
258,369,44831,5,2,3:2:0:0:
223,269,45062,1,10,0:2:0:0:
288,186,45293,1,2,0:2:0:0:
505,112,45523,6,0,P|458:107|417:120,1,75,6|0,1:2|0:2,0:0:0:0:
381,197,45985,1,10,3:2:0:0:
433,279,46216,1,0,0:2:0:0:
293,234,46446,5,0,3:2:0:0:
239,315,46677,1,0,0:2:0:0:
142,312,46908,1,10,3:2:0:0:
19,261,47139,2,0,L|107:237,1,75,0|0,0:2|1:2,0:0:0:0:
239,315,47600,5,0,0:2:0:0:
333,356,47831,2,0,P|332:307|358:277,1,75,10|0,3:2|0:2,0:0:0:0:
500,201,48293,2,0,L|427:221,1,75,2|0,3:2|0:2,0:0:0:0:
290,152,48754,1,10,3:2:0:0:
290,152,48985,1,0,0:2:0:0:
47,90,49216,6,0,P|92:75|127:80,1,75,2|0,1:2|0:2,0:0:0:0:
164,163,49677,1,10,3:2:0:0:
115,247,49908,1,0,0:2:0:0:
254,170,50139,5,0,3:2:0:0:
349,188,50370,1,0,0:2:0:0:
419,121,50600,1,10,3:2:0:0:
339,4,50831,2,0,L|347:92,1,75,0|0,0:2|1:2,0:0:0:0:
349,188,51293,5,0,0:2:0:0:
473,278,51523,2,0,P|426:261|390:265,1,75,10|0,3:2|0:2,0:0:0:0:
305,384,51985,2,0,L|288:302,1,75,2|0,3:2|0:2,0:0:0:0:
167,155,52446,2,0,L|187:230,1,75,10|0,3:2|0:2,0:0:0:0:
48,306,52908,6,0,P|83:316|127:301,1,75,2|0,1:2|0:2,0:0:0:0:
186,227,53370,1,10,3:2:0:0:
266,282,53600,2,0,L|253:355,1,75,0|0,0:2|3:2,0:0:0:0:
353,267,54062,1,2,0:2:0:0:
439,312,54293,1,10,3:2:0:0:
494,184,54523,6,0,L|408:197,1,75,0|2,0:2|1:2,0:0:0:0:
353,267,54985,1,0,0:2:0:0:
270,213,55216,1,10,3:2:0:0:
176,239,55446,2,0,L|147:310,1,75,0|0,0:2|3:2,0:0:0:0:
30,233,55908,1,0,0:2:0:0:
126,249,56139,1,10,3:2:0:0:
221,267,56370,1,0,0:2:0:0:
351,178,56600,6,0,P|282:198|232:140,1,150,2|8,1:2|3:2,0:0:0:0:
153,90,57293,1,2,0:2:0:0:
27,177,57523,2,0,L|110:163,1,75,0|0,1:2|0:2,0:0:0:0:
255,275,57985,1,10,3:2:0:0:
287,182,58216,1,2,0:2:0:0:
401,22,58446,6,0,P|433:66|424:103,1,75,0|2,1:2|1:2,0:0:0:0:
392,118,58793,1,0,1:2:0:0:
392,118,58908,1,2,3:2:0:0:
301,85,59139,5,2,1:2:0:0:
261,58,59254,1,0,1:2:0:0:
213,49,59370,1,2,3:2:0:0:
166,61,59485,1,0,1:2:0:0:
130,93,59600,1,2,3:2:0:0:
38,171,59831,5,2,1:2:0:0:
85,171,59946,1,0,1:2:0:0:
127,194,60062,1,2,1:2:0:0:
147,236,60177,1,0,1:2:0:0:
140,283,60293,6,0,L|167:367,1,75,14|0,1:2|0:2,0:0:0:0:
247,279,60754,1,8,3:2:0:0:
334,323,60985,1,0,0:2:0:0:
495,198,61216,5,0,3:2:0:0:
397,204,61447,1,2,0:2:0:0:
348,119,61678,1,10,3:2:0:0:
208,190,61908,2,0,L|294:173,1,75,0|2,0:2|1:2,0:0:0:0:
397,204,62369,5,0,0:2:0:0:
483,61,62600,2,0,L|463:143,1,75,10|0,3:2|0:2,0:0:0:0:
308,43,63062,2,0,P|350:62|385:61,1,75,2|0,3:2|0:2,0:0:0:0:
208,87,63523,1,10,3:2:0:0:
208,87,63754,1,0,0:2:0:0:
41,10,63985,6,0,L|70:98,1,75,2|0,1:2|0:2,0:0:0:0:
102,171,64446,1,8,3:2:0:0:
21,306,64677,2,0,P|55:271|84:266,1,75,0|2,0:2|3:2,0:0:0:0:
160,320,65139,1,0,0:2:0:0:
254,294,65370,2,0,L|343:314,1,75,8|0,3:2|0:2,0:0:0:0:
467,190,65831,6,0,P|422:232|346:201,1,150,2|10,1:2|3:2,0:0:0:0:
177,194,66523,2,0,L|262:179,1,75,0|0,0:2|3:2,0:0:0:0:
251,82,66985,2,0,L|164:96,1,75,0|10,0:2|3:2,0:0:0:0:
58,33,67446,1,0,0:2:0:0:
28,187,67677,6,0,P|10:231|25:257,1,75,2|0,1:2|0:2,0:0:0:0:
97,314,68139,2,0,L|178:303,1,75,10|0,3:2|0:2,0:0:0:0:
265,328,68600,2,0,L|277:235,1,75,0|0,3:2|0:2,0:0:0:0:
315,164,69062,1,10,3:2:0:0:
247,76,69293,1,0,0:2:0:0:
2,149,69523,6,0,P|43:163|84:158,1,75,2|0,1:2|0:2,0:0:0:0:
158,111,69985,1,8,3:2:0:0:
319,95,70216,2,0,L|222:69,1,75,2|0,0:2|3:2,0:0:0:0:
370,164,70677,1,0,0:2:0:0:
319,329,70908,1,10,3:2:0:0:
273,252,71139,1,0,0:2:0:0:
463,221,71370,6,0,P|432:207|392:207,1,75,6|0,1:2|0:2,0:0:0:0:
273,252,71831,2,0,P|231:258|194:245,1,75,10|0,3:2|0:2,0:0:0:0:
247,124,72293,1,8,0:3:0:0:
247,124,72408,1,8,0:3:0:0:
247,124,72523,1,0,3:2:0:0:
84,83,72754,2,0,L|158:71,1,75,2|0,1:2|3:2,0:0:0:0:
10,148,73216,6,0,P|34:185|34:228,1,75,14|0,1:2|3:2,0:0:0:0:
127,321,73677,2,0,P|120:280|151:248,1,75,0|2,3:2|3:2,0:0:0:0:
194,173,74139,1,10,1:2:0:0:
306,116,74370,1,8,1:2:0:0:
416,184,74600,1,8,0:2:0:0:
416,184,74716,1,0,0:0:0:0:
416,184,74831,1,10,3:2:0:0:
249,10,75062,6,0,L|270:98,1,75,6|0,1:2|0:2,0:0:0:0:
103,151,75523,2,0,L|183:148,1,75,10|0,3:2|0:2,0:0:0:0:
281,268,75985,2,0,P|267:200|240:178,1,75,2|0,1:2|0:2,0:0:0:0:
358,304,76446,1,10,0:2:0:0:
358,304,76677,1,0,0:2:0:0:
473,208,76908,6,0,L|394:228,1,75,2|0,1:2|0:2,0:0:0:0:
248,147,77370,2,0,L|320:187,1,75,10|0,0:2|0:2,0:0:0:0:
195,77,77831,5,2,1:2:0:0:
139,206,78062,1,0,1:2:0:0:
45,165,78293,5,10,3:2:0:0:
0,44,78523,1,0,1:2:0:0:
0,301,78754,6,0,L|71:278,1,75,6|0,3:2|0:2,0:0:0:0:
209,379,79216,2,0,P|175:345|177:298,1,75,10|0,0:2|0:2,0:0:0:0:
241,251,79677,1,2,1:2:0:0:
241,251,79908,1,0,0:2:0:0:
333,282,80139,1,10,0:2:0:0:
333,282,80370,1,0,0:2:0:0:
418,236,80600,5,2,1:2:0:0:
396,140,80831,1,0,1:2:0:0:
301,164,81062,1,2,1:2:0:0:
328,257,81293,1,2,1:2:0:0:
148,94,81523,5,10,1:2:0:0:
259,155,81754,1,10,1:2:0:0:
196,266,81985,1,10,1:2:0:0:
83,206,82216,1,10,1:2:0:0:
29,320,82446,6,0,P|83:291|109:290,1,75,2|0,2:2|2:2,0:0:0:0:
201,371,82908,2,0,L|183:287,1,75,2|0,2:2|2:2,0:0:0:0:
260,251,83370,2,0,P|296:245|325:222,1,75,2|0,2:2|2:2,0:0:0:0:
343,125,83831,1,2,2:2:0:0:
462,228,84293,6,0,L|377:191,1,75,2|0,0:2|0:2,0:0:0:0:
361,58,84754,2,0,P|346:122|319:134,1,75,2|0,0:2|0:2,0:0:0:0:
180,137,85216,2,0,L|269:150,1,75,2|0,0:2|0:2,0:0:0:0:
287,239,85677,1,2,0:2:0:0:
228,316,86139,5,2,0:2:0:0:
395,215,86600,1,2,0:2:0:0:
291,49,87062,1,2,0:2:0:0:
126,152,87523,1,2,0:2:0:0:
228,316,87985,5,2,0:2:0:0:
