osu file format v14

[General]
AudioFilename: audio.mp3
AudioLeadIn: 0
PreviewTime: 45440
Countdown: 0
SampleSet: Normal
StackLeniency: 0.7
Mode: 1
LetterboxInBreaks: 0
WidescreenStoryboard: 0

[Editor]
DistanceSpacing: 1.3
BeatDivisor: 4
GridSize: 8
TimelineZoom: 1.5

[Metadata]
Title:Asayake no Starmine (Ramakun Breakbeat Funkot Remix)
TitleUnicode:朝焼けのスターマイン (Ramakun Breakbeat Funkot Remix)
Artist:Imai Asami
ArtistUnicode:今井麻美
Creator:Kanon Matsubara
Version:Muzukashii
Source:プラスティック・メモリーズ
Tags:Plastic Memories Randi Kirayato
BeatmapID:1977838
BeatmapSetID:749977

[Difficulty]
HPDrainRate:5
CircleSize:4
OverallDifficulty:5
ApproachRate:9
SliderMultiplier:1.4
SliderTickRate:1

[Events]
//Background and Video events
0,0,"909126.jpg",0,0
//Break Periods
//Storyboard Layer 0 (Background)
//Storyboard Layer 1 (Fail)
//Storyboard Layer 2 (Pass)
//Storyboard Layer 3 (Foreground)
//Storyboard Sound Samples

[TimingPoints]
1825,461.538461538462,4,1,0,50,1,0
16594,-100,4,1,0,40,0,0
31363,-100,4,1,0,45,0,0
46132,-100,4,1,0,60,0,1
60844,-100,4,1,0,60,0,0
60901,-100,4,1,0,60,0,1
75671,-100,4,1,0,50,0,0

[HitObjects]
256,192,1825,5,0,0:0:0:0:
256,192,2286,1,8,0:0:0:0:
256,192,2401,1,8,0:0:0:0:
256,192,2517,1,0,0:0:0:0:
256,192,2978,1,0,0:0:0:0:
256,192,3209,1,8,0:0:0:0:
256,192,3440,1,0,0:0:0:0:
256,192,3671,1,0,0:0:0:0:
256,192,4132,1,8,0:0:0:0:
256,192,4248,1,8,0:0:0:0:
256,192,4363,1,0,0:0:0:0:
256,192,4825,1,0,0:0:0:0:
256,192,5055,1,8,0:0:0:0:
256,192,5286,1,0,0:0:0:0:
256,192,5517,1,0,0:0:0:0:
256,192,5978,1,8,0:0:0:0:
256,192,6209,1,0,0:0:0:0:
256,192,6440,1,0,0:0:0:0:
256,192,6901,1,8,0:0:0:0:
256,192,7363,1,0,0:0:0:0:
256,192,7825,1,8,0:0:0:0:
256,192,8055,1,0,0:0:0:0:
256,192,8517,1,0,0:0:0:0:
256,192,8748,1,8,0:0:0:0:
256,192,8863,1,8,0:0:0:0:
256,192,8978,1,0,0:0:0:0:
256,192,9209,1,0,0:0:0:0:
256,192,9671,1,8,0:0:0:0:
256,192,9786,1,8,0:0:0:0:
256,192,9901,1,0,0:0:0:0:
256,192,10363,1,0,0:0:0:0:
256,192,10594,1,8,0:0:0:0:
256,192,10825,1,0,0:0:0:0:
256,192,11055,1,0,0:0:0:0:
256,192,11517,1,8,0:0:0:0:
256,192,11632,1,8,0:0:0:0:
256,192,11748,1,0,0:0:0:0:
256,192,12209,1,0,0:0:0:0:
256,192,12440,1,8,0:0:0:0:
256,192,12671,1,0,0:0:0:0:
256,192,12901,1,4,0:0:0:0:
256,192,13363,1,8,0:0:0:0:
256,192,13594,1,0,0:0:0:0:
256,192,13825,1,4,0:0:0:0:
256,192,14286,1,8,0:0:0:0:
256,192,14517,1,0,0:0:0:0:
256,192,14748,1,4,0:0:0:0:
256,192,15209,1,4,0:0:0:0:
256,192,15671,1,4,0:0:0:0:
256,192,15901,1,8,0:0:0:0:
256,192,16017,1,8,0:0:0:0:
256,192,16132,1,8,0:0:0:0:
256,192,16363,1,8,0:0:0:0:
256,192,16594,1,4,0:0:0:0:
256,192,17286,1,0,0:0:0:0:
256,192,17748,1,0,0:0:0:0:
256,192,18209,1,0,0:0:0:0:
256,192,18440,1,0,0:0:0:0:
256,192,19132,1,0,0:0:0:0:
256,192,19594,1,0,0:0:0:0:
256,192,19825,1,8,0:0:0:0:
256,192,20055,1,0,0:0:0:0:
256,192,20286,1,0,0:0:0:0:
256,192,20978,1,0,0:0:0:0:
256,192,21440,1,0,0:0:0:0:
256,192,21901,1,0,0:0:0:0:
256,192,22132,1,0,0:0:0:0:
256,192,22825,1,0,0:0:0:0:
256,192,23286,1,0,0:0:0:0:
256,192,23517,1,8,0:0:0:0:
256,192,23632,1,8,0:0:0:0:
256,192,23748,1,8,0:0:0:0:
256,192,23978,1,0,0:0:0:0:
256,192,24671,1,0,0:0:0:0:
256,192,25132,1,0,0:0:0:0:
256,192,25363,1,8,0:0:0:0:
256,192,25594,1,0,0:0:0:0:
256,192,25825,1,0,0:0:0:0:
256,192,26517,1,0,0:0:0:0:
256,192,26978,1,0,0:0:0:0:
256,192,27209,1,0,0:0:0:0:
256,192,27671,1,8,0:0:0:0:
256,192,28017,1,8,0:0:0:0:
256,192,28132,1,0,0:0:0:0:
256,192,28478,1,8,0:0:0:0:
256,192,28594,1,0,0:0:0:0:
256,192,28940,1,8,0:0:0:0:
256,192,29055,1,0,0:0:0:0:
256,192,29401,1,8,0:0:0:0:
256,192,29517,1,0,0:0:0:0:
256,192,29748,1,8,0:0:0:0:
256,192,29863,1,8,0:0:0:0:
256,192,29978,1,8,0:0:0:0:
256,192,30209,1,8,0:0:0:0:
256,192,30440,1,8,0:0:0:0:
256,192,30671,1,0,0:0:0:0:
256,192,30901,1,0,0:0:0:0:
256,192,31363,1,4,0:0:0:0:
256,192,31594,1,8,0:0:0:0:
256,192,32055,1,8,0:0:0:0:
256,192,32517,1,8,0:0:0:0:
256,192,32748,1,0,0:0:0:0:
256,192,32978,1,8,0:0:0:0:
256,192,33209,1,0,0:0:0:0:
256,192,33671,1,8,0:0:0:0:
256,192,33901,1,8,0:0:0:0:
256,192,34132,1,0,0:0:0:0:
256,192,34248,1,0,0:0:0:0:
256,192,34363,1,0,0:0:0:0:
256,192,34594,1,8,0:0:0:0:
256,192,35055,1,0,0:0:0:0:
256,192,35286,1,8,0:0:0:0:
256,192,35748,1,8,0:0:0:0:
256,192,36209,1,8,0:0:0:0:
256,192,36671,1,8,0:0:0:0:
256,192,36901,1,0,0:0:0:0:
256,192,37363,1,8,0:0:0:0:
256,192,37594,1,8,0:0:0:0:
256,192,37825,1,0,0:0:0:0:
256,192,37940,1,0,0:0:0:0:
256,192,38055,1,0,0:0:0:0:
256,192,38286,1,8,0:0:0:0:
256,192,38748,1,0,0:0:0:0:
256,192,38978,1,8,0:0:0:0:
256,192,39209,1,0,0:0:0:0:
256,192,39671,1,0,0:0:0:0:
256,192,39901,1,0,0:0:0:0:
256,192,40132,1,8,0:0:0:0:
256,192,40363,1,0,0:0:0:0:
256,192,40825,1,0,0:0:0:0:
256,192,41286,1,0,0:0:0:0:
256,192,41517,1,8,0:0:0:0:
256,192,41632,1,8,0:0:0:0:
256,192,41748,1,8,0:0:0:0:
256,192,41978,1,0,0:0:0:0:
256,192,42209,1,0,0:0:0:0:
256,192,42440,1,12,0:0:0:0:
256,192,42901,1,8,0:0:0:0:
256,192,43132,1,0,0:0:0:0:
256,192,43248,1,0,0:0:0:0:
256,192,43363,1,12,0:0:0:0:
256,192,43825,1,8,0:0:0:0:
256,192,44055,1,0,0:0:0:0:
256,192,44171,1,0,0:0:0:0:
256,192,44286,1,12,0:0:0:0:
256,192,44517,1,0,0:0:0:0:
256,192,44632,1,0,0:0:0:0:
256,192,44748,1,12,0:0:0:0:
256,192,44978,1,8,0:0:0:0:
256,192,45209,1,0,0:0:0:0:
256,192,45325,1,0,0:0:0:0:
256,192,45440,1,0,0:0:0:0:
256,192,45671,1,12,0:0:0:0:
256,192,46132,1,4,0:0:0:0:
256,192,46363,1,0,0:0:0:0:
256,192,46594,1,8,0:0:0:0:
256,192,46825,1,0,0:0:0:0:
256,192,47055,1,0,0:0:0:0:
256,192,47171,1,0,0:0:0:0:
256,192,47286,1,0,0:0:0:0:
256,192,47517,1,8,0:0:0:0:
256,192,47978,1,0,0:0:0:0:
256,192,48209,1,0,0:0:0:0:
256,192,48440,1,8,0:0:0:0:
256,192,49132,1,0,0:0:0:0:
256,192,49363,1,8,0:0:0:0:
256,192,49594,1,0,0:0:0:0:
256,192,49825,1,0,0:0:0:0:
256,192,50055,1,8,0:0:0:0:
256,192,50517,1,0,0:0:0:0:
256,192,50748,1,8,0:0:0:0:
256,192,50863,1,8,0:0:0:0:
256,192,50978,1,8,0:0:0:0:
256,192,51209,1,0,0:0:0:0:
256,192,51440,1,0,0:0:0:0:
256,192,51901,1,0,0:0:0:0:
256,192,52132,1,0,0:0:0:0:
256,192,52594,1,8,0:0:0:0:
256,192,52709,1,8,0:0:0:0:
256,192,52825,1,8,0:0:0:0:
256,192,53055,1,0,0:0:0:0:
256,192,53286,1,8,0:0:0:0:
256,192,53748,1,0,0:0:0:0:
256,192,53978,1,0,0:0:0:0:
256,192,54209,1,8,0:0:0:0:
256,192,54671,1,0,0:0:0:0:
256,192,54901,1,0,0:0:0:0:
256,192,55132,1,8,0:0:0:0:
256,192,55594,1,8,0:0:0:0:
256,192,56055,1,8,0:0:0:0:
256,192,56286,1,0,0:0:0:0:
256,192,56401,1,0,0:0:0:0:
256,192,56517,1,0,0:0:0:0:
256,192,56748,1,8,0:0:0:0:
256,192,56978,1,0,0:0:0:0:
256,192,57209,1,0,0:0:0:0:
256,192,57671,1,8,0:0:0:0:
256,192,57901,1,0,0:0:0:0:
256,192,58132,1,8,0:0:0:0:
256,192,58594,1,8,0:0:0:0:
256,192,58825,1,0,0:0:0:0:
256,192,58940,1,0,0:0:0:0:
256,192,59055,1,0,0:0:0:0:
256,192,59286,1,8,0:0:0:0:
256,192,59517,1,8,0:0:0:0:
256,192,59978,1,0,0:0:0:0:
256,192,60094,1,0,0:0:0:0:
256,192,60209,1,0,0:0:0:0:
256,192,60440,1,8,0:0:0:0:
256,192,60901,1,4,0:0:0:0:
256,192,61132,1,8,0:0:0:0:
256,192,61363,1,0,0:0:0:0:
256,192,61594,1,8,0:0:0:0:
256,192,62055,1,8,0:0:0:0:
256,192,62286,1,0,0:0:0:0:
256,192,62517,1,8,0:0:0:0:
256,192,62978,1,0,0:0:0:0:
256,192,63209,1,0,0:0:0:0:
256,192,63671,1,8,0:0:0:0:
256,192,63786,1,8,0:0:0:0:
256,192,63901,1,8,0:0:0:0:
256,192,64132,1,0,0:0:0:0:
256,192,64363,1,8,0:0:0:0:
256,192,64594,1,0,0:0:0:0:
256,192,64825,1,8,0:0:0:0:
256,192,65286,1,8,0:0:0:0:
256,192,65748,1,8,0:0:0:0:
256,192,65978,1,0,0:0:0:0:
256,192,66209,1,8,0:0:0:0:
256,192,66440,1,0,0:0:0:0:
256,192,66901,1,8,0:0:0:0:
256,192,67132,1,8,0:0:0:0:
256,192,67363,1,0,0:0:0:0:
256,192,67478,1,0,0:0:0:0:
256,192,67594,1,0,0:0:0:0:
256,192,67825,1,8,0:0:0:0:
256,192,68055,1,8,0:0:0:0:
256,192,68286,1,0,0:0:0:0:
256,192,68748,1,8,0:0:0:0:
256,192,68978,1,0,0:0:0:0:
256,192,69440,1,0,0:0:0:0:
256,192,69671,1,8,0:0:0:0:
256,192,69901,1,0,0:0:0:0:
256,192,70132,1,0,0:0:0:0:
256,192,70594,1,8,0:0:0:0:
256,192,71055,1,0,0:0:0:0:
256,192,71286,1,0,0:0:0:0:
256,192,71517,1,8,0:0:0:0:
256,192,71748,1,0,0:0:0:0:
256,192,72209,1,0,0:0:0:0:
256,192,72440,1,8,0:0:0:0:
256,192,72555,1,8,0:0:0:0:
256,192,72671,1,0,0:0:0:0:
256,192,73132,1,0,0:0:0:0:
256,192,73363,1,8,0:0:0:0:
256,192,73478,1,8,0:0:0:0:
256,192,73594,1,0,0:0:0:0:
256,192,73825,1,12,0:0:0:0:
256,192,74286,1,12,0:0:0:0:
256,192,74748,1,12,0:0:0:0:
256,192,74978,1,8,0:0:0:0:
256,192,75094,1,8,0:0:0:0:
256,192,75209,1,8,0:0:0:0:
256,192,75440,1,0,0:0:0:0:
256,192,75555,1,0,0:0:0:0:
256,192,75671,1,0,0:0:0:0:
256,192,75901,1,0,0:0:0:0:
256,192,76132,1,8,0:0:0:0:
256,192,76594,1,8,0:0:0:0:
256,192,77055,1,0,0:0:0:0:
256,192,77286,1,0,0:0:0:0:
256,192,77517,1,8,0:0:0:0:
256,192,77978,1,8,0:0:0:0:
256,192,78440,1,8,0:0:0:0:
256,192,78671,1,8,0:0:0:0:
256,192,78901,1,0,0:0:0:0:
256,192,79363,1,0,0:0:0:0:
256,192,79825,1,8,0:0:0:0:
256,192,80055,1,0,0:0:0:0:
256,192,80286,1,0,0:0:0:0:
256,192,80748,1,0,0:0:0:0:
256,192,81209,1,0,0:0:0:0:
256,192,81671,1,8,0:0:0:0:
256,192,81901,1,8,0:0:0:0:
256,192,82132,1,0,0:0:0:0:
256,192,82363,1,0,0:0:0:0:
256,192,82478,1,0,0:0:0:0:
256,192,82594,1,0,0:0:0:0:
256,192,82825,1,8,0:0:0:0:
256,192,83055,1,0,0:0:0:0:
256,192,83517,1,8,0:0:0:0:
256,192,83748,1,0,0:0:0:0:
256,192,83978,1,8,0:0:0:0:
256,192,84440,1,0,0:0:0:0:
256,192,84901,1,0,0:0:0:0:
256,192,85363,1,8,0:0:0:0:
256,192,85594,1,0,0:0:0:0:
256,192,85825,1,8,0:0:0:0:
256,192,86286,1,0,0:0:0:0:
256,192,86748,1,0,0:0:0:0:
256,192,87209,1,8,0:0:0:0:
256,192,87440,1,8,0:0:0:0:
256,192,87671,1,0,0:0:0:0:
256,192,88132,1,8,0:0:0:0:
256,192,88594,1,0,0:0:0:0:
256,192,88825,1,0,0:0:0:0:
256,192,89055,1,0,0:0:0:0:
256,192,89286,1,0,0:0:0:0:
256,192,89401,1,0,0:0:0:0:
256,192,89517,1,0,0:0:0:0:
256,192,89748,1,0,0:0:0:0:
256,192,89978,1,8,0:0:0:0:
256,192,90209,1,0,0:0:0:0:
256,192,90440,1,12,0:0:0:0:
