osu file format v14

[General]
AudioFilename: audio.mp3
AudioLeadIn: 0
PreviewTime: 45184
Countdown: 0
SampleSet: Soft
StackLeniency: 0.3
Mode: 0
LetterboxInBreaks: 0
WidescreenStoryboard: 0

[Editor]
Bookmarks: 1223,16569,31338,46107,60876,78876,83030,97800,112569,127338,142107,160569,179030,193800,210415,225184,239953,254723,269030
DistanceSpacing: 1.2
BeatDivisor: 4
GridSize: 4
TimelineZoom: 1

[Metadata]
Title:Asayake no Starmine
TitleUnicode:朝焼けのスターマイン
Artist:Imai Asami
ArtistUnicode:今井麻美
Creator:Andrea
Version:True Feelings
Source:プラスティック・メモリーズ
Tags:Plastic Memories Ed Ending osuplayer111 Sekai-nyan Sekaii Sekai Collab Collaboration
BeatmapID:1760392
BeatmapSetID:841126

[Difficulty]
HPDrainRate:6
CircleSize:4.5
OverallDifficulty:7
ApproachRate:8
SliderMultiplier:1.8
SliderTickRate:1

[Events]
//Background and Video events
0,0,"1.jpg",0,0
//Break Periods
2,79072,82276
//Storyboard Layer 0 (Background)
//Storyboard Layer 1 (Fail)
//Storyboard Layer 2 (Pass)
//Storyboard Layer 3 (Foreground)
//Storyboard Sound Samples

[TimingPoints]
1796,461.538461538462,4,2,1,60,1,0
42411,-100,4,2,1,80,0,0
46103,-100,4,2,1,80,0,1
60296,-100,4,2,1,60,0,1
60411,-100,4,2,1,80,0,1
75642,-100,4,2,1,60,0,0
75757,-100,4,2,1,40,0,0
78872,-100,4,2,1,5,0,0
83026,-100,4,2,1,60,0,0
108872,-100,4,2,1,80,0,0
112565,-100,4,2,1,80,0,1
126757,-100,4,2,1,60,0,1
126872,-100,4,2,1,80,0,1
127334,-100,4,2,1,80,0,1
142103,-100,4,2,1,60,0,0
179026,-133.333333333333,4,2,2,40,0,0
193796,-133.333333333333,4,2,1,60,0,0
198988,-133.333333333333,4,2,1,40,0,0
199103,-133.333333333333,4,2,1,60,0,0
204872,-100,4,2,1,80,0,0
208219,-100,4,2,1,60,0,0
208334,-100,4,2,1,80,0,0
209719,-100,4,2,1,60,0,0
210411,-100,4,2,1,80,0,1
236488,-100,4,2,1,60,0,1
237872,-100,4,2,1,80,0,1
238796,-100,4,2,1,60,0,1
239257,-100,4,2,1,80,0,1
239949,-100,4,2,1,60,0,0
260257,-100,4,2,1,65,0,0
260719,-100,4,2,1,70,0,0
261180,-100,4,2,1,75,0,0
261642,-100,4,2,1,80,0,0
262103,-100,4,2,1,40,0,0

[Colours]
Combo1 : 255,255,128
Combo2 : 128,214,255
Combo3 : 255,128,128
Combo4 : 128,255,128

[HitObjects]
80,192,1219,6,0,L|32:192,2,45,0|8|0,0:0|0:0|0:0,0:0:0:0:
204,60,1796,5,4,0:0:0:0:
308,60,2026,1,0,0:0:0:0:
380,140,2257,2,0,P|396:184|380:224,1,90,2|0,0:0|0:0,0:0:0:0:
256,352,2719,2,0,P|240:308|256:268,1,90
336,308,3180,6,0,L|156:308,1,180,2|0,0:0|0:0,0:0:0:0:
64,248,3872,1,0,0:0:0:0:
64,136,4103,2,0,B|108:136|108:136|152:108,1,90,2|0,0:0|0:0,0:0:0:0:
240,52,4565,2,0,B|278:27|278:27|322:27,1,90
432,28,5026,6,0,B|432:80|432:80|456:124|456:124|456:204,1,180,2|0,0:0|0:0,0:0:0:0:
364,148,5719,1,0,0:0:0:0:
364,148,5949,2,0,L|364:240,1,90,2|0,0:0|0:0,0:0:0:0:
308,332,6411,1,0,0:0:0:0:
204,332,6642,1,0,0:0:0:0:
148,238,6872,6,0,P|85:192|148:148,1,180,2|0,0:0|0:0,0:0:0:0:
204,52,7565,1,0,0:0:0:0:
308,52,7796,1,2,0:0:0:0:
365,147,8026,1,0,0:0:0:0:
384,176,8142,1,8,0:0:0:0:
404,204,8257,1,2,0:0:0:0:
424,232,8372,1,8,0:0:0:0:
444,260,8488,1,0,0:0:0:0:
360,332,8719,1,10,0:0:0:0:
324,332,8834,1,8,0:0:0:0:
288,332,8949,1,8,0:0:0:0:
180,332,9180,6,0,P|136:332|100:304,1,90,4|0,0:0|0:0,0:0:0:0:
12,244,9642,1,8,0:0:0:0:
12,140,9872,1,0,0:0:0:0:
100,78,10103,2,0,P|135:52|180:52,1,90,2|0,0:0|0:0,0:0:0:0:
288,52,10565,6,0,B|352:52|352:52|396:72|396:72|464:72,1,180,8|2,0:0|0:0,0:0:0:0:
500,176,11257,1,0,0:0:0:0:
500,176,11488,2,0,B|512:220|512:220|500:264,1,90,8|0,0:0|0:0,0:0:0:0:
256,352,11949,2,0,B|244:308|244:308|256:264,1,90,2|0,0:0|0:0,0:0:0:0:
336,312,12411,6,0,B|244:280|244:336|156:312,1,180,8|2,0:0|0:0,0:0:0:0:
52,312,13103,1,0,0:0:0:0:
52,312,13334,2,0,B|28:272|28:272|28:228,1,90,8|0,0:0|0:0,0:0:0:0:
116,40,13796,2,0,B|140:80|140:80|140:124,1,90,2|0,0:0|0:0,0:0:0:0:
32,156,14257,6,0,B|124:156|124:156|196:216,1,180,8|2,0:0|0:0,0:0:0:0:
256,300,14949,1,8,0:0:0:0:
321,212,15180,1,8,0:0:0:0:
256,124,15411,1,0,0:0:0:0:
256,124,15526,1,0,0:0:0:0:
256,124,15642,1,10,0:0:0:0:
352,32,15872,1,0,0:0:0:0:
352,32,15988,1,0,0:0:0:0:
352,32,16103,1,8,0:0:0:0:
448,124,16334,1,0,0:0:0:0:
399,247,16565,6,0,P|344:246|307:267,1,90,4|0,0:0|0:0,0:0:0:0:
206,348,17026,1,2,0:0:0:0:
306,348,17257,1,0,0:0:0:0:
198,261,17488,2,0,P|157:243|113:247,1,90
16,328,17949,1,2,0:0:0:0:
112,352,18180,1,0,0:0:0:0:
24,208,18411,6,0,P|38:162|66:129,1,90
184,24,18872,1,2,0:0:0:0:
76,24,19103,1,0,0:0:0:0:
176,140,19334,2,0,B|176:192|176:192|196:224,1,90
308,336,19796,1,2,0:0:0:0:
204,336,20026,1,0,0:0:0:0:
315,224,20257,6,0,B|336:192|336:192|336:140,1,90
164,135,20719,2,0,B|164:187|164:187|184:219,1,90,2|0,0:0|0:0,0:0:0:0:
328,220,21180,2,0,B|348:188|348:188|348:136,1,90
150,135,21642,2,0,B|150:187|150:187|171:219,1,90,2|0,0:0|0:0,0:0:0:0:
308,336,22103,5,0,0:0:0:0:
204,336,22334,1,0,0:0:0:0:
256,232,22565,2,0,L|256:128,1,90,2|0,0:0|0:0,0:0:0:0:
354,47,23026,2,0,L|354:137,1,90
158,137,23488,2,0,L|158:47,1,90,2|0,0:0|0:0,0:0:0:0:
100,212,23949,5,0,0:0:0:0:
158,47,24180,1,0,0:0:0:0:
216,212,24411,1,2,0:0:0:0:
68,116,24642,1,0,0:0:0:0:
256,116,24872,2,0,P|264:72|256:28,1,90
100,212,25334,2,0,P|92:256|100:300,1,90,2|0,0:0|0:0,0:0:0:0:
256,304,25796,6,0,P|340:340|416:304,1,180,0|2,0:0|0:0,0:0:0:0:
336,168,26488,1,0,0:0:0:0:
336,168,26719,2,0,P|328:212|336:256,1,90
436,192,27180,2,0,P|444:148|436:104,1,90,2|0,0:0|0:0,0:0:0:0:
212,140,27642,6,0,L|28:140,1,180,0|2,0:0|0:0,0:0:0:0:
108,240,28334,1,0,0:0:0:0:
112,60,28565,2,0,L|212:60,1,90
108,240,29026,2,0,L|18:240,1,90,2|0,0:0|0:0,0:0:0:0:
196,344,29488,5,0,0:0:0:0:
316,344,29719,1,0,0:0:0:0:
196,236,29949,1,2,0:0:0:0:
316,236,30180,1,0,0:0:0:0:
196,344,30411,1,0,0:0:0:0:
316,236,30642,1,0,0:0:0:0:
196,236,30872,2,0,L|176:192,2,45,10|8|8,0:0|0:0|0:0,0:0:0:0:
316,344,31334,5,4,0:0:0:0:
412,292,31565,1,0,0:0:0:0:
316,236,31796,1,8,0:0:0:0:
412,184,32026,2,0,B|407:126|359:118|359:118|309:44,1,180,2|0,0:0|0:0,0:0:0:0:
256,140,32719,1,8,0:0:0:0:
202,44,32949,2,0,B|152:118|152:118|104:126|100:184,1,180,2|0,0:0|0:0,0:0:0:0:
16,248,33642,1,8,0:0:0:0:
84,332,33872,1,0,0:0:0:0:
180,280,34103,2,0,B|212:312|212:312|304:312|304:312|332:280,1,180,2|8,0:0|0:0,0:0:0:0:
332,172,34796,1,0,0:0:0:0:
180,172,35026,6,0,B|180:128|180:128|152:92,1,90,2|0,0:0|0:0,0:0:0:0:
256,60,35488,1,8,0:0:0:0:
361,91,35719,2,0,P|436:48|510:91,1,180,2|0,0:0|0:0,0:0:0:0:
436,192,36411,1,8,0:0:0:0:
509,293,36642,2,0,B|436:293|436:293|404:312|404:312|332:312,1,180,2|0,0:0|0:0,0:0:0:0:
256,384,37334,1,8,0:0:0:0:
177,312,37565,2,0,B|108:312|108:312|76:293|76:293|3:293,1,180,2|0,0:0|0:0,0:0:0:0:
76,192,38257,2,0,P|118:203|162:193,1,90,8|0,0:0|0:0,0:0:0:0:
162,19,38719,6,0,P|118:7|74:19,1,90,2|0,0:0|0:0,0:0:0:0:
162,193,39180,1,8,0:0:0:0:
256,120,39411,1,2,0:0:0:0:
350,193,39642,2,0,B|350:237|386:273|386:273|350:309|350:353,1,180,0|8,0:0|0:0,0:0:0:0:
162,352,40334,2,0,B|162:308|126:272|126:272|162:236|162:192,1,180,2|0,0:0|0:0,0:0:0:0:
256,272,41026,1,8,0:0:0:0:
256,272,41257,2,0,B|228:192|288:192|256:92,1,180,2|0,0:0|0:0,0:0:0:0:
336,20,41949,1,8,0:0:0:0:
176,20,42180,1,8,0:0:0:0:
176,20,42296,1,8,0:0:0:0:
176,20,42411,6,0,P|132:20|96:48,1,90,4|0,0:0|0:0,0:0:0:0:
108,212,42872,1,2,0:0:0:0:
108,212,43103,2,0,P|152:212|188:184,1,90,8|2,0:0|0:0,0:0:0:0:
336,20,43565,1,0,0:0:0:0:
336,20,43796,2,0,P|380:20|416:48,1,90,8|2,0:0|0:0,0:0:0:0:
325,184,44257,1,0,0:0:0:0:
187,184,44488,5,2,0:0:0:0:
187,184,44603,1,0,0:0:0:0:
187,184,44719,2,0,B|188:232|188:232|168:268,1,90,8|0,0:0|0:0,0:0:0:0:
99,271,45065,1,0,0:0:0:0:
99,271,45180,2,0,B|51:272|51:272|15:252,1,90,2|0,0:0|0:0,0:0:0:0:
14,251,45526,1,0,0:0:0:0:
14,251,45642,1,8,0:0:0:0:
84,112,45872,1,0,0:0:0:0:
140,216,46103,6,0,P|132:272|152:312,1,90,4|0,0:0|0:0,0:0:0:0:
171,104,46565,2,0,P|119:100|83:112,1,90,8|0,0:0|0:0,0:0:0:0:
256,192,47026,2,0,P|304:164|320:136,1,90,2|0,0:0|0:0,0:0:0:0:
380,32,47488,1,8,0:0:0:0:
256,68,47719,1,0,0:0:0:0:
412,156,47949,2,0,L|505:168,1,90,2|0,0:0|0:0,0:0:0:0:
439,258,48411,2,0,L|349:246,1,90,8|0,0:0|0:0,0:0:0:0:
286,335,48872,2,0,L|379:347,1,90,2|0,0:0|0:0,0:0:0:0:
440,248,49334,2,0,L|350:236,1,90,8|0,0:0|0:0,0:0:0:0:
136,272,49796,5,2,0:0:0:0:
56,192,50026,1,0,0:0:0:0:
136,112,50257,1,8,0:0:0:0:
215,192,50488,1,0,0:0:0:0:
56,192,50719,2,0,P|44:236|52:280,1,90,2|0,0:0|0:0,0:0:0:0:
136,112,51180,2,0,P|96:96|36:100,1,90,8|0,0:0|0:0,0:0:0:0:
215,192,51642,2,0,L|412:192,1,180,2|8,0:0|0:0,0:0:0:0:
360,292,52334,1,0,0:0:0:0:
392,116,52565,2,0,L|288:116,1,90,2|0,0:0|0:0,0:0:0:0:
360,292,53026,2,0,L|450:292,1,90,8|0,0:0|0:0,0:0:0:0:
196,264,53488,6,0,P|120:304|40:264,1,180,2|8,0:0|0:0,0:0:0:0:
120,136,54180,1,0,0:0:0:0:
120,136,54411,2,0,L|120:228,1,90,2|0,0:0|0:0,0:0:0:0:
24,172,54872,2,0,L|24:82,1,90,8|0,0:0|0:0,0:0:0:0:
256,36,55334,2,0,P|340:36|412:112,1,180,2|8,0:0|0:0,0:0:0:0:
456,216,56026,1,0,0:0:0:0:
504,128,56257,1,2,0:0:0:0:
344,196,56488,1,0,0:0:0:0:
504,128,56719,2,0,P|496:76|476:36,1,90,8|0,0:0|0:0,0:0:0:0:
344,196,57180,6,0,P|364:292|320:364,1,180,2|8,0:0|0:0,0:0:0:0:
168,196,57872,2,0,P|148:292|192:364,1,180,2|0,0:0|0:0,0:0:0:0:
256,268,58565,1,8,0:0:0:0:
256,268,58796,1,2,0:0:0:0:
324,44,59026,5,4,0:0:0:0:
188,44,59257,1,8,0:0:0:0:
188,44,59372,1,8,0:0:0:0:
188,44,59488,1,8,0:0:0:0:
68,132,59719,5,8,0:0:0:0:
28,153,59834,1,8,0:0:0:0:
2,189,59949,1,8,0:0:0:0:
0,233,60065,1,8,0:0:0:0:
6,276,60180,1,2,0:0:0:0:
35,310,60296,1,8,0:0:0:0:
75,329,60411,1,8,0:0:0:0:
120,328,60526,1,8,0:0:0:0:
160,308,60642,1,8,0:0:0:0:
188,273,60757,1,8,0:0:0:0:
204,232,60872,6,0,B|240:232|240:232|244:228|244:228|244:236|244:236|248:232|248:232|288:232,1,90,4|0,0:0|0:0,0:0:0:0:
484,304,61334,2,0,B|448:304|448:304|444:300|444:300|444:308|444:308|440:304|440:304|400:304,1,90,8|0,0:0|0:0,0:0:0:0:
405,80,61796,2,0,B|440:80|440:80|444:76|444:76|444:84|444:84|448:80|448:80|484:80,1,90,2|0,0:0|0:0,0:0:0:0:
316,32,62257,1,8,0:0:0:0:
256,120,62488,2,0,B|168:144|168:144|80:120,1,180,2|0,0:0|0:0,0:0:0:0:
82,263,63180,2,0,B|168:240|168:240|256:264,1,180,8|2,0:0|0:0,0:0:0:0:
360,300,63872,1,0,0:0:0:0:
360,300,64103,2,0,P|404:312|448:300,1,90,8|0,0:0|0:0,0:0:0:0:
446,82,64565,6,0,P|402:72|360:84,1,90,2|0,0:0|0:0,0:0:0:0:
256,56,65026,1,8,0:0:0:0:
256,56,65257,1,0,0:0:0:0:
65,82,65488,2,0,P|109:72|152:84,1,90,2|0,0:0|0:0,0:0:0:0:
151,300,65949,2,0,P|109:311|65:301,1,90,8|0,0:0|0:0,0:0:0:0:
16,192,66411,2,0,B|88:180|88:180|112:204|112:204|188:192,1,180,2|8,0:0|0:0,0:0:0:0:
292,172,67103,1,0,0:0:0:0:
292,172,67334,2,0,B|336:172|336:172|376:148,1,90,2|0,0:0|0:0,0:0:0:0:
316,60,67796,1,8,0:0:0:0:
375,148,68026,6,0,P|415:224|375:304,1,180,2|0,0:0|0:0,0:0:0:0:
256,352,68719,1,8,0:0:0:0:
135,302,68949,2,0,P|96:224|137:148,1,180,2|0,0:0|0:0,0:0:0:0:
256,192,69642,1,8,0:0:0:0:
196,104,69872,1,0,0:0:0:0:
316,104,70103,2,0,P|384:80|340:8,1,180,2|8,0:0|0:0,0:0:0:0:
172,7,70796,2,0,P|124:70|196:103,1,180,2|0,0:0|0:0,0:0:0:0:
256,192,71488,2,0,L|256:284,1,90,8|0,0:0|0:0,0:0:0:0:
148,284,71949,5,4,0:0:0:0:
312,380,72180,1,0,0:0:0:0:
200,380,72411,1,8,0:0:0:0:
364,284,72642,1,0,0:0:0:0:
256,192,72872,2,0,L|256:240,2,45,8|8|0,0:0|0:0|0:0,0:0:0:0:
320,32,73334,1,8,0:0:0:0:
256,120,73565,1,0,0:0:0:0:
192,32,73796,6,0,B|148:32|148:32|108:56,1,90,4|0,0:0|0:0,0:0:0:0:
36,192,74257,2,0,B|72:192|72:192|76:188|76:188|76:196|76:196|80:192|80:192|120:192,1,90,8|0,0:0|0:0,0:0:0:0:
192,352,74719,2,0,B|148:352|148:352|108:328,1,90,8|8,0:0|0:0,0:0:0:0:
114,192,75180,1,8,0:0:0:0:
256,256,75411,1,0,0:0:0:0:
398,192,75642,1,4,0:0:0:0:
256,192,75757,12,0,78872,0:0:0:0:
128,248,83026,6,0,B|176:248|176:248|212:280,1,90,4|0,0:0|0:0,0:0:0:0:
304,360,83488,1,8,0:0:0:0:
208,360,83719,1,0,0:0:0:0:
304,275,83949,2,0,B|336:248|336:248|384:248,1,90,2|0,0:0|0:0,0:0:0:0:
484,136,84411,1,8,0:0:0:0:
484,248,84642,1,0,0:0:0:0:
384,136,84872,6,0,B|296:136|296:92|212:92,1,180,2|8,0:0|0:0,0:0:0:0:
40,196,85565,1,0,0:0:0:0:
112,80,85796,1,2,0:0:0:0:
184,196,86026,1,0,0:0:0:0:
112,80,86257,2,0,P|152:36|196:16,1,90,8|0,0:0|0:0,0:0:0:0:
184,196,86719,6,0,P|156:280|208:372,1,180,2|8,0:0|0:0,0:0:0:0:
344,264,87411,1,0,0:0:0:0:
344,264,87642,2,0,L|240:272,1,90,2|0,0:0|0:0,0:0:0:0:
336,348,88103,2,0,L|425:341,1,90,8|0,0:0|0:0,0:0:0:0:
336,180,88565,6,0,L|141:194,2,180,2|8|2,0:0|0:0|0:0,0:0:0:0:
480,168,89719,1,0,0:0:0:0:
396,100,89949,1,8,0:0:0:0:
412,240,90180,1,0,0:0:0:0:
396,100,90411,6,0,B|348:100|348:100|312:64,1,90,2|0,0:0|0:0,0:0:0:0:
193,70,90872,1,8,0:0:0:0:
256,4,91103,1,0,0:0:0:0:
193,70,91334,2,0,B|164:100|164:100|116:100,1,90,2|0,0:0|0:0,0:0:0:0:
0,100,91796,1,8,0:0:0:0:
64,16,92026,1,0,0:0:0:0:
72,192,92257,6,0,P|152:216|192:308,1,180,2|8,0:0|0:0,0:0:0:0:
256,372,92949,1,0,0:0:0:0:
319,298,93180,2,0,L|356:216,1,90,2|0,0:0|0:0,0:0:0:0:
192,298,93642,2,0,L|156:216,1,90,8|0,0:0|0:0,0:0:0:0:
256,80,94103,6,0,L|256:180,1,90,2|0,0:0|0:0,0:0:0:0:
172,104,94565,1,8,0:0:0:0:
336,72,94796,1,0,0:0:0:0:
172,104,95026,2,0,P|168:56|188:12,1,90,2|0,0:0|0:0,0:0:0:0:
336,72,95488,2,0,P|352:113|347:157,1,90,8|0,0:0|0:0,0:0:0:0:
196,364,95949,5,2,0:0:0:0:
255,191,96180,1,0,0:0:0:0:
308,365,96411,1,8,0:0:0:0:
163,256,96642,1,0,0:0:0:0:
345,259,96872,6,0,L|368:204,1,45,2|0,0:0|0:0,0:0:0:0:
449,233,97103,2,0,L|467:192,1,45
432,112,97334,1,8,0:0:0:0:
404,97,97449,1,8,0:0:0:0:
373,91,97565,1,8,0:0:0:0:
342,96,97680,1,8,0:0:0:0:
314,111,97796,5,4,0:0:0:0:
256,20,98026,2,0,B|212:20|212:20|172:48,1,90,0|8,0:0|0:0,0:0:0:0:
87,115,98488,2,0,B|125:160|125:160|169:176|169:176|218:234,1,180,2|0,0:0|0:0,0:0:0:0:
336,360,99180,2,0,P|380:360|416:332,1,90,8|0,0:0|0:0,0:0:0:0:
296,205,99642,2,0,P|252:205|216:233,1,90,2|0,0:0|0:0,0:0:0:0:
132,300,100103,1,8,0:0:0:0:
40,192,100334,1,0,0:0:0:0:
132,84,100565,2,0,B|176:44|216:44|216:44|300:44,1,180,2|8,0:0|0:0,0:0:0:0:
408,44,101257,1,0,0:0:0:0:
492,192,101488,6,0,B|466:222|466:222|452:226|452:226|429:254,1,90,2|0,0:0|0:0,0:0:0:0:
348,324,101949,1,8,0:0:0:0:
348,324,102180,2,0,P|312:240|348:164,1,180,2|0,0:0|0:0,0:0:0:0:
164,164,102872,1,8,0:0:0:0:
164,164,103103,2,0,P|200:244|164:324,1,180,2|0,0:0|0:0,0:0:0:0:
82,254,103796,2,0,B|59:226|59:226|45:222|45:222|20:192,1,90,8|2,0:0|0:0,0:0:0:0:
78,101,104257,1,0,0:0:0:0:
164,164,104488,2,0,P|252:164|296:92,1,180,2|0,0:0|0:0,0:0:0:0:
400,56,105180,6,0,P|444:44|488:56,1,90,2|0,0:0|0:0,0:0:0:0:
444,192,105642,1,8,0:0:0:0:
444,192,105872,1,2,0:0:0:0:
400,328,106103,2,0,P|442:339|486:329,1,90
444,192,106565,1,8,0:0:0:0:
444,192,106796,2,0,P|368:148|296:192,1,180,2|0,0:0|0:0,0:0:0:0:
215,191,107488,1,8,0:0:0:0:
68,191,107719,2,0,P|141:147|215:191,1,180,2|0,0:0|0:0,0:0:0:0:
256,292,108411,1,8,0:0:0:0:
256,92,108642,1,0,0:0:0:0:
256,92,108757,1,0,0:0:0:0:
256,92,108872,6,0,B|300:68|300:68|340:68,1,90,4|0,0:0|0:0,0:0:0:0:
256,192,109334,1,2,0:0:0:0:
256,292,109565,2,0,B|212:316|212:316|172:316,1,90,8|2,0:0|0:0,0:0:0:0:
136,212,110026,1,0,0:0:0:0:
256,192,110257,1,8,0:0:0:0:
376,212,110488,1,2,0:0:0:0:
132,82,110949,5,2,0:0:0:0:
132,82,111065,1,0,0:0:0:0:
132,82,111180,2,0,P|87:81|50:105,1,90,8|0,0:0|0:0,0:0:0:0:
24,168,111526,1,0,0:0:0:0:
24,168,111642,2,0,P|1:205|2:250,1,90,2|0,0:0|0:0,0:0:0:0:
2,250,111988,1,0,0:0:0:0:
2,250,112103,1,8,0:0:0:0:
32,368,112334,1,0,0:0:0:0:
132,300,112565,6,0,P|175:298|204:265,1,90,4|0,0:0|0:0,0:0:0:0:
306,140,113026,1,8,0:0:0:0:
206,140,113257,1,0,0:0:0:0:
307,265,113488,2,0,P|336:298|380:300,1,90,2|0,0:0|0:0,0:0:0:0:
509,238,113949,1,8,0:0:0:0:
470,348,114180,1,0,0:0:0:0:
394,194,114411,2,0,L|424:14,1,180,2|8,0:0|0:0,0:0:0:0:
505,130,115103,1,0,0:0:0:0:
307,135,115334,2,0,L|326:40,1,90,2|0,0:0|0:0,0:0:0:0:
505,130,115796,2,0,L|487:218,1,90,8|0,0:0|0:0,0:0:0:0:
307,135,116257,6,0,P|226:171|134:121,1,180,2|8,0:0|0:0,0:0:0:0:
61,38,116949,1,0,0:0:0:0:
146,136,117180,2,0,L|66:216,1,90,2|0,0:0|0:0,0:0:0:0:
112,335,117642,2,0,L|176:272,1,90,8|0,0:0|0:0,0:0:0:0:
328,268,118103,2,0,P|405:238|508:287,1,180,2|8,0:0|0:0,0:0:0:0:
413,356,118796,1,0,0:0:0:0:
460,168,119026,2,0,P|412:160|364:168,1,90,2|0,0:0|0:0,0:0:0:0:
312,72,119488,2,0,P|272:108|256:152,1,90,8|0,0:0|0:0,0:0:0:0:
176,276,119949,6,0,P|96:312|16:272,1,180,2|8,0:0|0:0,0:0:0:0:
92,140,120642,1,2,0:0:0:0:
92,140,120872,2,0,L|96:240,1,90
184,140,121334,2,0,L|180:50,1,90,8|0,0:0|0:0,0:0:0:0:
376,192,121796,2,0,P|404:272|360:352,1,180,2|8,0:0|0:0,0:0:0:0:
256,284,122488,1,2,0:0:0:0:
150,351,122719,2,0,P|108:274|136:192,1,180,0|8,0:0|0:0,0:0:0:0:
256,100,123411,1,0,0:0:0:0:
376,192,123642,6,0,P|404:272|360:352,1,180,2|8,0:0|0:0,0:0:0:0:
135,192,124334,2,0,P|108:274|150:351,1,180,2|0,0:0|0:0,0:0:0:0:
256,284,125026,1,8,0:0:0:0:
256,284,125257,1,2,0:0:0:0:
64,136,125488,5,4,0:0:0:0:
179,83,125719,1,8,0:0:0:0:
179,83,125834,1,8,0:0:0:0:
179,83,125949,1,8,0:0:0:0:
332,83,126180,5,8,0:0:0:0:
368,57,126296,1,8,0:0:0:0:
412,52,126411,1,8,0:0:0:0:
454,68,126526,1,8,0:0:0:0:
482,102,126642,1,2,0:0:0:0:
491,146,126757,1,8,0:0:0:0:
479,189,126872,1,8,0:0:0:0:
447,220,126988,1,8,0:0:0:0:
405,233,127103,1,8,0:0:0:0:
361,224,127219,1,8,0:0:0:0:
327,196,127334,6,0,B|304:160|304:160|304:112,1,90,4|0,0:0|0:0,0:0:0:0:
256,16,127796,1,8,0:0:0:0:
256,16,128026,1,0,0:0:0:0:
208,112,128257,2,0,B|208:160|208:160|185:196,1,90,2|0,0:0|0:0,0:0:0:0:
256,280,128719,1,8,0:0:0:0:
256,280,128949,2,0,P|316:320|340:240,1,180,2|0,0:0|0:0,0:0:0:0:
256,104,129642,2,0,P|316:64|340:144,1,180,8|2,0:0|0:0,0:0:0:0:
112,192,130334,1,0,0:0:0:0:
256,280,130565,6,0,P|208:280|176:256,1,90,8|0,0:0|0:0,0:0:0:0:
175,128,131026,2,0,P|211:102|256:104,1,90,2|0,0:0|0:0,0:0:0:0:
320,192,131488,1,8,0:0:0:0:
320,192,131719,2,0,B|408:168|408:216|500:192,1,180,2|0,0:0|0:0,0:0:0:0:
376,264,132411,1,8,0:0:0:0:
456,124,132642,1,0,0:0:0:0:
308,64,132872,2,0,B|248:64|248:64|196:92|196:92|136:92,1,180,2|8,0:0|0:0,0:0:0:0:
136,292,133565,6,0,B|196:292|196:292|248:320|248:320|308:320,1,180,2|0,0:0|0:0,0:0:0:0:
404,272,134257,2,0,B|448:272|448:272|488:248,1,90,8|2,0:0|0:0,0:0:0:0:
487,136,134719,2,0,B|447:112|447:112|403:112,1,90
308,64,135180,1,8,0:0:0:0:
308,64,135411,2,0,P|228:28|148:64,1,180,2|0,0:0|0:0,0:0:0:0:
228,226,136103,2,0,L|228:136,1,90,8|0,0:0|0:0,0:0:0:0:
160,296,136565,2,0,B|208:296|228:345|228:345|248:296|296:296,1,180,2|8,0:0|0:0,0:0:0:0:
480,192,137257,2,0,B|432:192|412:143|412:143|392:192|344:192,1,180,2|0,0:0|0:0,0:0:0:0:
481,33,137949,6,0,P|496:74|480:115,1,90,8|0,0:0|0:0,0:0:0:0:
344,116,138411,2,0,P|327:74|342:33,1,90,4|0,0:0|0:0,0:0:0:0:
169,33,138872,2,0,P|184:74|168:116,1,90,8|0,0:0|0:0,0:0:0:0:
31,115,139334,1,8,0:0:0:0:
31,115,139449,1,8,0:0:0:0:
31,115,139565,2,0,P|15:74|30:33,1,90,2|8,0:0|0:0,0:0:0:0:
100,192,140026,1,0,0:0:0:0:
144,292,140257,6,0,B|144:336|144:336|172:372,1,90,4|0,0:0|0:0,0:0:0:0:
340,372,140719,2,0,B|368:336|368:336|368:292,1,90,8|0,0:0|0:0,0:0:0:0:
256,192,141180,2,0,B|244:148|244:148|256:104,1,90,10|8,0:0|0:0,0:0:0:0:
451,105,141642,2,0,B|463:149|463:149|451:193,1,90,8|0,0:0|0:0,0:0:0:0:
452,192,142103,6,0,P|380:192|312:292,1,180,4|8,0:0|0:0,0:0:0:0:
256,356,142796,1,0,0:0:0:0:
198,269,143026,2,0,L|156:168,1,90,2|0,0:0|0:0,0:0:0:0:
313,269,143488,2,0,L|356:168,1,90,8|0,0:0|0:0,0:0:0:0:
256,40,143949,6,0,L|256:228,1,180,2|8,0:0|0:0,0:0:0:0:
418,66,144642,1,0,0:0:0:0:
418,66,144757,1,0,0:0:0:0:
418,66,144872,1,2,0:0:0:0:
335,148,145103,1,0,0:0:0:0:
418,231,145334,1,8,0:0:0:0:
500,148,145565,1,0,0:0:0:0:
418,66,145796,6,0,P|343:35|254:68,1,180,2|8,0:0|0:0,0:0:0:0:
144,148,146488,1,2,0:0:0:0:
144,148,146603,1,0,0:0:0:0:
144,148,146719,2,0,P|104:108|92:76,1,90
216,224,147180,2,0,P|172:256|120:264,1,90,8|2,0:0|0:0,0:0:0:0:
336,296,147642,6,0,P|420:320|496:272,1,180,0|8,0:0|0:0,0:0:0:0:
428,192,148334,1,2,0:0:0:0:
428,192,148449,1,0,0:0:0:0:
428,192,148565,2,0,P|404:136|428:84,2,120,4|4|4,0:0|0:0|0:0,0:0:0:0:
200,88,149488,6,0,B|112:88|112:44|28:44,1,180,4|8,0:0|0:0,0:0:0:0:
64,236,150180,1,0,0:0:0:0:
64,236,150296,1,0,0:0:0:0:
64,236,150411,2,0,P|48:192|60:144,1,90,2|0,0:0|0:0,0:0:0:0:
160,256,150872,2,0,P|149:301|113:335,1,90,8|0,0:0|0:0,0:0:0:0:
320,148,151334,5,2,0:0:0:0:
192,148,151565,1,0,0:0:0:0:
316,44,151796,1,8,0:0:0:0:
196,44,152026,1,0,0:0:0:0:
196,44,152142,1,0,0:0:0:0:
196,44,152257,2,0,L|120:112,1,90,2|0,0:0|0:0,0:0:0:0:
316,44,152719,2,0,L|392:112,1,90,8|0,0:0|0:0,0:0:0:0:
256,312,153180,6,0,L|256:128,1,180,2|8,0:0|0:0,0:0:0:0:
376,256,153872,1,0,0:0:0:0:
376,256,153988,1,0,0:0:0:0:
376,256,154103,2,0,B|424:256|424:256|468:284,1,90,2|0,0:0|0:0,0:0:0:0:
376,128,154565,2,0,B|424:128|424:128|468:100,1,90,8|0,0:0|0:0,0:0:0:0:
296,192,155026,6,0,L|112:192,1,180,2|8,0:0|0:0,0:0:0:0:
4,192,155719,1,0,0:0:0:0:
4,192,155834,1,0,0:0:0:0:
4,192,155949,2,0,P|0:144|20:100,1,90,2|0,0:0|0:0,0:0:0:0:
96,32,156411,1,8,0:0:0:0:
256,120,156642,5,8,0:0:0:0:
256,120,156757,1,8,0:0:0:0:
256,120,156872,2,0,B|304:120|304:120|336:92,1,90,10|0,0:0|0:0,0:0:0:0:
256,264,157334,2,0,B|304:264|304:264|336:292,1,90,8|0,0:0|0:0,0:0:0:0:
256,96,157796,2,0,B|304:96|304:96|336:68,1,90,2|0,0:0|0:0,0:0:0:0:
256,288,158257,2,0,B|304:288|304:288|336:316,1,90,8|0,0:0|0:0,0:0:0:0:
180,192,158719,5,10,0:0:0:0:
180,192,158834,1,8,0:0:0:0:
180,192,158949,1,8,0:0:0:0:
64,116,159180,1,8,0:0:0:0:
48,252,159411,1,8,0:0:0:0:
48,252,159526,1,8,0:0:0:0:
48,252,159642,1,10,0:0:0:0:
184,92,159872,5,8,0:0:0:0:
218,64,159988,1,8,0:0:0:0:
261,50,160103,1,8,0:0:0:0:
306,52,160219,1,8,0:0:0:0:
347,69,160334,1,8,0:0:0:0:
379,100,160449,1,8,0:0:0:0:
399,140,160565,6,0,P|412:184|399:227,1,90,4|0,0:0|0:0,0:0:0:0:
256,356,161026,2,0,P|243:312|256:269,1,90,8|0,0:0|0:0,0:0:0:0:
400,225,161488,2,0,P|411:267|398:310,1,90,2|0,0:0|0:0,0:0:0:0:
254,270,161949,2,0,P|242:227|255:184,1,90,8|0,0:0|0:0,0:0:0:0:
324,100,162411,1,2,0:0:0:0:
256,16,162642,1,0,0:0:0:0:
188,100,162872,1,8,0:0:0:0:
254,184,163103,2,0,B|254:241|254:241|283:288|283:288|283:364,1,180,2|0,0:0|0:0,0:0:0:0:
328,212,163796,2,0,B|328:164|328:164|308:124,1,90,8|0,0:0|0:0,0:0:0:0:
180,216,164257,6,0,B|180:264|180:264|200:304,1,90,2|0,0:0|0:0,0:0:0:0:
284,356,164719,1,8,0:0:0:0:
284,356,164949,2,0,P|376:356|408:284,1,180,2|0,0:0|0:0,0:0:0:0:
408,99,165642,1,8,0:0:0:0:
408,99,165872,2,0,P|369:23|284:27,1,180,2|0,0:0|0:0,0:0:0:0:
188,80,166565,2,0,P|148:64|104:80,1,90,8|0,0:0|0:0,0:0:0:0:
105,305,167026,2,0,P|146:320|188:304,1,90,2|0,0:0|0:0,0:0:0:0:
148,140,167488,1,8,0:0:0:0:
148,244,167719,1,0,0:0:0:0:
32,192,167949,6,0,L|216:192,1,180,4|8,0:0|0:0,0:0:0:0:
480,192,168642,1,0,0:0:0:0:
480,192,168872,2,0,L|300:192,1,180,2|8,0:0|0:0,0:0:0:0:
256,92,169565,1,0,0:0:0:0:
212,192,169796,2,0,B|212:240|212:240|188:276,1,90,2|0,0:0|0:0,0:0:0:0:
240,372,170257,1,8,0:0:0:0:
240,372,170488,2,0,P|144:364|84:304,1,180,2|0,0:0|0:0,0:0:0:0:
36,212,171180,1,8,0:0:0:0:
128,44,171411,1,8,0:0:0:0:
128,44,171526,1,8,0:0:0:0:
128,44,171642,6,0,P|176:44|212:64,1,90,4|0,0:0|0:0,0:0:0:0:
296,136,172103,1,8,0:0:0:0:
296,136,172334,2,0,B|388:136|388:136|456:192,1,180,2|0,0:0|0:0,0:0:0:0:
456,300,173026,1,8,0:0:0:0:
256,356,173257,1,0,0:0:0:0:
256,356,173372,1,0,0:0:0:0:
256,356,173488,6,0,B|192:356|192:356|148:328|148:328|80:328,1,180,2|8,0:0|0:0,0:0:0:0:
84,56,174411,2,0,B|148:56|148:56|192:28|192:28|256:28,1,180,2|8,0:0|0:0,0:0:0:0:
480,192,175334,2,0,B|416:192|416:192|372:220|372:220|308:220,1,180,2|8,0:0|0:0,0:0:0:0:
212,264,176026,1,0,0:0:0:0:
112,308,176257,1,10,0:0:0:0:
112,308,176372,1,8,0:0:0:0:
112,308,176488,2,0,B|68:308|68:308|32:280,1,90,8|8,0:0|0:0,0:0:0:0:
31,105,176949,6,0,B|76:68|112:68|112:68|204:68,1,180,4|8,0:0|0:0,0:0:0:0:
311,68,177642,1,8,0:0:0:0:
256,160,177872,1,0,0:0:0:0:
311,252,178103,1,2,0:0:0:0:
311,252,178219,1,8,0:0:0:0:
311,252,178334,1,0,0:0:0:0:
201,252,178565,1,8,0:0:0:0:
201,252,178680,1,8,0:0:0:0:
201,252,178796,1,8,0:0:0:0:
84,136,179026,6,0,P|140:116|212:144,1,135.000005149842,4|2,0:0|0:0,0:0:0:0:
256,60,179719,1,0,0:0:0:0:
303,140,179949,2,0,P|364:116|428:136,1,135.000005149842,8|2,0:0|0:0,0:0:0:0:
376,264,180642,1,0,0:0:0:0:
376,264,180872,6,0,L|368:188,1,67.5000025749208
292,280,181334,2,0,L|299:347,1,67.5000025749208,2|0,0:0|0:0,0:0:0:0:
180,300,181796,2,0,B|116:300|116:264|48:264,1,135.000005149842,8|2,0:0|0:0,0:0:0:0:
68,352,182488,1,0,0:0:0:0:
144,208,182719,6,0,P|124:148|168:80,1,135.000005149842,0|2,0:0|0:0,0:0:0:0:
256,24,183411,1,0,0:0:0:0:
356,87,183642,2,0,P|400:88|436:104,1,67.5000025749208,8|0,0:0|0:0,0:0:0:0:
388,176,184103,2,0,P|423:201|443:236,1,67.5000025749208,2|0,0:0|0:0,0:0:0:0:
316,260,184565,6,0,L|168:300,2,135.000005149842,0|2|8,0:0|0:0|0:0,0:0:0:0:
256,192,185719,1,0,0:0:0:0:
193,129,185949,1,2,0:0:0:0:
256,67,186180,1,0,0:0:0:0:
318,129,186411,6,0,L|352:68,1,67.5000025749208
193,129,186872,2,0,L|160:70,1,67.5000025749208,2|0,0:0|0:0,0:0:0:0:
336,136,187334,2,0,L|370:75,1,67.5000025749208,8|0,0:0|0:0,0:0:0:0:
176,136,187796,2,0,L|142:75,1,67.5000025749208,2|0,0:0|0:0,0:0:0:0:
96,240,188257,6,0,P|160:240|212:296,1,135.000005149842,0|2,0:0|0:0,0:0:0:0:
256,368,188949,1,0,0:0:0:0:
303,287,189180,2,0,P|350:240|416:240,1,135.000005149842,8|2,0:0|0:0,0:0:0:0:
384,320,189872,1,0,0:0:0:0:
316,148,190103,6,0,P|256:176|196:148,1,135.000005149842,0|2,0:0|0:0,0:0:0:0:
256,44,190796,1,0,0:0:0:0:
316,148,191026,2,0,P|356:136|388:104,1,67.5000025749208,8|0,0:0|0:0,0:0:0:0:
196,148,191488,2,0,P|156:136|124:104,1,67.5000025749208,2|0,0:0|0:0,0:0:0:0:
88,300,191949,6,0,P|148:296|212:352,1,135.000005149842,0|2,0:0|0:0,0:0:0:0:
424,300,192642,2,0,P|357:297|306:339,1,135.000005149842
256,264,193334,2,0,L|256:220,1,33.7500012874604,2|0,0:0|0:0,0:0:0:0:
333,175,193565,2,0,L|333:215,1,33.7500012874604
420,172,193796,6,0,P|448:112|420:52,1,135.000005149842,4|8,0:0|0:0,0:0:0:0:
232,56,194719,1,2,0:0:0:0:
184,140,194949,1,0,0:0:0:0:
184,140,195065,1,0,0:0:0:0:
184,140,195180,1,8,0:0:0:0:
144,224,195411,2,0,P|116:284|144:344,1,135.000005149842,2|0,0:0|0:0,0:0:0:0:
256,356,196103,1,8,0:0:0:0:
369,342,196334,6,0,P|395:283|368:224,1,135.000005149842,2|0,0:0|0:0,0:0:0:0:
316,144,197026,1,8,0:0:0:0:
256,216,197257,1,0,0:0:0:0:
196,144,197488,2,0,P|128:144|80:100,1,135.000005149842,2|8,0:0|0:0,0:0:0:0:
116,12,198180,2,0,P|184:12|232:56,1,135.000005149842,2|0,0:0|0:0,0:0:0:0:
256,216,198872,5,8,0:0:0:0:
256,216,198988,1,8,0:0:0:0:
256,216,199103,2,0,B|256:252|256:252|272:280,1,67.5000025749208,0|2,0:0|0:0,0:0:0:0:
332,352,199565,1,0,0:0:0:0:
332,352,199796,2,0,P|397:354|443:308,1,135.000005149842,8|2,0:0|0:0,0:0:0:0:
488,224,200488,1,0,0:0:0:0:
444,140,200719,2,0,P|408:140|384:120,1,67.5000025749208,8|0,0:0|0:0,0:0:0:0:
304,72,201180,5,4,0:0:0:0:
208,72,201411,2,0,B|140:72|140:72|80:32,2,135.000005149842,2|2|0,0:0|0:0|0:0,0:0:0:0:
256,152,202565,2,0,B|248:184|248:184|256:224,1,67.5000025749208,8|2,0:0|0:0,0:0:0:0:
344,320,203026,2,0,B|352:288|352:288|344:248,1,67.5000025749208
254,217,203488,2,0,B|205:217|205:217|172:200|172:200|120:200,1,135.000005149842,8|2,0:0|0:0,0:0:0:0:
44,148,204180,5,8,0:0:0:0:
60,128,204296,1,8,0:0:0:0:
76,108,204411,1,8,0:0:0:0:
92,88,204526,1,8,0:0:0:0:
108,68,204642,1,8,0:0:0:0:
216,68,204872,6,0,B|260:68|260:68|300:92,1,90,4|0,0:0|0:0,0:0:0:0:
300,292,205334,2,0,B|260:316|260:316|216:316,1,90,8|4,0:0|0:0,0:0:0:0:
108,316,205796,1,2,0:0:0:0:
24,140,206026,1,0,0:0:0:0:
24,244,206257,1,8,0:0:0:0:
108,68,206488,6,0,B|156:24|156:24|272:24,1,180,10|10,0:0|0:0,0:0:0:0:
380,24,207180,1,8,0:0:0:0:
468,116,207411,1,8,0:0:0:0:
380,232,207642,1,10,0:0:0:0:
256,128,207872,1,8,0:0:0:0:
256,128,207988,1,10,0:0:0:0:
132,232,208219,1,8,0:0:0:0:
132,232,208334,1,10,0:0:0:0:
132,232,209719,6,0,P|80:232|48:208,2,90,0|2|0,0:0|0:0|0:0,0:0:0:0:
192,64,210411,5,4,0:0:0:0:
320,64,210642,1,0,0:0:0:0:
204,168,210872,1,8,0:0:0:0:
308,168,211103,1,0,0:0:0:0:
192,64,211334,2,0,L|132:132,1,90,2|0,0:0|0:0,0:0:0:0:
320,64,211796,2,0,L|380:132,1,90,8|0,0:0|0:0,0:0:0:0:
256,364,212257,5,2,0:0:0:0:
170,278,212488,1,0,0:0:0:0:
256,192,212719,1,8,0:0:0:0:
341,278,212949,1,0,0:0:0:0:
170,278,213180,2,0,P|156:232|160:184,1,90,2|0,0:0|0:0,0:0:0:0:
341,278,213642,2,0,P|342:322|329:365,1,90,8|0,0:0|0:0,0:0:0:0:
384,132,214103,6,0,B|340:132|340:132|308:96,1,90,2|0,0:0|0:0,0:0:0:0:
208,20,214565,1,8,0:0:0:0:
304,20,214796,1,2,0:0:0:0:
202,97,215026,2,0,B|172:132|172:132|128:132,1,90
202,286,215488,2,0,B|172:252|172:252|128:252,1,90,8|0,0:0|0:0,0:0:0:0:
288,192,215949,6,0,L|472:192,1,180,2|8,0:0|0:0,0:0:0:0:
380,300,216642,1,0,0:0:0:0:
400,116,216872,2,0,L|304:116,1,90,2|0,0:0|0:0,0:0:0:0:
204,116,217334,1,8,0:0:0:0:
256,24,217565,1,0,0:0:0:0:
176,280,217796,6,0,P|256:316|336:280,1,180,2|8,0:0|0:0,0:0:0:0:
420,212,218488,1,2,0:0:0:0:
424,320,218719,1,0,0:0:0:0:
328,192,218949,1,0,0:0:0:0:
424,320,219180,2,0,P|392:356|344:380,1,90,8|0,0:0|0:0,0:0:0:0:
328,192,219642,6,0,P|360:112|316:28,1,180,2|8,0:0|0:0,0:0:0:0:
256,112,220334,1,2,0:0:0:0:
190,32,220565,2,0,P|152:110|184:192,1,180,0|8,0:0|0:0,0:0:0:0:
348,340,221257,1,2,0:0:0:0:
348,340,221372,1,0,0:0:0:0:
348,340,221488,6,0,L|152:348,1,180,4|8,0:0|0:0,0:0:0:0:
216,248,222180,2,0,L|116:252,1,90,4|2,0:0|0:0,0:0:0:0:
126,251,222526,1,8,0:0:0:0:
126,251,222642,1,8,0:0:0:0:
32,284,222872,1,2,0:0:0:0:
192,132,223103,1,4,0:0:0:0:
192,132,223565,5,8,0:0:0:0:
320,132,223796,1,8,0:0:0:0:
256,24,224026,1,0,0:0:0:0:
177,140,224257,1,8,0:0:0:0:
334,140,224488,2,0,L|388:148,1,45,2|0,0:0|0:0,0:0:0:0:
408,246,224719,2,0,L|364:240,1,45,8|0,0:0|0:0,0:0:0:0:
304,320,224949,2,0,L|348:326,1,45
256,244,225180,6,0,P|212:244|172:220,1,90,4|0,0:0|0:0,0:0:0:0:
212,44,225642,2,0,P|256:44|296:68,1,90,8|0,0:0|0:0,0:0:0:0:
384,128,226103,1,2,0:0:0:0:
384,256,226334,1,0,0:0:0:0:
464,92,226565,1,8,0:0:0:0:
464,292,226796,2,0,P|392:344|304:332,1,180,2|0,0:0|0:0,0:0:0:0:
48,292,227488,2,0,P|120:344|208:332,1,180,8|2,0:0|0:0,0:0:0:0:
170,153,228180,1,0,0:0:0:0:
170,153,228411,2,0,L|148:244,1,90,8|0,0:0|0:0,0:0:0:0:
104,92,228872,6,0,P|192:76|256:132,1,180,2|8,0:0|0:0,0:0:0:0:
408,292,229565,2,0,P|320:308|256:252,1,180,2|0,0:0|0:0,0:0:0:0:
255,131,230257,2,0,B|291:131|291:131|308:140|308:140|344:140,1,90,8|0,0:0|0:0,0:0:0:0:
256,252,230719,2,0,B|220:252|220:252|203:243|203:243|167:243,1,90,2|0,0:0|0:0,0:0:0:0:
60,244,231180,1,8,0:0:0:0:
140,332,231411,2,0,B|167:243|167:243|140:160,1,180,2|0,0:0|0:0,0:0:0:0:
200,72,232103,1,8,0:0:0:0:
312,72,232334,1,0,0:0:0:0:
372,160,232565,6,0,B|345:243|345:243|372:332,1,180,2|8,0:0|0:0,0:0:0:0:
140,332,233257,2,0,P|175:252|140:172,1,180,2|0,0:0|0:0,0:0:0:0:
256,104,233949,1,8,0:0:0:0:
256,104,234180,1,0,0:0:0:0:
371,172,234411,2,0,P|336:252|372:332,1,180,2|8,0:0|0:0,0:0:0:0:
432,252,235103,2,0,L|252:252,1,180,2|0,0:0|0:0,0:0:0:0:
144,252,235796,1,8,0:0:0:0:
144,252,235911,1,8,0:0:0:0:
144,252,236026,1,2,0:0:0:0:
64,176,236257,6,0,B|48:132|48:132|64:92,1,90,4|0,0:0|0:0,0:0:0:0:
300,44,236719,2,0,B|256:60|256:60|216:44,1,90,2|0,0:0|0:0,0:0:0:0:
448,92,237180,1,0,0:0:0:0:
448,92,237296,1,0,0:0:0:0:
448,92,237411,2,0,B|464:132|464:132|448:176,1,90,8|2,0:0|0:0,0:0:0:0:
368,252,237872,2,0,B|296:252|296:252|256:272|256:272|192:272,1,180,4|4,0:0|0:0,0:0:0:0:
312,328,238565,2,0,L|404:328,1,90,2|0,0:0|0:0,0:0:0:0:
192,184,239026,1,8,0:0:0:0:
192,184,239257,2,0,B|264:184|264:184|304:164|304:164|368:164,1,180,4|2,0:0|0:0,0:0:0:0:
384,320,239949,6,0,P|336:320|296:284,1,90,4|0,0:0|0:0,0:0:0:0:
128,320,240411,2,0,P|176:320|216:284,1,90,8|0,0:0|0:0,0:0:0:0:
404,328,240872,2,0,P|356:328|316:292,1,90,2|0,0:0|0:0,0:0:0:0:
108,328,241334,2,0,P|156:328|196:292,1,90,8|0,0:0|0:0,0:0:0:0:
256,192,241796,5,2,0:0:0:0:
176,112,242026,1,0,0:0:0:0:
335,112,242257,2,0,L|376:24,1,90,8|0,0:0|0:0,0:0:0:0:
176,112,242719,2,0,L|135:24,1,90,2|0,0:0|0:0,0:0:0:0:
360,120,243180,2,0,L|401:32,1,90,8|0,0:0|0:0,0:0:0:0:
316,248,243642,5,2,0:0:0:0:
196,248,243872,1,0,0:0:0:0:
308,356,244103,1,8,0:0:0:0:
204,356,244334,1,0,0:0:0:0:
316,248,244565,2,0,B|360:248|360:248|400:284,1,90,2|0,0:0|0:0,0:0:0:0:
316,136,245026,2,0,B|360:136|360:136|400:100,1,90,8|0,0:0|0:0,0:0:0:0:
126,137,245488,6,0,P|110:85|114:41,1,90,2|0,0:0|0:0,0:0:0:0:
198,209,245949,2,0,P|146:241|106:237,1,90,8|0,0:0|0:0,0:0:0:0:
230,117,246411,2,0,P|278:117|322:141,1,90,2|0,0:0|0:0,0:0:0:0:
108,136,246872,2,0,P|92:84|96:40,1,90,8|0,0:0|0:0,0:0:0:0:
198,209,247334,6,0,P|168:288|208:372,1,180,4|8,0:0|0:0,0:0:0:0:
344,280,248026,1,0,0:0:0:0:
344,280,248257,2,0,L|240:288,1,90,2|0,0:0|0:0,0:0:0:0:
320,192,248719,2,0,L|409:185,1,90,8|0,0:0|0:0,0:0:0:0:
88,296,249180,5,2,0:0:0:0:
149,117,249411,1,0,0:0:0:0:
204,298,249642,1,8,0:0:0:0:
53,184,249872,1,0,0:0:0:0:
243,187,250103,2,0,P|260:144|260:96,1,90,2|0,0:0|0:0,0:0:0:0:
53,184,250565,2,0,P|54:228|70:270,1,90,8|0,0:0|0:0,0:0:0:0:
260,100,251026,6,0,B|344:100|344:60|436:60,1,180,2|8,0:0|0:0,0:0:0:0:
424,232,251719,1,0,0:0:0:0:
424,232,251949,2,0,P|400:192|404:136,1,90,2|0,0:0|0:0,0:0:0:0:
476,308,252411,2,0,P|432:324|388:320,1,90,8|0,0:0|0:0,0:0:0:0:
256,196,252872,5,2,0:0:0:0:
179,119,253103,1,0,0:0:0:0:
256,43,253334,1,8,0:0:0:0:
332,119,253565,2,0,L|368:76,2,45,0|0|10,0:0|0:0|0:0,0:0:0:0:
179,119,254026,1,8,0:0:0:0:
256,196,254257,2,0,L|256:268,1,45,8|8,0:0|0:0,0:0:0:0:
168,288,254488,2,0,L|168:244,1,45,8|0,0:0|0:0,0:0:0:0:
100,192,254719,6,0,P|85:150|101:109,1,90,4|0,0:0|0:0,0:0:0:0:
244,264,255180,2,0,P|258:305|242:346,1,90,8|0,0:0|0:0,0:0:0:0:
101,109,255642,2,0,P|142:125|183:110,1,90,2|0,0:0|0:0,0:0:0:0:
242,346,256103,2,0,P|200:329|159:344,1,90,8|0,0:0|0:0,0:0:0:0:
88,264,256565,5,2,0:0:0:0:
168,192,256796,1,0,0:0:0:0:
168,84,257026,2,0,B|152:40|152:40|164:-4,1,90,8|0,0:0|0:0,0:0:0:0:
348,0,257488,2,0,B|360:40|360:40|344:84,1,90,2|0,0:0|0:0,0:0:0:0:
344,192,257949,1,8,0:0:0:0:
256,132,258180,1,0,0:0:0:0:
256,252,258411,6,0,B|256:296|256:296|232:336,1,90,2|0,0:0|0:0,0:0:0:0:
256,132,258872,2,0,B|256:88|256:88|280:48,1,90,8|0,0:0|0:0,0:0:0:0:
232,272,259334,2,0,B|232:316|232:316|208:356,1,90,2|0,0:0|0:0,0:0:0:0:
280,112,259796,2,0,B|280:68|280:68|304:28,1,90,8|0,0:0|0:0,0:0:0:0:
412,28,260257,5,8,0:0:0:0:
412,28,260488,1,8,0:0:0:0:
484,192,260719,1,8,0:0:0:0:
484,192,260949,1,8,0:0:0:0:
412,356,261180,1,8,0:0:0:0:
412,356,261411,1,8,0:0:0:0:
256,268,261642,1,8,0:0:0:0:
256,268,261872,1,8,0:0:0:0:
100,356,262103,5,2,0:0:0:0:
76,328,262565,1,2,0:0:0:0:
53,300,263026,1,2,0:0:0:0:
30,273,263488,1,2,0:0:0:0:
30,111,263949,5,2,0:0:0:0:
53,84,264411,1,2,0:0:0:0:
76,56,264872,1,2,0:0:0:0:
100,28,265334,1,2,0:0:0:0:
236,112,265796,5,2,0:0:0:0:
272,112,266257,1,2,0:0:0:0:
309,112,266719,1,2,0:0:0:0:
344,112,267180,1,2,0:0:0:0:
344,272,267642,5,2,0:0:0:0:
309,272,268103,1,2,0:0:0:0:
272,272,268565,1,2,0:0:0:0:
236,272,269026,1,2,0:0:0:0:
