osu file format v14

[General]
AudioFilename: audio.mp3
AudioLeadIn: 0
PreviewTime: 37834
Countdown: 0
SampleSet: Normal
StackLeniency: 0.7
Mode: 1
LetterboxInBreaks: 0
WidescreenStoryboard: 0

[Editor]
Bookmarks: 13093,25561,38028
DistanceSpacing: 1.3
BeatDivisor: 12
GridSize: 8
TimelineZoom: 3.199999

[Metadata]
Title:Enemy (TV Size)
TitleUnicode:Enemy (TV Size)
Artist:Imagine Dragons x JID
ArtistUnicode:Imagine Dragons x JID
Creator:radar
Version:Arcane
Source:Arcane
Tags:muzukashii J.I.D lol League of Legends english pop jinx powder vi ekko jayce viktor riot games netflix destin choice route
BeatmapID:3322597
BeatmapSetID:1627490

[Difficulty]
HPDrainRate:6
CircleSize:5
OverallDifficulty:5
ApproachRate:5
SliderMultiplier:2.8
SliderTickRate:1

[Events]
//Background and Video events
0,0,"_2-50 screenshot.png",0,0
//Break Periods
//Storyboard Layer 0 (Background)
//Storyboard Layer 1 (Fail)
//Storyboard Layer 2 (Pass)
//Storyboard Layer 3 (Foreground)
//Storyboard Layer 4 (Overlay)
//Storyboard Sound Samples

[TimingPoints]
562,779.220779220779,4,1,0,70,1,0
37964,-90.9090909090909,4,1,0,80,0,1
59782,-90.9090909090909,4,1,0,80,0,0
60042,-90.9090909090909,4,1,0,20,0,0
61341,-90.9090909090909,4,1,0,10,0,0
62120,-90.9090909090909,4,1,0,5,0,0

[HitObjects]
47,31,13029,5,12,0:0:0:0:
88,298,13289,1,8,0:0:0:0:
88,298,13549,1,0,0:0:0:0:
88,298,13678,1,0,0:0:0:0:
88,298,13808,1,8,0:0:0:0:
88,298,14393,1,0,0:0:0:0:
88,298,14652,1,8,0:0:0:0:
100,296,14912,1,8,0:0:0:0:
91,288,15172,1,0,0:0:0:0:
91,288,15302,1,0,0:0:0:0:
91,288,15432,1,8,0:0:0:0:
87,282,15951,1,8,0:0:0:0:
87,282,16146,1,0,0:0:0:0:
87,282,16406,1,0,0:0:0:0:
87,282,16665,1,8,0:0:0:0:
87,282,16795,1,8,0:0:0:0:
87,282,16925,1,0,0:0:0:0:
74,286,17510,1,8,0:0:0:0:
82,284,17704,1,0,0:0:0:0:
82,284,17964,1,0,0:0:0:0:
82,284,18224,1,8,0:0:0:0:
82,284,18354,1,8,0:0:0:0:
82,284,18484,1,0,0:0:0:0:
91,275,19068,1,0,0:0:0:0:
91,274,19263,1,8,0:0:0:0:
91,275,19523,1,8,0:0:0:0:
91,275,19782,1,0,0:0:0:0:
91,275,19912,1,0,0:0:0:0:
91,274,20042,1,8,0:0:0:0:
75,285,20626,1,0,0:0:0:0:
75,285,20886,1,8,0:0:0:0:
75,285,21146,1,8,0:0:0:0:
75,285,21406,1,0,0:0:0:0:
75,285,21536,1,0,0:0:0:0:
75,285,21665,1,8,0:0:0:0:
75,285,22185,1,8,0:0:0:0:
94,295,22380,1,0,0:0:0:0:
85,291,22639,1,0,0:0:0:0:
85,291,22899,1,8,0:0:0:0:
85,291,23029,1,8,0:0:0:0:
85,291,23159,1,0,0:0:0:0:
85,291,23743,1,8,0:0:0:0:
85,291,23938,1,0,0:0:0:0:
85,291,24198,1,0,0:0:0:0:
85,291,24458,1,8,0:0:0:0:
85,291,24587,1,8,0:0:0:0:
85,291,24717,1,0,0:0:0:0:
81,296,25107,1,0,0:0:0:0:
88,81,25497,1,12,0:0:0:0:
96,289,26276,1,0,0:0:0:0:
104,281,27055,1,8,0:0:0:0:
104,281,27834,1,8,0:0:0:0:
104,281,28224,1,0,0:0:0:0:
124,272,28613,1,8,0:0:0:0:
124,272,29393,1,0,0:0:0:0:
106,280,29782,1,8,0:0:0:0:
124,272,30172,1,0,0:0:0:0:
124,272,30951,1,0,0:0:0:0:
124,272,31341,1,8,0:0:0:0:
124,272,31730,1,8,0:0:0:0:
124,272,32510,1,0,0:0:0:0:
124,272,33289,1,8,0:0:0:0:
124,272,34068,1,8,0:0:0:0:
124,272,34458,1,0,0:0:0:0:
124,272,34847,1,8,0:0:0:0:
124,272,35626,1,0,0:0:0:0:
124,272,36016,1,8,0:0:0:0:
124,272,36406,1,8,0:0:0:0:
127,276,37185,1,0,0:0:0:0:
126,44,37964,1,12,0:0:0:0:
79,289,38224,1,0,0:0:0:0:
92,280,38354,1,0,0:0:0:0:
92,280,38613,1,0,0:0:0:0:
92,280,38743,1,8,0:0:0:0:
115,286,39328,1,0,0:0:0:0:
102,277,39523,1,8,0:0:0:0:
102,277,39717,1,8,0:0:0:0:
102,277,39912,1,0,0:0:0:0:
120,283,40172,1,0,0:0:0:0:
120,283,40302,1,8,0:0:0:0:
120,283,40691,1,0,0:0:0:0:
95,60,41081,1,12,0:0:0:0:
112,290,41276,1,0,0:0:0:0:
112,290,41471,1,0,0:0:0:0:
112,290,41730,1,0,0:0:0:0:
112,290,41860,1,8,0:0:0:0:
109,300,42055,1,0,0:0:0:0:
110,284,42250,1,8,0:0:0:0:
112,290,42510,1,8,0:0:0:0:
112,290,42639,1,8,0:0:0:0:
111,292,42834,1,8,0:0:0:0:
116,277,43029,1,0,0:0:0:0:
108,278,43289,1,0,0:0:0:0:
108,278,43419,1,8,0:0:0:0:
126,263,43678,1,8,0:0:0:0:
126,263,43808,1,0,0:0:0:0:
116,0,44198,1,12,0:0:0:0:
124,299,44587,1,0,0:0:0:0:
124,299,44847,1,0,0:0:0:0:
124,299,44977,1,8,0:0:0:0:
124,299,45561,1,8,0:0:0:0:
124,299,45756,1,0,0:0:0:0:
119,261,45951,1,8,0:0:0:0:
124,299,46146,1,0,0:0:0:0:
106,288,46406,1,0,0:0:0:0:
106,288,46536,1,8,0:0:0:0:
116,288,46925,1,8,0:0:0:0:
111,291,47315,1,0,0:0:0:0:
111,291,47510,1,8,0:0:0:0:
111,291,47704,1,0,0:0:0:0:
111,291,47964,1,0,0:0:0:0:
109,277,48094,1,8,0:0:0:0:
111,291,48289,1,0,0:0:0:0:
105,283,48484,1,8,0:0:0:0:
121,306,48873,1,0,0:0:0:0:
121,297,49133,1,8,0:0:0:0:
121,297,49263,1,0,0:0:0:0:
121,297,49523,1,0,0:0:0:0:
121,297,49652,1,8,0:0:0:0:
121,297,49847,1,0,0:0:0:0:
121,297,50042,1,8,0:0:0:0:
88,68,50432,1,12,0:0:0:0:
88,68,50821,1,4,0:0:0:0:
88,68,51211,1,12,0:0:0:0:
83,286,51860,1,8,0:0:0:0:
83,286,51990,1,0,0:0:0:0:
89,307,52250,1,8,0:0:0:0:
103,281,52380,1,8,0:0:0:0:
104,280,52639,1,0,0:0:0:0:
103,281,52769,1,8,0:0:0:0:
103,281,53029,1,0,0:0:0:0:
103,281,53159,1,0,0:0:0:0:
86,0,53549,1,4,0:0:0:0:
109,62,53938,1,12,0:0:0:0:
109,62,54328,1,4,0:0:0:0:
102,292,55107,1,0,0:0:0:0:
102,292,55367,1,8,0:0:0:0:
93,274,55497,1,0,0:0:0:0:
93,305,55756,1,0,0:0:0:0:
93,305,55886,1,8,0:0:0:0:
93,305,56081,1,0,0:0:0:0:
93,305,56276,1,8,0:0:0:0:
109,56,56665,1,12,0:0:0:0:
109,56,57055,1,4,0:0:0:0:
114,83,57445,1,12,0:0:0:0:
62,313,58094,1,8,0:0:0:0:
62,313,58224,1,0,0:0:0:0:
62,313,58484,1,8,0:0:0:0:
62,313,58613,1,8,0:0:0:0:
62,313,58873,1,0,0:0:0:0:
80,288,59003,1,8,0:0:0:0:
80,288,59263,1,8,0:0:0:0:
80,288,59393,1,0,0:0:0:0:
80,288,59587,1,0,0:0:0:0:
113,73,59782,1,12,0:0:0:0:
256,192,60172,12,0,62899,0:0:0:0:
