osu file format v14

[General]
AudioFilename: audio.mp3
AudioLeadIn: 0
PreviewTime: 37866
Countdown: 0
SampleSet: Soft
StackLeniency: 0.2
Mode: 0
LetterboxInBreaks: 0
WidescreenStoryboard: 0

[Editor]
Bookmarks: 13126,25594,38061,50529,59879
DistanceSpacing: 0.3
BeatDivisor: 12
GridSize: 32
TimelineZoom: 2.899999

[Metadata]
Title:Enemy (TV Size)
TitleUnicode:Enemy (TV Size)
Artist:Imagine Dragons x JID
ArtistUnicode:Imagine Dragons x JID
Creator:Ohwow
Version:Misery
Source:Arcane
Tags:j.i.d lol league of legends english pop jinx powder vi ekko jayce viktor riot games netflix heimerdinger male vocals vocalist piltover noxus runeterra
BeatmapID:3324966
BeatmapSetID:1628667

[Difficulty]
HPDrainRate:5
CircleSize:4.2
OverallDifficulty:9
ApproachRate:8.5
SliderMultiplier:2
SliderTickRate:1

[Events]
//Background and Video events
Video,0,"video.mp4"
0,0,"jinx.jpg",0,0
//Break Periods
//Storyboard Layer 0 (Background)
//Storyboard Layer 1 (Fail)
//Storyboard Layer 2 (Pass)
//Storyboard Layer 3 (Foreground)
//Storyboard Layer 4 (Overlay)
//Storyboard Sound Samples

[TimingPoints]
559,779.220779220779,4,2,1,15,1,0
559,-100,4,2,1,15,0,0
6013,-100,4,2,1,10,0,0
6792,-62.5,4,2,1,30,0,0
9909,-55.5555555555556,4,2,1,35,0,0
12377,-55.5555555555556,4,2,1,20,0,0
12507,-55.5555555555556,4,2,1,25,0,0
12636,-55.5555555555556,4,2,1,30,0,0
12766,-55.5555555555556,4,2,1,35,0,0
12896,-55.5555555555556,4,2,1,40,0,0
13026,-41.6666666666667,4,2,1,50,0,0
13805,-50,4,2,1,50,0,0
14584,-41.6666666666667,4,2,1,50,0,0
15364,-50,4,2,1,50,0,0
16143,-45.4545454545455,4,2,1,50,0,0
16922,-55.5555555555556,4,2,1,50,0,0
17701,-45.4545454545455,4,2,1,50,0,0
18481,-55.5555555555556,4,2,1,50,0,0
19260,-41.6666666666667,4,2,1,50,0,0
20039,-50,4,2,1,50,0,0
20818,-41.6666666666667,4,2,1,50,0,0
21597,-50,4,2,1,50,0,0
22377,-45.4545454545455,4,2,1,50,0,0
23156,-55.5555555555556,4,2,1,50,0,0
23935,-45.4545454545455,4,2,1,50,0,0
24714,-55.5555555555556,4,2,1,50,0,0
25364,-55.5555555555556,4,2,1,5,0,0
25494,-50,4,2,1,50,0,0
26273,-55.5555555555556,4,2,1,50,0,0
27052,-62.5,4,2,1,50,0,0
28610,-71.4285714285714,4,2,1,50,0,0
30169,-100,4,2,1,50,0,0
31727,-50,4,2,1,50,0,0
32507,-55.5555555555556,4,2,1,50,0,0
33286,-62.5,4,2,1,50,0,0
34844,-71.4285714285714,4,2,1,50,0,0
36403,-100,4,2,1,50,0,0
37182,-50,4,2,1,30,0,0
37961,-25,4,2,1,70,0,1
38740,-41.6666666666667,4,2,1,70,0,1
39909,-27.7777777777778,4,2,1,70,0,1
40299,-62.5,4,2,1,70,0,1
40948,-62.5,4,2,1,5,0,1
41078,-31.25,4,2,1,70,0,1
41143,-31.25,4,2,1,5,0,1
41273,-31.25,4,2,1,70,0,1
41922,-31.25,4,2,1,5,0,1
42052,-31.25,4,2,1,70,0,1
43026,-27.7777777777778,4,2,1,70,0,1
43416,-35.7142857142857,4,2,1,70,0,1
43805,-27.7777777777778,4,2,1,70,0,1
44195,-25,4,2,1,70,0,1
44974,-41.6666666666667,4,2,1,70,0,1
46142,-27.7777777777778,4,2,1,70,0,1
46532,-62.5,4,2,1,70,0,1
47182,-62.5,4,2,1,5,0,1
47311,-31.25,4,2,1,70,0,1
47377,-31.25,4,2,1,5,0,1
47506,-31.25,4,2,1,70,0,1
47766,-31.25,4,2,1,5,0,1
47895,-31.25,4,2,1,70,0,1
48156,-31.25,4,2,1,5,0,1
48285,-31.25,4,2,1,70,0,1
48481,-27.7777777777778,4,2,1,70,0,1
49259,-41.6666666666667,4,2,1,70,0,1
49649,-35.7142857142857,4,2,1,70,0,1
50039,-27.7777777777778,4,2,1,70,0,1
50429,-25,4,2,1,70,0,1
50818,-27.7777777777778,4,2,1,70,0,1
51208,-35.7142857142857,4,2,1,70,0,1
51987,-41.6666666666667,4,2,1,70,0,1
52377,-35.7142857142857,4,2,1,70,0,1
52766,-27.7777777777778,4,2,1,70,0,1
53156,-35.7142857142857,4,2,1,70,0,1
53546,-27.7777777777778,4,2,1,70,0,1
54325,-35.7142857142857,4,2,1,70,0,1
55494,-41.6666666666667,4,2,1,70,0,1
55883,-35.7142857142857,4,2,1,70,0,1
56273,-27.7777777777778,4,2,1,70,0,1
56662,-25,4,2,1,70,0,1
57052,-27.7777777777778,4,2,1,70,0,1
57442,-35.7142857142857,4,2,1,70,0,1
58221,-41.6666666666667,4,2,1,70,0,1
58610,-35.7142857142857,4,2,1,70,0,1
59000,-27.7777777777778,4,2,1,70,0,1
59390,-35.7142857142857,4,2,1,70,0,1
59779,-27.7777777777778,4,2,1,70,0,0

[Colours]
Combo1 : 132,162,176
Combo2 : 70,151,240
Combo3 : 58,143,78
Combo4 : 162,89,170

[HitObjects]
106,113,559,6,0,L|172:97,3,66.6666666666667,0|0|0|0,1:0|1:0|1:0|1:0,0:0:0:0:
109,119,2117,2,0,L|175:103,3,66.6666666666667,0|0|0|0,1:0|1:0|1:0|1:0,0:0:0:0:
322,228,3675,6,0,L|256:212,3,66.6666666666667,0|0|0|0,1:0|1:0|1:0|1:0,0:0:0:0:
319,234,5234,2,0,L|253:218,1,66.6666666666667,0|0,1:0|1:0,0:0:0:0:
254,218,5753,1,0,1:0:0:0:
250,227,5883,1,0,1:0:0:0:
216,294,6013,6,0,L|183:302,5,33.3333333333333,0|0|0|0|0|0,1:0|1:0|1:0|1:0|1:0|1:0,0:0:0:0:
119,362,6792,6,0,P|88:307|110:262,1,106.666666666667,0|0,1:0|1:0,0:0:0:0:
183,171,7182,1,0,1:0:0:0:
183,171,7312,2,0,P|158:182|132:187,1,53.3333333333333,0|0,1:0|1:0,0:0:0:0:
47,161,7571,2,0,P|42:43|159:53,1,266.666666666667,0|0,1:0|1:0,0:0:0:0:
239,107,8351,6,0,L|307:93,1,53.3333333333333,0|0,1:0|0:0,0:0:0:0:
369,79,8610,2,0,L|437:65,1,53.3333333333333,0|0,1:0|0:0,0:0:0:0:
338,170,8870,1,0,1:0:0:0:
349,168,9000,1,0,1:0:0:0:
360,166,9130,1,0,1:0:0:0:
274,63,9909,6,0,P|230:44|148:56,1,119.999996337891,0|0,1:0|1:0,0:0:0:0:
113,131,10299,1,0,1:0:0:0:
113,131,10429,2,0,P|83:138|57:152,1,59.9999981689454,0|0,1:0|1:0,0:0:0:0:
64,246,10688,2,0,B|116:191|226:177|231:278|352:258,1,299.999990844727,0|0,1:0|0:0,0:0:0:0:
420,198,11468,6,0,L|434:130,1,59.9999981689454,0|0,1:0|0:0,0:0:0:0:
450,58,11727,2,0,L|464:-10,1,59.9999981689454,0|0,1:0|0:0,0:0:0:0:
355,60,11987,1,0,1:0:0:0:
353,72,12117,1,0,1:0:0:0:
282,100,12247,5,0,1:0:0:0:
276,103,12377,1,0,1:0:0:0:
268,112,12507,1,0,1:0:0:0:
261,128,12636,1,0,1:0:0:0:
257,157,12766,1,0,1:0:0:0:
268,203,12896,1,0,1:0:0:0:
323,244,13026,6,0,P|369:240|408:199,1,79.9999975585938,2|0,1:2|0:0,0:0:0:0:
475,106,13286,2,0,B|461:138|466:176|466:176|479:200|479:200|480:230|469:264,1,159.999995117188,2|2,0:0|0:0,0:0:0:0:
316,358,13675,1,2,0:0:0:0:
506,358,13805,2,0,B|467:325|395:324|383:381|314:357,1,200,2|0,1:2|0:0,0:0:0:0:
234,318,14325,1,2,0:0:0:0:
216,308,14455,1,2,0:0:0:0:
345,274,14584,6,0,P|345:233|328:186,1,79.9999975585938,2|0,1:2|0:0,0:0:0:0:
277,111,14844,2,0,P|241:179|165:184,1,159.999995117188,2|2,0:0|0:0,0:0:0:0:
114,71,15234,1,2,0:0:0:0:
122,252,15364,2,0,B|145:222|142:182|142:182|104:157|94:105|115:69,1,200,2|0,1:2|0:0,0:0:0:0:
173,7,15883,1,2,0:0:0:0:
192,1,16013,1,2,0:0:0:0:
289,41,16143,6,0,P|291:77|276:110,1,73.3333355712891,2|0,1:2|0:0,0:0:0:0:
247,192,16403,2,0,B|325:212|311:161|390:179,1,146.666671142578,2|2,0:0|0:0,0:0:0:0:
512,209,16792,1,2,0:0:0:0:
468,128,16922,2,0,B|419:140|414:183|414:183|437:229|422:286,1,179.999994506836,2|0,1:2|0:0,0:0:0:0:
381,355,17442,1,2,0:0:0:0:
368,367,17571,1,2,0:0:0:0:
273,314,17701,6,0,P|242:315|191:335,1,73.3333355712891,2|0,1:2|0:0,0:0:0:0:
123,380,17961,2,0,B|75:376|41:388|41:388|11:373|-9:315,1,146.666671142578,2|2,0:0|0:0,0:0:0:0:
5,251,18351,1,2,0:0:0:0:
94,280,18481,2,0,B|78:232|102:195|102:195|110:145|82:108,1,179.999994506836,2|0,1:2|0:0,0:0:0:0:
17,44,19000,2,0,P|41:26|70:20,1,59.9999981689454,2|0,0:0|0:0,0:0:0:0:
180,122,19260,6,0,P|213:145|254:139,1,79.9999975585938,2|0,1:2|0:0,0:0:0:0:
364,81,19520,2,0,B|412:94|428:144|431:217,1,159.999995117188,2|0,0:0|0:0,0:0:0:0:
314,357,19909,1,2,0:0:0:0:
337,164,20039,2,0,B|364:260|289:269|316:365,1,200,2|0,1:2|0:0,0:0:0:0:
464,312,20558,2,0,P|421:315|397:322,1,66.6666666666667,2|0,0:0|0:0,0:0:0:0:
260,203,20818,6,0,P|227:180|186:186,1,79.9999975585938,2|0,1:2|0:0,0:0:0:0:
146,277,21078,2,0,B|140:235|149:198|149:198|142:154|96:137,1,159.999995117188,2|2,0:0|0:0,0:0:0:0:
12,139,21468,1,2,0:0:0:0:
155,71,21597,2,0,P|53:63|13:153,1,200,2|0,1:2|0:0,0:0:0:0:
48,215,22117,1,2,0:0:0:0:
51,234,22247,1,2,0:0:0:0:
146,277,22377,6,0,P|165:307|174:343,1,73.3333355712891,2|0,1:2|0:0,0:0:0:0:
257,381,22636,2,0,B|292:364|299:331|299:331|284:296|287:252,1,146.666671142578,2|2,0:0|0:0,0:0:0:0:
333,112,23026,1,2,0:0:0:0:
382,190,23156,2,0,B|278:177|320:235|209:223,1,179.999994506836,2|0,1:2|0:0,0:0:0:0:
145,178,23675,1,2,0:0:0:0:
132,164,23805,1,2,0:0:0:0:
143,67,23935,6,0,P|176:54|219:50,1,73.3333355712891,2|0,1:2|0:0,0:0:0:0:
307,0,24195,2,0,P|252:44|262:114,1,146.666671142578,2|2,0:0|0:0,0:0:0:0:
338,176,24584,1,2,0:0:0:0:
420,124,24714,2,0,B|459:93|475:53|475:53|460:111|477:159|477:159|494:205|470:258,1,299.999990844727,2|0,1:2|0:0,0:0:0:0:
470,257,25494,6,0,B|309:222|371:339|150:291,1,300,2|0,1:2|0:0,0:0:0:0:
89,335,26273,2,0,B|127:189|32:232|92:73,1,269.999991760254,2|0,1:2|0:0,0:0:0:0:
251,69,27052,2,0,P|289:194|163:157,1,320,2|2,1:2|1:2,0:0:0:0:
163,157,28221,1,2,0:0:0:0:
418,109,28610,6,0,B|455:105|487:126|487:126|459:74|396:70|346:105|339:167,1,279.999991455078,0|0,1:2|1:2,0:0:0:0:
339,167,29779,1,2,0:0:0:0:
229,314,30169,2,0,B|202:347|202:347|90:328|90:328|64:362,1,200,0|0,1:2|1:2,0:0:0:0:
97,117,31338,1,2,0:0:0:0:
328,189,31727,6,0,B|325:240|281:270|281:270|220:241|206:143|262:99,1,300,2|0,1:2|0:0,0:0:0:0:
330,25,32507,2,0,B|350:45|375:57|375:57|317:44|272:63|272:63|199:95|136:42,1,269.999991760254,2|0,1:2|0:0,0:0:0:0:
13,1,33286,2,0,B|39:43|83:59|83:59|18:171|121:164|66:280,1,320,2|2,1:2|1:2,0:0:0:0:
67,276,34455,1,2,0:0:0:0:
240,134,34844,6,0,B|203:172|203:172|297:155|297:155|330:167|330:167|427:152,1,279.999991455078,0|0,1:2|1:2,0:0:0:0:
426,152,36013,1,2,0:0:0:0:
436,328,36403,2,0,B|359:344|359:344|345:362|345:362|241:384,1,200,0|0,1:2|1:2,0:0:0:0:
44,77,37961,6,0,B|55:7|145:-7|197:43|169:126|149:169|149:169|122:235|175:317,1,400,4|0,3:2|0:0,0:0:0:0:
443,198,38610,5,0,0:0:0:0:
443,198,38740,2,0,B|380:200|339:148|339:148|339:215|294:256,1,239.999992675781,10|0,0:0|0:0,0:0:0:0:
411,340,39325,5,2,0:0:0:0:
251,176,39520,1,2,0:0:0:0:
167,384,39714,1,2,0:0:0:0:
111,106,39909,6,0,B|98:68|48:64|19:109|40:152|77:156|77:156|163:166,1,239.999992675781,2|0,3:2|0:0,0:0:0:0:
413,166,40299,6,0,P|422:60|332:118,1,266.666666666667,8|0,0:0|0:0,0:0:0:0:
282,223,41078,6,0,P|305:213|335:207,1,53.3333333333333,2|0,3:2|0:0,0:0:0:0:
497,17,41273,1,2,0:0:0:0:
401,261,41468,5,2,0:0:0:0:
295,44,41662,1,2,0:0:0:0:
187,335,41857,6,0,P|163:325|134:319,1,53.3333333333333,10|0,0:0|0:0,0:0:0:0:
0,74,42052,1,2,0:0:0:0:
41,333,42247,5,2,0:0:0:0:
130,119,42442,1,2,0:0:0:0:
297,245,42636,6,0,P|359:254|421:177,1,160,2|2,0:0|0:0,0:0:0:0:
427,67,42896,1,0,3:0:0:0:
505,143,43026,6,0,B|436:118|417:194|311:188|273:126,1,239.999992675781,2|0,3:2|0:0,0:0:0:0:
284,50,43416,2,0,P|260:102|147:51,1,186.666660970052,8|0,0:0|0:0,0:0:0:0:
29,90,43805,2,0,B|57:66|69:34|69:34|63:142|106:122|101:200,1,239.999992675781,0|0,3:0|0:0,0:0:0:0:
50,321,44195,6,0,B|-20:385|-20:385|110:363|110:363|129:373|129:373|292:342,1,400,4|0,3:2|0:0,0:0:0:0:
424,176,44844,5,0,0:0:0:0:
424,176,44974,2,0,B|469:173|507:152|507:152|467:217|456:302,1,239.999992675781,10|0,0:0|0:0,0:0:0:0:
397,66,45558,5,2,0:0:0:0:
265,245,45753,1,2,0:0:0:0:
163,43,45948,1,2,0:0:0:0:
173,337,46143,6,0,B|145:311|103:289|103:289|178:277|178:277|186:270|186:270|255:259,1,239.999992675781,2|0,3:2|0:0,0:0:0:0:
408,285,46533,6,0,B|387:162|486:193|439:23,1,266.666666666667,8|0,0:0|0:0,0:0:0:0:
305,63,47312,6,0,P|328:74|355:77,1,53.3333333333333,2|0,3:2|0:0,0:0:0:0:
512,224,47507,1,2,0:0:0:0:
215,181,47701,6,0,P|241:178|265:166,1,53.3333333333333,2|0,3:2|0:0,0:0:0:0:
440,29,47896,1,2,0:0:0:0:
335,297,48091,6,0,P|311:285|284:282,1,53.3333333333333,10|0,0:0|0:0,0:0:0:0:
192,45,48286,1,2,0:0:0:0:
18,290,48481,6,0,B|-57:387|44:446|106:378|107:302|-20:290|46:162,1,359.999989013672,2|0,0:0|0:0,0:0:0:0:
39,176,49130,1,0,0:0:0:0:
145,319,49260,6,0,P|186:319|224:326,1,79.9999975585938,0|0,3:0|0:0,0:0:0:0:
306,353,49520,1,2,0:0:0:0:
213,162,49649,6,0,B|165:119|165:119|191:238,1,186.666660970052,10|0,0:0|0:0,0:0:0:0:
314,56,50039,2,0,B|374:2|374:2|340:157,1,239.999992675781,2|0,3:2|0:0,0:0:0:0:
388,328,50429,6,0,P|392:209|273:214,1,266.666666666667,6|0,3:2|0:0,0:0:0:0:
130,332,50818,2,0,P|187:333|218:284,1,119.999996337891,2|0,3:2|0:0,0:0:0:0:
36,194,51078,1,0,0:0:0:0:
144,28,51208,6,0,B|90:37|84:89|84:89|60:274,1,279.999991455078,10|0,0:0|0:0,0:0:0:0:
60,274,51792,1,2,0:0:0:0:
227,372,51987,6,0,P|262:354|300:343,1,79.9999975585938,2|0,0:0|0:0,0:0:0:0:
384,190,52247,1,0,3:0:0:0:
440,358,52377,2,0,P|375:364|339:257,1,186.666660970052,0|2,3:0|0:0,0:0:0:0:
234,125,52766,6,0,B|323:86|346:184|464:158,1,239.999992675781,10|0,0:0|0:0,0:0:0:0:
503,51,53156,2,0,P|463:74|416:79,1,93.3333304850261,2|0,0:0|0:0,0:0:0:0:
275,203,53416,1,2,0:0:0:0:
187,2,53546,6,0,B|280:29|279:124|274:208,1,239.999992675781,2|0,3:2|0:0,0:0:0:0:
15,216,53935,2,0,P|54:155|125:155,1,119.999996337891,2|0,3:2|0:0,0:0:0:0:
239,286,54195,1,0,0:0:0:0:
170,89,54325,6,0,B|225:212|103:225|171:366,2,279.999991455078,10|0|0,0:0|0:0|0:0,0:0:0:0:
170,89,55364,1,0,0:0:0:0:
274,202,55494,6,0,P|314:199|347:176,1,79.9999975585938,0|0,3:0|0:0,0:0:0:0:
395,16,55753,1,2,0:0:0:0:
485,182,55883,6,0,P|388:171|398:84,1,186.666660970052,10|0,0:0|0:0,0:0:0:0:
484,278,56273,2,0,B|352:308|314:181|207:263,1,239.999992675781,2|0,3:2|0:0,0:0:0:0:
50,309,56662,6,0,B|25:345|56:381|99:381|126:354|118:308|118:308|96:183,1,266.666666666667,6|0,3:2|0:0,0:0:0:0:
0,70,57052,2,0,P|33:115|103:99,1,119.999996337891,2|0,3:2|0:0,0:0:0:0:
273,169,57312,1,0,0:0:0:0:
120,28,57442,6,0,B|172:43|199:85|158:214|208:249|272:257,1,279.999991455078,10|0,0:0|0:0,0:0:0:0:
252,253,58026,1,2,0:0:0:0:
342,116,58221,6,0,P|379:100|419:96,1,79.9999975585938,2|0,0:0|0:0,0:0:0:0:
470,217,58481,1,0,3:0:0:0:
273,169,58610,2,0,P|253:83|324:31,1,186.666660970052,0|2,3:0|0:0,0:0:0:0:
385,233,59000,6,0,B|393:264|418:286|418:286|341:242|295:235|246:254,1,239.999992675781,10|2,0:0|0:0,0:0:0:0:
119,356,59390,2,0,P|175:350|222:314,1,93.3333304850261,2|0,0:0|0:0,0:0:0:0:
342,116,59649,1,2,0:0:0:0:
480,355,59779,1,6,0:0:0:0:
