osu file format v14

[General]
AudioFilename: audio.mp3
AudioLeadIn: 0
PreviewTime: 37866
Countdown: 0
SampleSet: Soft
StackLeniency: 0.7
Mode: 0
LetterboxInBreaks: 0
WidescreenStoryboard: 1

[Editor]
Bookmarks: 13126,25594,38061,50529,59879
DistanceSpacing: 1.3
BeatDivisor: 12
GridSize: 8
TimelineZoom: 1.6

[Metadata]
Title:Enemy (TV Size)
TitleUnicode:Enemy (TV Size)
Artist:Imagine Dragons x JID
ArtistUnicode:Imagine Dragons x JID
Creator:Ohwow
Version:Hard
Source:Arcane
Tags:j.i.d lol league of legends english pop jinx powder vi ekko jayce viktor riot games netflix heimerdinger male vocals vocalist piltover noxus runeterra
BeatmapID:3330928
BeatmapSetID:1628667

[Difficulty]
HPDrainRate:4
CircleSize:3.8
OverallDifficulty:6
ApproachRate:7
SliderMultiplier:1.7
SliderTickRate:1

[Events]
//Background and Video events
Video,0,"video.mp4"
0,0,"jinx.jpg",0,0
//Break Periods
//Storyboard Layer 0 (Background)
//Storyboard Layer 1 (Fail)
//Storyboard Layer 2 (Pass)
//Storyboard Layer 3 (Foreground)
//Storyboard Layer 4 (Overlay)
//Storyboard Sound Samples

[TimingPoints]
559,779.220779220779,4,2,1,15,1,0
559,-71.4285714285714,4,2,1,15,0,0
6143,-71.4285714285714,4,2,1,10,0,0
6792,-71.4285714285714,4,2,1,30,0,0
9909,-71.4285714285714,4,2,1,35,0,0
12377,-71.4285714285714,4,2,1,20,0,0
12507,-71.4285714285714,4,2,1,25,0,0
12636,-71.4285714285714,4,2,1,30,0,0
12766,-71.4285714285714,4,2,1,35,0,0
12896,-71.4285714285714,4,2,1,40,0,0
13026,-66.6666666666667,4,2,1,50,0,0
25364,-66.6666666666667,4,2,1,5,0,0
25494,-71.4285714285714,4,2,1,50,0,0
37182,-71.4285714285714,4,2,1,30,0,0
37961,-62.5,4,2,1,70,0,1
40948,-62.5,4,2,1,5,0,1
41078,-62.5,4,2,1,70,0,1
47182,-62.5,4,2,1,5,0,1
47312,-62.5,4,2,1,70,0,1
59779,-62.5,4,2,1,70,0,0

[Colours]
Combo1 : 132,162,176
Combo2 : 70,151,240
Combo3 : 58,143,78
Combo4 : 162,89,170

[HitObjects]
118,232,559,6,0,P|85:237|32:260,3,79.3333309122722,0|0|0|0,1:0|1:0|1:0|1:0,0:0:0:0:
187,193,2117,2,0,P|220:198|273:221,3,79.3333309122722,0|0|0|0,1:0|1:0|1:0|1:0,0:0:0:0:
116,88,3675,6,0,P|83:93|30:116,3,79.3333309122722,0|0|0|0,1:0|1:0|1:0|1:0,0:0:0:0:
185,49,5234,2,0,P|218:54|271:77,3,79.3333309122722,0|0|0|0,1:0|1:0|1:0|1:0,0:0:0:0:
315,348,6792,6,0,L|198:321,1,118.999996368408,0|0,1:0|1:0,0:0:0:0:
167,290,7312,2,0,L|107:303,1,39.6666654561361,0|0,1:0|1:0,0:0:0:0:
100,332,7571,2,0,B|61:320|61:320|31:182,1,158.666661824544,0|0,1:0|0:0,0:0:0:0:
85,132,8351,5,0,1:0:0:0:
12,83,8610,1,0,1:0:0:0:
79,27,8870,2,0,L|123:22,2,39.6666654561361,0|0|0,1:0|1:0|1:0,0:0:0:0:
268,19,9909,6,0,P|297:66|262:142,1,118.999996368408,0|0,1:0|1:0,0:0:0:0:
247,150,10429,2,0,P|242:181|250:216,1,39.6666654561361,0|0,1:0|1:0,0:0:0:0:
262,228,10688,2,0,B|349:262|341:211|424:245,1,158.666661824544,0|0,1:0|0:0,0:0:0:0:
477,305,11468,5,0,1:0:0:0:
422,372,11727,1,0,1:0:0:0:
348,325,11987,2,0,L|278:341,1,39.6666654561361,0|0,1:0|1:0,0:0:0:0:
261,341,12247,2,0,L|245:411,5,39.6666654561361,0|0|0|0|0|0,1:0|1:0|1:0|1:0|1:0|1:0,0:0:0:0:
276,265,13026,6,0,L|178:242,1,85.0000032424928,2|2,1:2|0:0,0:0:0:0:
125,197,13546,1,2,0:0:0:0:
125,197,13675,1,2,0:0:0:0:
125,197,13805,2,0,B|162:134|102:136|144:39,1,127.500004863739,2|0,1:2|0:0,0:0:0:0:
150,29,14325,2,0,P|177:22|198:22,1,42.5000016212464,2|2,0:0|0:0,0:0:0:0:
236,38,14584,6,0,P|268:66|325:68,1,85.0000032424928,2|2,1:2|0:0,0:0:0:0:
405,50,15104,1,2,0:0:0:0:
405,50,15234,1,2,0:0:0:0:
405,50,15364,2,0,B|422:143|422:143|389:199,1,127.500004863739,2|0,1:2|0:0,0:0:0:0:
371,203,15883,2,0,P|363:233|362:274,1,42.5000016212464,2|2,0:0|0:0,0:0:0:0:
366,291,16143,6,0,P|315:274|249:282,1,85.0000032424928,2|2,1:2|0:0,0:0:0:0:
205,316,16662,1,2,0:0:0:0:
205,316,16792,1,2,0:0:0:0:
205,316,16922,2,0,L|50:293,1,127.500004863739,2|0,1:2|0:0,0:0:0:0:
32,288,17442,2,0,L|16:210,1,42.5000016212464,2|2,0:0|0:0,0:0:0:0:
41,203,17701,6,0,B|60:165|60:165|57:120,1,85.0000032424928,2|2,1:2|0:0,0:0:0:0:
64,35,18221,1,2,0:0:0:0:
64,35,18351,1,2,0:0:0:0:
64,35,18481,2,0,B|102:44|102:44|129:35|129:35|192:45,1,127.500004863739,2|0,1:2|0:0,0:0:0:0:
234,53,19000,2,0,B|245:102,1,42.5000016212464,2|0,0:0|0:0,0:0:0:0:
275,129,19260,6,0,P|290:190|266:227,1,85.0000032424928,2|2,1:2|0:0,0:0:0:0:
221,277,19779,1,0,0:0:0:0:
221,277,19909,1,2,0:0:0:0:
221,277,20039,2,0,B|251:303|251:303|375:290,1,127.500004863739,2|0,1:2|0:0,0:0:0:0:
384,284,20558,2,0,P|415:258|423:241,1,42.5000016212464,2|0,0:0|0:0,0:0:0:0:
435,213,20818,6,0,P|411:172|416:112,1,85.0000032424928,2|2,1:2|0:0,0:0:0:0:
447,53,21338,1,2,0:0:0:0:
447,53,21468,1,2,0:0:0:0:
447,53,21597,2,0,B|380:28|390:71|299:41,1,127.500004863739,2|0,1:2|0:0,0:0:0:0:
280,24,22117,2,0,P|251:21|212:41,1,42.5000016212464,2|2,0:0|0:0,0:0:0:0:
203,55,22377,6,0,L|111:63,1,85.0000032424928,2|2,1:2|0:0,0:0:0:0:
51,126,22896,1,2,0:0:0:0:
51,126,23026,1,2,0:0:0:0:
51,126,23156,2,0,B|83:150|83:150|69:244,1,127.500004863739,2|0,1:2|0:0,0:0:0:0:
44,275,23675,2,0,P|37:312|47:341,1,42.5000016212464,2|2,0:0|0:0,0:0:0:0:
64,355,23935,6,0,P|121:343|176:341,1,85.0000032424928,2|2,1:2|0:0,0:0:0:0:
199,265,24455,1,2,0:0:0:0:
199,265,24584,1,2,0:0:0:0:
199,265,24714,2,0,P|237:196|271:283,1,212.500008106232,2|0,1:2|0:0,0:0:0:0:
261,324,25494,6,0,B|355:305|331:367|437:345,1,178.499994552612,2|0,1:2|0:0,0:0:0:0:
481,284,26273,2,0,B|498:162|498:162|463:120,1,178.499994552612,2|0,1:2|0:0,0:0:0:0:
395,80,27052,2,0,P|367:128|227:67,1,237.999992736817,2|2,1:2|1:2,0:0:0:0:
73,60,28221,1,2,0:0:0:0:
42,213,28610,6,0,B|168:259|154:164|293:215,1,237.999992736817,0|0,1:2|1:2,0:0:0:0:
421,261,29779,1,2,0:0:0:0:
473,115,30169,2,0,P|420:59|381:173,1,237.999992736817,0|0,1:2|1:2,0:0:0:0:
360,319,31338,1,2,0:0:0:0:
250,209,31727,6,0,B|203:214|203:214|187:228|187:228|57:246,1,178.499994552612,2|0,1:2|0:0,0:0:0:0:
33,178,32507,2,0,P|32:105|134:92,1,178.499994552612,2|0,1:2|0:0,0:0:0:0:
188,120,33286,2,0,B|231:128|231:128|325:93|325:93|424:110,1,237.999992736817,2|2,1:2|1:2,0:0:0:0:
329,235,34455,1,2,0:0:0:0:
268,93,34844,6,0,P|221:14|94:56,1,237.999992736817,0|0,1:2|1:2,0:0:0:0:
22,183,36013,1,2,0:0:0:0:
121,302,36403,2,0,B|197:292|197:292|211:282|211:282|390:260,1,237.999992736817,0|0,1:2|1:2,0:0:0:0:
494,60,37961,6,0,B|461:150|555:156|501:287,1,226.666666666667,4|0,3:2|0:0,0:0:0:0:
476,330,38740,2,0,P|407:358|391:235,1,204,10|2,0:0|0:0,0:0:0:0:
402,179,39520,1,2,0:0:0:0:
315,164,39714,1,2,0:0:0:0:
292,78,39909,6,0,P|235:76|204:111,1,90.6666666666667,2|0,3:2|0:0,0:0:0:0:
202,155,40299,2,0,B|180:173|180:173|54:146|54:146|-2:187,1,226.666666666667,8|0,0:0|0:0,0:0:0:0:
10,245,41078,6,0,L|28:326,1,68,2|2,3:2|0:0,0:0:0:0:
100,357,41468,1,2,0:0:0:0:
149,284,41662,1,2,0:0:0:0:
224,329,41857,2,0,L|290:343,1,68,10|2,0:0|0:0,0:0:0:0:
361,286,42247,1,2,0:0:0:0:
430,341,42442,1,2,0:0:0:0:
487,273,42636,6,0,P|493:236|460:180,1,90.6666666666667,2|0,0:0|3:0,0:0:0:0:
418,160,43026,2,0,B|400:136|400:136|410:61,1,90.6666666666667,2|0,3:2|0:0,0:0:0:0:
401,16,43416,2,0,P|356:0|310:5,1,90.6666666666667,8|0,0:0|0:0,0:0:0:0:
262,33,43805,1,0,3:0:0:0:
89,76,44195,6,0,B|47:173|158:165|81:327,1,226.666666666667,4|0,3:2|0:0,0:0:0:0:
74,349,44974,2,0,P|146:293|245:348,1,204,10|2,0:0|0:0,0:0:0:0:
313,383,45753,1,2,0:0:0:0:
368,314,45948,1,2,0:0:0:0:
452,340,46143,6,0,L|463:246,1,90.6666666666667,2|0,3:2|0:0,0:0:0:0:
501,205,46533,2,0,B|533:171|533:171|510:40|510:40|466:23,1,226.666666666667,8|0,0:0|0:0,0:0:0:0:
407,30,47312,6,0,P|366:30|311:8,1,68,2|2,3:2|0:0,0:0:0:0:
291,97,47701,2,0,P|250:97|195:119,1,68,2|2,3:2|0:0,0:0:0:0:
136,117,48091,1,10,0:0:0:0:
145,205,48286,1,2,0:0:0:0:
60,231,48481,2,0,P|27:295|71:350,2,136,2|0|0,0:0|0:0|3:0,0:0:0:0:
167,291,49520,5,2,0:0:0:0:
167,291,49649,2,0,L|273:304,1,90.6666666666667,10|0,0:0|0:0,0:0:0:0:
296,346,50039,2,0,L|402:333,1,90.6666666666667,2|0,3:2|0:0,0:0:0:0:
417,284,50429,6,0,P|432:242|416:201,1,90.6666666666667,6|0,3:2|0:0,0:0:0:0:
374,159,50818,2,0,P|345:163|265:167,1,90.6666666666667,2|0,3:2|0:0,0:0:0:0:
226,152,51208,2,0,B|196:231|240:212|205:297,1,136,10|0,0:0|0:0,0:0:0:0:
98,315,51857,5,0,0:0:0:0:
98,315,51987,2,0,L|11:301,1,45.3333333333333,2|0,0:0|0:0,0:0:0:0:
40,254,52247,1,0,3:0:0:0:
40,254,52377,2,0,P|52:208|58:153,1,90.6666666666667,0|2,3:0|0:0,0:0:0:0:
53,106,52766,1,10,0:0:0:0:
172,133,53026,1,0,0:0:0:0:
172,133,53156,2,0,P|214:140|264:115,1,90.6666666666667,2|2,0:0|0:0,0:0:0:0:
285,69,53546,6,0,B|308:60|308:60|397:78,1,90.6666666666667,2|0,3:2|0:0,0:0:0:0:
429,87,53935,2,0,P|406:133|428:196,1,90.6666666666667,2|0,3:2|0:0,0:0:0:0:
458,206,54325,2,0,P|487:258|450:343,2,136,10|0|0,0:0|0:0|0:0,0:0:0:0:
362,274,55364,5,0,0:0:0:0:
362,274,55494,2,0,P|313:283|265:280,1,90.6666666666667,0|2,3:0|0:0,0:0:0:0:
226,244,55883,2,0,P|216:195|220:147,1,90.6666666666667,10|0,0:0|0:0,0:0:0:0:
232,97,56273,1,2,3:2:0:0:
118,7,56662,6,0,L|7:29,1,90.6666666666667,6|0,3:2|0:0,0:0:0:0:
2,77,57052,2,0,P|0:122|43:181,1,90.6666666666667,2|0,3:2|0:0,0:0:0:0:
74,186,57442,2,0,P|110:220|105:316,1,136,10|0,0:0|0:0,0:0:0:0:
212,375,58091,5,0,0:0:0:0:
212,375,58221,2,0,P|250:359|290:351,1,45.3333333333333,2|0,0:0|0:0,0:0:0:0:
315,372,58481,1,0,3:0:0:0:
315,372,58610,2,0,P|373:377|412:334,1,90.6666666666667,0|2,3:0|0:0,0:0:0:0:
427,308,59000,1,10,0:0:0:0:
366,212,59260,1,2,0:0:0:0:
366,212,59390,2,0,P|352:161|345:114,1,90.6666666666667,2|2,0:0|0:0,0:0:0:0:
347,64,59779,1,6,0:0:0:0:
