osu file format v14

[General]
AudioFilename: audio.mp3
AudioLeadIn: 0
PreviewTime: 37834
Countdown: 0
SampleSet: Soft
StackLeniency: 0
Mode: 0
LetterboxInBreaks: 0
WidescreenStoryboard: 1

[Editor]
Bookmarks: 6795,13029,25497,37964,50432,59782
DistanceSpacing: 1.3
BeatDivisor: 6
GridSize: 4
TimelineZoom: 2.5

[Metadata]
Title:Enemy (TV Size)
TitleUnicode:Enemy (TV Size)
Artist:Imagine Dragons x JID
ArtistUnicode:Imagine Dragons x JID
Creator:Elayue
Version:elicz1's Extra
Source:Arcane
Tags:j.i.d lol league of legends english pop jinx powder vi ekko jayce viktor riot games netflix destin choice route heimerdinger male vocals vocalist piltover noxus xahlt zelq agatsu hero_ic heroine some hero glaze elicz1 deca runeterra
BeatmapID:3354255
BeatmapSetID:1642885

[Difficulty]
HPDrainRate:6
CircleSize:4
OverallDifficulty:8
ApproachRate:8
SliderMultiplier:2.9
SliderTickRate:1

[Events]
//Background and Video events
0,0,"m4ypzfm7i7181.jpg",0,0
//Break Periods
//Storyboard Layer 0 (Background)
//Storyboard Layer 1 (Fail)
//Storyboard Layer 2 (Pass)
//Storyboard Layer 3 (Foreground)
//Storyboard Layer 4 (Overlay)
//Storyboard Sound Samples

[TimingPoints]
572,779.220779220779,4,2,1,70,1,0
572,-100,4,2,1,40,0,0
6805,-76.9230769230769,4,2,1,50,0,0
12779,-76.9230769230769,4,2,1,5,0,0
12909,-76.9230769230769,4,2,1,55,0,0
24734,-76.9230769230769,4,2,2,15,0,0
24922,-76.9230769230769,4,2,1,20,0,0
25117,-76.9230769230769,4,2,2,30,0,0
25312,-76.9230769230769,4,2,1,40,0,0
25507,-76.9230769230769,4,2,1,45,0,0
26286,-100,4,2,1,45,0,0
28234,-153.846153846153,4,2,1,45,0,0
31351,-153.846153846153,4,2,1,60,0,0
31740,-66.6666666666667,4,2,1,60,0,0
33299,-90.9090909090909,4,2,1,55,0,0
34857,-125,4,2,1,50,0,0
36026,-500,4,2,1,55,0,0
36123,-500,4,2,2,45,0,0
36221,-500,4,2,1,40,0,0
36318,-500,4,2,2,35,0,0
36513,-500,4,2,2,30,0,0
36708,-500,4,2,1,25,0,0
36805,-500,4,2,1,5,0,0
36903,-500,4,2,2,5,0,0
37195,-500,4,2,1,35,0,0
37974,-43.4782608695652,4,2,1,70,0,1
38753,-66.6666666666667,4,2,1,70,0,1
40312,-50,4,2,1,70,0,1
43046,-50,4,2,1,45,0,1
43299,-50,4,2,1,70,0,1
43818,-66.6666666666667,4,2,1,70,0,1
44208,-43.4782608695652,4,2,1,70,0,1
44987,-66.6666666666667,4,2,1,70,0,1
46546,-50,4,2,1,70,0,1
48500,-50,4,2,1,45,0,1
48883,-50,4,2,1,70,0,1
50442,-30.3030303030303,4,2,1,70,0,1
52779,-66.6666666666667,4,2,1,70,0,1
53559,-30.3030303030303,4,2,1,70,0,1
55896,-66.6666666666667,4,2,1,70,0,1
56675,-38.4615384615385,4,2,1,70,0,1
59013,-66.6666666666667,4,2,1,70,0,1
59792,-66.6666666666667,4,2,1,70,0,0

[Colours]
Combo1 : 24,254,180
Combo2 : 0,183,91

[HitObjects]
392,363,571,5,4,1:2:0:0:
410,287,831,1,0,3:2:0:0:
487,311,1091,1,0,3:2:0:0:
410,287,1351,1,0,3:2:0:0:
311,344,2130,5,0,3:2:0:0:
235,362,2390,1,0,3:2:0:0:
162,381,2650,1,0,3:2:0:0:
235,362,2910,1,0,3:2:0:0:
98,318,3688,5,0,3:2:0:0:
80,242,3948,1,0,3:2:0:0:
3,262,4208,1,0,3:2:0:0:
80,242,4468,1,0,3:2:0:0:
453,74,5246,5,0,3:2:0:0:
435,150,5506,1,0,3:2:0:0:
418,225,5766,1,0,3:2:0:0:
418,225,5895,1,0,3:2:0:0:
418,225,6026,1,0,3:2:0:0:
66,35,6675,5,0,3:2:0:0:
21,98,6805,2,0,P|85:77|175:57,1,125.666660914103,4|0,1:2|3:2,0:2:0:0:
194,121,7195,1,0,3:2:0:0:
343,34,7455,1,0,3:2:0:0:
343,34,7584,2,0,P|233:71|64:114,1,251.333321828207,0|0,3:2|3:2,0:2:0:0:
19,282,8234,5,0,3:2:0:0:
19,282,8364,1,0,3:2:0:0:
94,298,8623,1,0,3:2:0:0:
171,313,8883,1,0,3:2:0:0:
171,313,9013,1,0,3:2:0:0:
171,313,9143,2,0,P|194:241|220:182,2,125.666660914103,0|0|0,3:2|3:2|3:2,0:2:0:0:
445,127,9922,5,0,1:2:0:0:
368,148,10182,1,0,3:2:0:0:
349,225,10312,1,0,3:2:0:0:
406,280,10442,1,0,3:2:0:0:
482,258,10572,1,0,3:2:0:0:
501,181,10701,1,0,3:2:0:0:
44,39,11481,5,0,3:2:0:0:
123,55,11740,1,0,3:2:0:0:
16,116,12000,1,0,3:2:0:0:
16,116,12130,1,0,3:2:0:0:
123,55,12260,2,0,P|133:154|166:305,1,251.333321828207,0|0,3:2|0:2,0:2:0:0:
235,262,12909,1,2,3:2:0:0:
66,364,13039,6,0,P|57:307|34:218,1,125.666660914103,6|2,1:2|0:2,0:2:0:0:
250,59,13559,1,2,0:2:0:0:
225,131,13688,1,2,0:2:0:0:
250,59,13818,2,0,P|277:200|309:330,1,251.333321828207,2|2,3:2|0:2,0:2:0:0:
470,345,14468,5,2,0:2:0:0:
470,345,14597,1,2,3:2:0:0:
512,276,14857,1,2,0:2:0:0:
460,217,15117,1,2,0:2:0:0:
384,243,15247,1,2,0:2:0:0:
385,321,15377,2,0,P|321:334|133:380,1,251.333321828207,2|2,3:2|0:2,0:2:0:0:
0,250,16026,5,2,0:2:0:0:
70,283,16156,2,0,P|128:272|197:252,1,125.666660914103,2|2,1:2|0:2,0:2:0:0:
362,77,16675,1,2,0:2:0:0:
311,136,16805,1,2,0:2:0:0:
362,77,16935,2,0,P|275:103|101:141,1,251.333321828207,2|2,3:2|0:2,0:2:0:0:
13,34,17584,5,2,0:2:0:0:
13,34,17714,1,2,3:2:0:0:
32,107,17974,1,2,0:2:0:0:
51,180,18234,1,2,0:2:0:0:
70,253,18364,1,2,0:2:0:0:
89,326,18494,2,0,P|96:234|134:62,1,251.333321828207,2|0,3:2|0:2,0:2:0:0:
390,89,19143,5,2,0:2:0:0:
298,21,19273,2,0,P|296:85|280:174,1,125.666660914103,2|2,1:2|0:2,0:2:0:0:
173,303,19792,1,2,0:2:0:0:
133,233,19922,1,2,0:2:0:0:
173,303,20052,2,0,P|185:178|212:44,1,251.333321828207,2|0,3:2|0:2,0:2:0:0:
439,221,20701,5,2,0:2:0:0:
479,155,20831,2,0,P|413:179|307:205,1,125.666660914103,2|2,3:2|0:2,0:2:0:0:
220,367,21351,1,2,0:2:0:0:
173,303,21481,1,2,0:2:0:0:
220,367,21610,2,0,P|365:326|479:301,1,251.333321828207,2|2,3:2|0:2,0:2:0:0:
396,103,22260,5,2,0:2:0:0:
396,103,22390,1,2,1:2:0:0:
337,50,22649,1,2,0:2:0:0:
265,83,22909,1,2,0:2:0:0:
218,18,23039,1,2,0:2:0:0:
157,70,23169,2,0,P|198:200|229:322,1,251.333321828207,2|2,3:2|0:2,0:2:0:0:
32,357,23818,5,2,0:2:0:0:
62,285,23948,2,0,P|45:226|30:130,1,125.666660914103,2|2,3:2|0:2,0:2:0:0:
218,18,24468,1,2,0:2:0:0:
270,73,24597,1,2,0:2:0:0:
218,18,24727,2,2,P|275:212|318:391,1,376.99998274231,2|6,3:2|1:2,0:1:0:0:
227,362,26286,6,0,P|401:304|540:271,1,290,2|2,3:2|3:2,0:2:0:0:
480,365,27844,1,2,3:2:0:0:
480,365,28234,2,0,P|446:246|428:169,2,188.499991371155,2|0|2,0:2|0:2|0:2,0:2:0:0:
480,365,31351,1,2,0:2:0:0:
0,91,31740,6,0,P|201:129|447:160,1,435.000016593934,2|2,1:2|3:2,0:2:0:0:
343,70,33299,2,0,P|305:256|285:422,1,319.000009735108,2|2,3:2|3:2,0:2:0:0:
380,317,34468,1,2,0:2:0:0:
380,317,34857,2,0,P|303:306|136:289,1,232,2|0,1:2|3:2,0:2:0:0:
485,0,36026,6,2,P|479:35|466:85,1,87,2|0,0:2|0:2,0:1:0:0:
23,363,37974,6,0,P|43:268|120:18,1,333.500006361008,6|0,1:2|3:2,0:2:0:0:
41,7,38623,1,0,3:2:0:0:
0,260,38753,2,0,P|105:227|249:187,1,217.500008296967,10|0,3:2|3:2,0:2:0:0:
496,369,39403,5,2,3:2:0:0:
420,349,39533,1,2,3:2:0:0:
208,197,39792,5,2,3:2:0:0:
284,217,39922,1,2,1:2:0:0:
420,349,40182,5,0,3:2:0:0:
284,217,40312,2,0,P|157:253|-2:312,1,290,8|0,3:2|3:2,0:2:0:0:
448,7,41091,5,6,1:2:0:0:
464,142,41286,1,2,0:2:0:0:
339,89,41481,1,2,3:2:0:0:
417,79,41675,1,2,0:2:0:0:
490,289,41870,5,10,3:2:0:0:
419,320,42065,1,2,0:2:0:0:
348,351,42260,1,2,3:2:0:0:
277,382,42455,1,2,0:2:0:0:
474,379,42649,5,2,3:2:0:0:
474,379,42844,1,2,0:2:0:0:
19,94,43039,6,2,P|44:158|88:307,1,193.333333333333,2|0,1:2|3:2,2:1:0:0:
297,287,43429,1,8,3:2:0:0:
127,374,43688,5,0,3:2:0:0:
181,319,43818,2,0,P|156:244|136:164,1,145.000005531311,0|0,1:2|3:2,0:2:0:0:
473,0,44208,6,0,P|333:40|127:113,1,333.500006361008,6|0,1:2|3:2,0:2:0:0:
105,45,44857,1,0,3:2:0:0:
436,98,44987,2,0,P|420:152|391:343,1,217.500008296967,10|0,3:2|3:2,0:2:0:0:
98,353,45636,5,2,3:2:0:0:
65,280,45766,1,2,3:2:0:0:
258,116,46026,5,2,3:2:0:0:
291,188,46156,1,2,1:2:0:0:
98,353,46416,5,0,3:2:0:0:
258,116,46546,2,0,P|355:157|540:211,1,290,8|0,3:2|3:2,0:2:0:0:
36,24,47325,5,6,1:2:0:0:
3,130,47520,1,2,0:2:0:0:
109,163,47714,1,2,1:2:0:0:
3,130,47909,1,2,0:2:0:0:
284,0,48104,5,10,3:2:0:0:
284,0,48299,1,2,0:2:0:0:
268,362,48494,6,2,P|224:188|181:61,1,290,2|0,3:2|3:2,0:1:0:0:
115,71,49143,1,0,3:2:0:0:
115,71,49273,1,0,1:2:0:0:
407,0,49533,5,2,3:2:0:0:
383,75,49662,1,10,3:2:0:0:
511,210,49922,5,2,3:2:0:0:
436,186,50051,1,2,1:2:0:0:
16,365,50442,6,0,P|329:306|504:281,2,478.500004563332,6|2|10,1:2|1:2|3:2,0:2:0:0:
94,0,51805,5,2,0:2:0:0:
164,242,52000,1,2,3:2:0:0:
21,99,52260,5,0,1:2:0:0:
97,115,52390,1,0,1:2:0:0:
260,37,52649,5,2,3:2:0:0:
97,115,52779,2,0,P|86:168|73:221,1,108.750004148483,10|2,3:2|0:2,0:2:0:0:
234,349,53169,2,0,P|181:336|128:326,1,108.750004148483,2|2,3:2|0:2,0:2:0:0:
471,184,53559,6,0,P|236:229|0:265,2,478.500004563332,6|2|10,1:2|1:2|3:2,0:2:0:0:
414,240,54727,5,0,3:2:0:0:
414,240,55117,1,0,3:2:0:0:
361,182,55377,1,0,3:2:0:0:
284,192,55507,1,0,1:2:0:0:
249,262,55636,1,0,3:2:0:0:
276,335,55766,1,0,3:2:0:0:
393,366,55896,6,0,P|378:313|367:260,1,108.750004148483,10|2,3:2|0:2,0:2:0:0:
464,46,56286,1,2,1:2:0:0:
104,383,56675,6,0,P|69:198|23:15,2,376.99998274231,6|2|10,1:2|1:2|3:2,0:2:0:0:
459,324,58039,5,2,0:2:0:0:
203,246,58234,1,2,3:2:0:0:
393,74,58494,5,0,1:2:0:0:
373,151,58623,1,0,1:2:0:0:
151,169,58883,5,2,3:2:0:0:
393,74,59013,2,0,P|403:127|415:180,1,108.750004148483,10|2,3:2|0:2,0:2:0:0:
207,107,59403,2,0,P|196:53|185:0,1,108.750004148483,2|2,3:2|0:2,0:2:0:0:
19,350,59792,5,6,1:2:0:0:
