osu file format v14

[General]
AudioFilename: audio.mp3
AudioLeadIn: 0
PreviewTime: 37834
Countdown: 0
SampleSet: Drum
StackLeniency: 0.7
Mode: 0
LetterboxInBreaks: 0
WidescreenStoryboard: 1

[Editor]
DistanceSpacing: 1
BeatDivisor: 4
GridSize: 32
TimelineZoom: 1

[Metadata]
Title:Enemy (TV Size)
TitleUnicode:Enemy (TV Size)
Artist:Imagine Dragons x JID
ArtistUnicode:Imagine Dragons x JID
Creator:Elayue
Version:Xahlt's Normal
Source:Arcane
Tags:j.i.d lol league of legends english pop jinx powder vi ekko jayce viktor riot games netflix destin choice route heimerdinger male vocals vocalist piltover noxus xahlt zelq agatsu hero_ic heroine some hero glaze elicz1 deca runeterra
BeatmapID:3363337
BeatmapSetID:1642885

[Difficulty]
HPDrainRate:4
CircleSize:3.5
OverallDifficulty:4
ApproachRate:5
SliderMultiplier:2.1
SliderTickRate:1

[Events]
//Background and Video events
0,0,"m4ypzfm7i7181.jpg",0,0
//Break Periods
//Storyboard Layer 0 (Background)
//Storyboard Layer 1 (Fail)
//Storyboard Layer 2 (Pass)
//Storyboard Layer 3 (Foreground)
//Storyboard Layer 4 (Overlay)
//Storyboard Sound Samples

[TimingPoints]
572,779.220779220779,4,3,1,25,1,0
6805,-111.111111111111,4,3,1,25,0,0
13039,-100,4,2,1,40,0,0
22130,-100,4,2,1,25,0,0
22260,-100,4,2,1,40,0,0
25507,-100,4,2,1,50,0,0
26286,-100,4,2,1,40,0,0
27065,-100,4,2,1,30,0,0
31740,-100,4,2,1,35,0,0
36026,-100,4,2,0,40,0,0
36156,-100,4,2,1,60,0,0
37195,-100,4,2,1,25,0,0
37974,-90.9090909090909,4,2,1,70,0,0
59792,-90.9090909090909,4,2,2,70,0,0
61351,-90.9090909090909,4,2,1,50,0,0

[Colours]
Combo1 : 24,254,180
Combo2 : 0,183,91

[HitObjects]
218,69,6805,6,0,P|181:96|122:93,1,94.499997116089,0|0,0:0|0:0,0:0:0:0:
47,58,7584,2,0,P|62:141|82:258,2,188.999994232178,0|0|0,1:2|1:2|1:2,0:0:0:0:
180,192,9922,6,0,P|226:193|264:220,1,94.499997116089,0|0,1:2|0:0,0:0:0:0:
317,298,10701,2,0,B|415:289|368:193|504:196,2,188.999994232178,0|0|0,1:2|1:2|1:2,0:0:0:0:
199,377,12844,5,2,0:0:0:0:
199,377,13039,2,0,P|154:345|105:340,1,105,4|0,1:1|0:0,0:0:0:0:
57,349,13623,1,2,0:0:0:0:
57,349,13818,2,0,P|43:293|24:230,1,105,2|0,1:2|0:2,0:0:0:0:
115,186,14597,2,0,P|129:130|148:67,1,105,2|0,1:2|0:2,0:0:0:0:
163,38,15182,1,2,0:0:0:0:
163,38,15377,1,2,1:2:0:0:
246,171,15961,1,2,0:0:0:0:
246,171,16156,6,0,P|297:160|349:150,1,105,2|0,1:2|0:0,0:0:0:0:
403,140,16740,1,2,0:0:0:0:
403,140,16935,2,0,P|432:99|423:48,1,105,2|0,1:2|0:0,0:0:0:0:
327,3,17714,2,0,P|275:12|223:23,1,105,2|0,1:2|0:2,0:0:0:0:
199,71,18299,1,2,0:0:0:0:
199,71,18494,1,2,1:2:0:0:
56,22,19078,5,2,0:0:0:0:
56,22,19273,2,0,P|93:66|77:127,1,105,2|0,1:2|0:0,0:0:0:0:
46,141,19857,1,2,0:0:0:0:
46,141,20052,2,0,P|42:198|36:268,1,105,2|0,1:2|0:0,0:0:0:0:
24,349,20831,2,0,P|77:341|164:335,1,105,2|0,1:2|0:0,0:0:0:0:
183,330,21416,1,2,0:0:0:0:
183,330,21610,1,2,1:2:0:0:
331,381,22195,5,2,0:0:0:0:
331,381,22390,2,0,P|339:331|353:251,1,105,2|0,1:2|0:2,0:0:0:0:
358,225,22974,1,2,0:0:0:0:
358,225,23169,2,0,B|321:185|321:185|285:200|242:214,1,105,2|0,1:2|0:2,0:0:0:0:
181,253,23948,2,0,P|128:244|42:233,1,105,2|0,1:2|0:0,0:0:0:0:
25,224,24533,1,2,0:0:0:0:
25,224,24727,1,2,1:2:0:0:
193,97,25507,6,0,P|296:81|399:57,2,210,4|2|2,3:1|1:2|3:2,0:0:0:0:
24,222,27844,1,2,1:2:0:0:
89,304,28234,2,0,B|188:268|294:269|294:269|328:214|266:171,1,315,2|0,0:2|1:2,0:0:0:0:
173,148,29792,1,2,0:0:0:0:
374,252,31351,5,2,0:2:0:0:
301,327,31740,2,0,P|360:335|531:379,2,210,6|2|2,1:2|1:2|1:2,0:0:0:0:
97,381,34078,1,2,1:2:0:0:
12,318,34468,2,0,B|-33:252|60:122|112:295|231:153|129:64,1,315,2|0,3:2|1:2,0:0:0:0:
125,1,36026,2,2,P|275:46|431:41,1,315,2|0,0:1|3:2,0:0:0:0:
431,41,37974,6,0,P|346:49|280:104,1,173.250005287171,6|0,1:1|0:0,0:0:0:0:
238,143,38753,2,0,P|181:143|121:93,1,115.50000352478,10|0,0:2|3:2,0:0:0:0:
94,68,39338,1,2,0:0:0:0:
94,68,39533,2,0,P|104:38|116:-16,2,57.7500017623902,2|2|2,0:2|0:0|1:2,0:0:0:0:
9,146,40312,1,8,0:2:0:0:
85,232,40701,1,0,0:0:0:0:
3,314,41091,6,0,P|28:318|69:328,1,57.7500017623902,2|2,1:1|0:2,0:0:0:0:
102,364,41481,2,0,P|127:360|168:350,1,57.7500017623902,2|2,0:2|3:2,0:0:0:0:
202,315,41870,2,0,P|194:283|184:231,2,57.7500017623902,10|2|2,0:2|0:0|0:2,0:0:0:0:
302,372,42649,2,0,P|329:362|380:345,1,57.7500017623902,2|0,3:2|0:0,0:0:0:0:
414,355,43039,2,0,P|462:340|467:263,1,115.50000352478,2|8,1:2|0:2,0:0:0:0:
399,196,43818,1,2,1:1:0:0:
290,235,44208,6,0,P|203:228|74:195,1,173.250005287171,6|0,1:1|0:0,0:0:0:0:
65,188,44987,2,0,B|33:143|33:143|55:122|88:86,1,115.50000352478,10|0,0:2|0:0,0:0:0:0:
120,64,45571,1,2,0:0:0:0:
120,64,45766,2,0,P|113:35|106:-5,2,57.7500017623902,2|2|2,0:2|0:0|1:2,0:0:0:0:
214,130,46546,1,10,0:2:0:0:
308,63,46935,1,0,0:0:0:0:
396,137,47325,6,0,P|423:132|460:122,1,57.7500017623902,6|2,1:1|0:0,0:0:0:0:
500,156,47714,2,0,P|505:183|515:220,1,57.7500017623902,2|2,1:1|0:0,0:0:0:0:
481,261,48104,2,0,P|454:266|417:276,1,57.7500017623902,10|2,0:2|0:0,0:0:0:0:
386,317,48494,2,0,B|330:340|330:340|299:322|282:312,1,115.50000352478,2|0,3:2|3:2,0:0:0:0:
198,232,49273,2,0,P|206:202|221:154,1,57.7500017623902,0|0,1:2|0:0,0:0:0:0:
192,123,49662,2,0,P|184:92|171:44,2,57.7500017623902,10|2|2,0:2|0:0|1:2,0:0:0:0:
80,153,50442,6,0,P|31:192|50:246,1,115.50000352478,6|6,1:1|1:1,0:0:0:0:
13,349,51221,2,0,P|96:326|182:320,1,173.250005287171,10|2,0:2|0:3,0:0:0:0:
228,355,52000,2,0,P|282:368|328:336,1,115.50000352478,2|0,3:3|1:2,0:0:0:0:
415,261,52779,2,0,P|409:236|398:181,1,57.7500017623902,10|2,0:2|0:0,0:0:0:0:
364,160,53169,1,2,0:2:0:0:
396,49,53559,6,0,B|449:29|449:29|467:53|511:99,2,115.50000352478,6|2|10,1:1|1:2|0:2,0:0:0:0:
287,89,54727,2,0,P|229:80|159:64,1,115.50000352478,2|8,0:3|0:2,0:0:0:0:
70,120,55507,2,0,P|60:153|46:193,1,57.7500017623902,0|0,1:2|0:0,0:0:0:0:
16,220,55896,2,0,P|26:248|39:301,2,57.7500017623902,10|2|2,0:2|0:0|1:2,0:0:0:0:
127,246,56675,6,0,P|183:258|230:228,1,115.50000352478,6|2,1:1|1:1,0:0:0:0:
215,113,57455,2,0,P|294:137|397:163,1,173.250005287171,10|2,0:2|0:0,0:0:0:0:
438,172,58234,2,0,P|471:225|450:267,1,115.50000352478,2|0,3:2|1:1,0:0:0:0:
358,338,59013,2,0,P|324:331|275:325,1,57.7500017623902,10|2,0:2|0:0,0:0:0:0:
244,316,59403,1,2,0:0:0:0:
147,379,59792,5,6,1:1:0:0:
