osu file format v14

[General]
AudioFilename: audio.mp3
AudioLeadIn: 0
PreviewTime: 37834
Countdown: 0
SampleSet: Soft
StackLeniency: 0.7
Mode: 0
LetterboxInBreaks: 0
WidescreenStoryboard: 1

[Editor]
Bookmarks: 13093,25561,38028
DistanceSpacing: 0.8
BeatDivisor: 6
GridSize: 16
TimelineZoom: 2.5

[Metadata]
Title:Enemy (TV Size)
TitleUnicode:Enemy (TV Size)
Artist:Imagine Dragons x JID
ArtistUnicode:Imagine Dragons x JID
Creator:Elayue
Version:GlaZe's Extra
Source:Arcane
Tags:j.i.d lol league of legends english pop jinx powder vi ekko jayce viktor riot games netflix destin choice route heimerdinger male vocals vocalist piltover noxus xahlt zelq agatsu hero_ic heroine some hero glaze elicz1 deca runeterra
BeatmapID:3356545
BeatmapSetID:1642885

[Difficulty]
HPDrainRate:6
CircleSize:4.2
OverallDifficulty:8
ApproachRate:9
SliderMultiplier:2.2
SliderTickRate:1

[Events]
//Background and Video events
0,0,"cropped-1920-1080-1194463.jpg",0,0
//Break Periods
//Storyboard Layer 0 (Background)
//Storyboard Layer 1 (Fail)
//Storyboard Layer 2 (Pass)
//Storyboard Layer 3 (Foreground)
//Storyboard Layer 4 (Overlay)
//Storyboard Sound Samples

[TimingPoints]
572,779.220779220779,4,3,1,25,1,0
6805,-76.9230769230769,4,3,1,25,0,0
13039,-66.6666666666667,4,2,1,40,0,0
22130,-66.6666666666667,4,2,1,25,0,0
22260,-66.6666666666667,4,2,1,40,0,0
25507,-111.111111111111,4,2,1,50,0,0
26286,-111.111111111111,4,2,1,40,0,0
27065,-111.111111111111,4,2,1,30,0,0
31740,-90.9090909090908,4,2,1,35,0,0
36026,-76.9230769230769,4,2,0,40,0,0
36156,-76.9230769230769,4,2,1,60,0,0
37195,-76.9230769230769,4,2,1,25,0,0
37974,-40,4,2,1,70,0,0
46546,-37.037037037037,4,2,1,70,0,0
47325,-40,4,2,1,70,0,0
59792,-40,4,2,2,70,0,0
61351,-40,4,2,1,50,0,0

[Colours]
Combo1 : 255,72,164
Combo2 : 247,125,125
Combo3 : 74,164,236
Combo4 : 227,117,98
Combo5 : 171,137,218
Combo6 : 0,116,232

[HitObjects]
116,142,571,6,0,P|136:72|153:0,1,146.666666666667,4|4,1:3|1:3,0:0:0:0:
153,0,1351,1,0,0:2:0:0:
298,85,2130,6,0,P|262:95|226:102,1,73.3333333333333,4|0,0:3|0:2,0:0:0:0:
79,17,2649,2,0,P|115:27|151:35,1,73.3333333333333,0|0,0:2|0:2,0:0:0:0:
135,207,3688,5,0,0:0:0:0:
139,193,3948,1,0,0:2:0:0:
142,179,4208,1,0,0:2:0:0:
147,166,4468,1,0,0:2:0:0:
193,0,5247,6,0,P|201:35|208:71,1,73.3333333333333,4|0,0:3|0:2,0:0:0:0:
292,189,5766,1,0,0:2:0:0:
292,189,5896,1,0,0:0:0:0:
292,189,6026,2,0,P|313:176|344:158,2,36.6666666666667,0|0|0,0:2|0:0|0:0,0:0:0:0:
370,110,6416,2,0,L|372:73,1,36.6666666666667,0|0,0:0|0:0,0:0:0:0:
462,117,6676,1,0,0:0:0:0:
282,96,6805,6,0,P|235:87|188:79,1,95.3333289693199,0|0,0:0|1:2,0:0:0:0:
92,0,7195,2,0,L|106:45,1,47.6666644846599,0|0,0:0|0:2,0:0:0:0:
114,177,7455,1,0,0:2:0:0:
114,177,7584,2,0,B|51:171|67:252|-5:247,1,142.99999345398,0|0,1:2|0:0,0:0:0:0:
237,384,8364,6,0,P|224:339|215:290,2,95.3333289693199,0|0|0,1:2|1:2|0:2,0:0:0:0:
299,271,9013,1,0,0:2:0:0:
299,271,9143,2,0,P|387:285|420:211,1,142.99999345398,0|0,1:2|0:0,0:0:0:0:
335,0,9922,6,0,P|381:4|409:42,1,95.3333289693199,0|0,1:2|1:2,0:0:0:0:
466,131,10312,2,0,P|457:153|451:176,1,47.6666644846599,0|0,0:0|0:2,0:0:0:0:
396,320,10572,1,0,0:2:0:0:
396,320,10701,2,0,P|382:255|362:144,1,142.99999345398,0|0,1:2|0:0,0:0:0:0:
141,145,11481,5,0,1:2:0:0:
290,226,11740,1,0,1:2:0:0:
74,183,12000,1,0,0:2:0:0:
72,164,12130,1,0,0:2:0:0:
69,144,12260,1,0,1:2:0:0:
192,0,12520,1,0,0:0:0:0:
181,41,12650,1,0,0:0:0:0:
172,83,12780,1,0,0:0:0:0:
162,125,12909,1,0,0:0:0:0:
153,177,13039,6,0,B|217:196|236:119|236:119|262:42|351:64,1,220.000008392334,4|2,1:1|0:2,0:0:0:0:
434,0,13688,1,2,0:2:0:0:
434,0,13818,2,0,P|420:82|411:163,1,165.000006294251,2|0,1:2|0:2,0:0:0:0:
437,275,14338,5,2,0:2:0:0:
449,284,14468,1,2,0:2:0:0:
458,293,14597,2,0,L|522:282,1,55.0000020980836,2|0,1:2|0:2,0:0:0:0:
485,127,14857,2,0,P|456:82|403:78,1,110.000004196167,2|2,3:2|3:2,0:0:0:0:
344,211,15247,1,2,0:2:0:0:
344,211,15377,2,0,P|287:267|208:257,1,165.000006294251,2|0,1:2|0:2,0:0:0:0:
112,384,15896,5,2,0:2:0:0:
118,372,16026,1,2,0:2:0:0:
123,362,16156,2,0,P|111:308|93:256,1,110.000004196167,2|2,1:2|3:2,0:0:0:0:
162,63,16675,1,2,3:2:0:0:
155,52,16805,1,2,0:2:0:0:
143,50,16935,2,0,P|58:88|81:183,1,165.000006294251,2|0,1:2|0:0,0:0:0:0:
190,379,17714,6,0,B|246:378|227:323|277:323,2,110.000004196167,2|2|2,1:2|0:0|3:2,0:0:0:0:
367,307,18364,1,2,0:2:0:0:
367,307,18494,2,0,P|418:315|479:314,1,110.000004196167,2|0,1:2|0:0,0:0:0:0:
512,217,18883,2,0,P|491:200|473:180,1,55.0000020980836,0|0,0:0|0:0,0:0:0:0:
284,145,19143,5,2,0:0:0:0:
284,145,19273,2,0,P|327:211|406:217,1,165.000006294251,0|0,1:2|0:0,0:0:0:0:
314,74,19792,1,2,3:2:0:0:
314,74,19922,1,2,0:2:0:0:
314,74,20052,2,0,P|298:22|147:30,1,220.000008392334,2|0,1:2|0:0,0:0:0:0:
0,197,20831,6,0,P|55:254|134:246,1,165.000006294251,2|0,1:2|0:0,0:0:0:0:
176,162,21351,5,2,3:2:0:0:
182,148,21481,1,2,0:2:0:0:
188,135,21611,2,0,P|274:138|318:215,1,165.000006294251,2|0,1:2|0:0,0:0:0:0:
251,312,22130,1,0,3:2:0:0:
251,312,22260,1,2,0:2:0:0:
251,312,22390,2,0,P|282:293|322:273,1,55.0000020980836,2|0,1:2|0:2,0:0:0:0:
377,384,22649,2,0,P|387:358|396:332,1,55.0000020980836,2|0,3:2|0:2,0:0:0:0:
498,384,22909,5,2,0:2:0:0:
498,384,23039,1,2,0:2:0:0:
498,384,23169,2,0,P|479:330|472:249,1,110.000004196167,2|0,1:2|0:0,0:0:0:0:
338,162,23688,1,2,0:2:0:0:
338,162,23818,1,2,0:2:0:0:
338,162,23948,2,0,P|357:108|364:27,2,110.000004196167,2|2|2,1:2|3:2|0:2,0:0:0:0:
208,234,24597,1,2,0:2:0:0:
208,234,24727,2,0,B|291:212|312:310|312:310|332:402|451:350,1,275.000010490418,2|0,1:2|0:0,0:0:0:0:
406,365,25507,6,0,P|397:301|262:280,1,197.99999395752,4|2,3:1|1:2,0:0:0:0:
91,373,26675,1,0,0:0:0:0:
36,321,27065,2,0,P|53:271|58:224,1,98.9999969787599,2|0,3:2|0:0,0:0:0:0:
180,0,27844,1,2,1:2:0:0:
248,34,28234,1,2,0:2:0:0:
117,192,28623,6,0,P|72:208|18:222,1,98.9999969787599,0|0,0:0|0:0,0:0:0:0:
178,117,29403,2,0,P|222:100|276:86,1,98.9999969787599,0|0,1:2|0:0,0:0:0:0:
31,16,30182,2,0,P|55:59|81:101,2,98.9999969787599,0|0|0,1:0|1:2|1:2,0:0:0:0:
497,168,31351,5,2,0:2:0:0:
355,321,31740,2,0,P|391:204|414:94,1,201.666672821045,6|0,1:2|0:2,0:0:0:0:
408,126,32520,2,0,L|413:262,1,121.000003692627,2|0,1:2|0:0,0:0:0:0:
374,368,33299,2,0,P|322:345|329:289,1,121.000003692627,2|0,1:2|0:0,0:0:0:0:
471,66,34078,1,2,1:2:0:0:
419,5,34468,1,2,3:2:0:0:
403,148,34857,2,0,P|239:170|58:189,1,322.666676513672,0|0,3:2|0:0,0:0:0:0:
82,186,36026,2,2,P|276:207|538:242,1,428.999980361939,2|0,0:1|3:2,0:0:0:0:
512,76,37974,6,0,B|430:74|460:190|344:152,1,183.333333333333,6|0,1:1|0:0,0:0:0:0:
256,0,38364,2,0,P|300:-2|323:36,1,91.6666666666667,0|0,0:0|0:0,0:0:0:0:
289,250,38623,1,0,0:0:0:0:
511,112,38753,2,0,P|420:96|360:160,1,183.333333333333,10|0,0:2|0:0,0:0:0:0:
355,337,39143,2,0,P|380:370|436:377,1,91.6666666666667,0|0,3:2|0:0,0:0:0:0:
254,150,39403,5,0,0:0:0:0:
288,227,39533,1,2,0:2:0:0:
48,353,39792,1,0,0:0:0:0:
15,273,39922,2,0,P|50:187|76:88,1,183.333333333333,2|0,1:2|0:2,0:0:0:0:
187,339,40312,2,0,P|310:387|319:131,1,458.333333333333,8|0,0:2|0:0,0:0:0:0:
203,39,41091,5,2,1:1:0:0:
479,122,41286,1,2,0:2:0:0:
291,250,41481,1,2,0:2:0:0:
407,40,41675,1,2,3:2:0:0:
401,283,41870,2,0,P|369:345|301:356,1,137.5,10|2,0:2|0:0,0:0:0:0:
194,58,42260,2,0,P|238:66|288:147,1,137.5,2|2,0:2|0:2,0:0:0:0:
178,384,42649,1,2,3:2:0:0:
176,369,42909,5,2,3:3:0:0:
301,255,43039,2,0,P|392:269|494:272,1,183.333333333333,2|0,1:2|0:0,0:0:0:0:
300,378,43429,2,0,P|214:357|183:275,1,183.333333333333,8|0,0:2|0:0,0:0:0:0:
28,79,43818,2,0,P|115:85|159:162,1,183.333333333333,2|0,1:1|0:2,0:0:0:0:
279,382,44208,6,0,B|277:300|393:330|355:214,1,183.333333333333,6|0,1:1|0:0,0:0:0:0:
345,37,44598,2,0,P|366:77|383:120,1,91.6666666666667,0|0,0:0|0:0,0:0:0:0:
421,368,44857,1,0,0:0:0:0:
269,216,44987,2,0,P|206:155|120:173,1,183.333333333333,10|0,0:2|0:0,0:0:0:0:
27,21,45377,2,0,P|52:54|108:61,1,91.6666666666667
337,0,45637,5,0,0:0:0:0:
302,73,45767,1,2,0:2:0:0:
470,284,46026,1,0,0:0:0:0:
412,354,46156,2,0,P|319:360|218:380,1,183.333333333333,2|0,1:2|3:2,0:0:0:0:
146,102,46546,2,0,B|177:171|124:235|55:285|88:384|88:384|140:299|100:187,1,495.000001888275,10|0,0:2|0:0,0:0:0:0:
0,0,47325,6,0,P|-6:44|52:109,1,137.5,6|0,1:1|0:0,0:0:0:0:
311,26,47714,2,0,P|243:10|190:64,1,137.5,2|0,1:1|0:0,0:0:0:0:
376,134,48104,2,0,P|442:121|510:104,1,137.5,10|2,0:2|0:0,0:0:0:0:
274,191,48494,2,0,P|393:257|402:392,1,275,2|0,3:2|3:2,0:0:0:0:
405,384,49143,5,2,0:3:0:0:
175,218,49273,2,0,P|87:212|32:281,1,183.333333333333,0|2,1:2|0:0,0:0:0:0:
287,377,49662,2,0,P|257:343|235:303,1,91.6666666666667,10|0,0:2|0:0,0:0:0:0:
381,64,49922,1,2,0:0:0:0:
293,100,50052,2,0,P|262:134|240:174,1,91.6666666666667,2|0,1:2|3:3,0:0:0:0:
507,314,50312,1,0,3:3:0:0:
429,358,50442,2,0,P|342:282|324:175,1,183.333333333333,6|0,1:1|0:0,0:0:0:0:
294,14,50831,2,0,P|380:7|427:82,1,183.333333333333,6|0,1:1|0:0,0:0:0:0:
310,317,51221,2,0,P|231:207|86:199,1,275,10|0,0:2|3:2,0:0:0:0:
474,180,51805,5,2,0:0:0:0:
273,20,52000,2,0,P|179:17|91:0,1,183.333333333333,2|2,3:3|0:3,0:0:0:0:
0,165,52390,2,0,P|87:171|195:188,1,183.333333333333,0|0,1:2|3:2,0:0:0:0:
246,137,52779,1,10,0:2:0:0:
76,317,52974,1,2,0:0:0:0:
289,384,53169,1,2,0:0:0:0:
181,185,53364,5,0,0:0:0:0:
405,381,53559,2,0,P|390:290|380:199,1,183.333333333333,6|0,1:1|0:2,0:0:0:0:
108,172,53948,2,0,P|179:229|237:299,1,183.333333333333,2|2,1:2|0:3,0:0:0:0:
511,156,54338,2,0,P|454:270|331:240,2,275,10|2|8,0:2|0:3|0:2,0:0:0:0:
511,156,55377,5,2,0:3:0:0:
404,7,55507,2,0,P|316:1|261:70,1,183.333333333333,0|0,1:2|0:0,0:0:0:0:
221,304,55896,2,0,P|208:259|182:216,1,91.6666666666667,10|0,0:2|0:0,0:0:0:0:
129,0,56156,1,0,0:0:0:0:
129,0,56286,2,0,P|131:45|143:89,1,91.6666666666667,2|2,1:2|0:3,0:0:0:0:
397,214,56546,5,0,0:0:0:0:
397,214,56676,2,0,P|340:146|251:149,1,183.333333333333,6|0,1:1|0:2,0:0:0:0:
13,192,57065,2,0,P|59:266|145:259,1,183.333333333333,2|2,1:1|0:3,0:0:0:0:
261,61,57455,2,0,P|375:-7|502:33,1,275,10|0,0:2|3:2,0:0:0:0:
103,189,58039,5,2,0:0:0:0:
330,344,58234,2,0,P|450:366|522:386,1,183.333333333333,2|2,3:2|0:3,0:0:0:0:
241,320,58623,2,0,P|122:324|44:321,1,183.333333333333,0|2,1:1|0:2,0:0:0:0:
0,384,59013,1,10,0:0:0:0:
165,187,59208,1,2,0:0:0:0:
330,344,59403,1,2,0:0:0:0:
471,174,59597,1,2,0:0:0:0:
187,0,59792,1,6,1:1:0:0:
