osu file format v14

[General]
AudioFilename: audio.mp3
AudioLeadIn: 0
PreviewTime: 37834
Countdown: 0
SampleSet: Soft
StackLeniency: 0.7
Mode: 0
LetterboxInBreaks: 0
WidescreenStoryboard: 0

[Editor]
DistanceSpacing: 0.8
BeatDivisor: 4
GridSize: 4
TimelineZoom: 1

[Metadata]
Title:Enemy (TV Size)
TitleUnicode:Enemy (TV Size)
Artist:Imagine Dragons x JID
ArtistUnicode:Imagine Dragons x JID
Creator:Elayue
Version:Extra
Source:Arcane
Tags:j.i.d lol league of legends english pop jinx powder vi ekko jayce viktor riot games netflix destin choice route heimerdinger male vocals vocalist piltover noxus xahlt zelq agatsu hero_ic heroine some hero glaze elicz1 deca runeterra
BeatmapID:3353402
BeatmapSetID:1642885

[Difficulty]
HPDrainRate:6
CircleSize:4
OverallDifficulty:8
ApproachRate:9
SliderMultiplier:2.2
SliderTickRate:1

[Events]
//Background and Video events
0,0,"m4ypzfm7i7181.jpg",0,0
//Break Periods
//Storyboard Layer 0 (Background)
//Storyboard Layer 1 (Fail)
//Storyboard Layer 2 (Pass)
//Storyboard Layer 3 (Foreground)
//Storyboard Layer 4 (Overlay)
//Storyboard Sound Samples

[TimingPoints]
572,779.220779220779,4,3,1,25,1,0
6026,-83.3333333333333,4,3,1,25,0,0
13039,-100,4,2,1,40,0,0
22130,-100,4,2,1,25,0,0
22260,-100,4,2,1,40,0,0
25507,-100,4,2,1,50,0,0
26286,-100,4,2,1,40,0,0
27065,-100,4,2,1,30,0,0
31740,-100,4,2,1,35,0,0
32520,-83.3333333333333,4,2,1,35,0,0
33299,-71.4285714285714,4,2,1,35,0,0
34857,-90.9090909090909,4,2,1,35,0,0
36026,-90.9090909090909,4,2,0,40,0,0
36156,-90.9090909090909,4,2,1,60,0,0
37195,-90.9090909090909,4,2,1,25,0,0
37974,-62.5,4,2,1,70,0,0
59792,-62.5,4,2,2,70,0,0
61351,-62.5,4,2,1,50,0,0

[Colours]
Combo1 : 24,254,180
Combo2 : 0,183,91

[HitObjects]
185,192,571,6,0,P|192:157|226:134,2,73.3333333333333,4|4|4,1:3|1:3|1:3,0:0:0:0:
238,257,1351,1,0,0:2:0:0:
109,357,2130,6,0,L|36:369,2,73.3333333333333,4|0|0,0:3|0:2|0:2,0:0:0:0:
170,307,2910,1,0,0:2:0:0:
288,190,3688,6,0,L|375:210,2,73.3333333333333,0|0|0,0:0|0:2|0:2,0:0:0:0:
221,135,4468,1,0,0:2:0:0:
399,124,5247,6,0,L|383:52,1,73.3333333333333,4|0,0:3|0:2,0:0:0:0:
466,184,5766,1,0,0:2:0:0:
466,184,5896,1,0,0:0:0:0:
466,184,6026,2,0,L|451:237,1,43.9999986572266,0|0,0:2|0:0,0:0:0:0:
347,294,6286,2,0,L|394:278,1,43.9999986572266,0|0,0:0|0:0,0:0:0:0:
454,340,6546,1,0,0:0:0:0:
454,340,6675,1,0,0:0:0:0:
454,340,6805,1,0,0:0:0:0:
274,338,7065,5,0,1:2:0:0:
274,338,7195,1,0,0:0:0:0:
274,338,7325,2,0,L|258:385,1,43.9999986572266,0|0,0:2|0:2,0:0:0:0:
237,173,7584,2,0,B|240:222|288:255|294:205|347:239|349:317,1,175.999994628906,0|0,1:2|0:0,0:0:0:0:
174,382,8364,5,0,1:2:0:0:
87,317,8623,1,0,1:2:0:0:
122,209,8883,5,0,0:2:0:0:
90,308,9013,1,0,0:2:0:0:
38,174,9143,2,0,L|6:-31,1,175.999994628906,0|0,1:2|0:2,0:0:0:0:
162,131,9922,5,0,1:2:0:0:
244,39,10182,1,0,1:2:0:0:
244,39,10312,1,0,0:0:0:0:
244,39,10442,2,0,L|229:105,1,43.9999986572266,0|0,0:2|0:2,0:0:0:0:
353,223,10701,2,0,P|413:177|394:81,1,175.999994628906,0|0,1:2|0:0,0:0:0:0:
312,114,11481,5,0,1:2:0:0:
353,223,11740,1,0,1:2:0:0:
248,279,12000,1,0,0:2:0:0:
248,279,12130,1,0,0:2:0:0:
248,279,12260,1,0,1:2:0:0:
383,384,12520,1,0,0:0:0:0:
413,377,12649,1,0,0:0:0:0:
427,347,12779,1,0,0:0:0:0:
418,318,12909,1,0,0:0:0:0:
393,303,13039,6,0,L|227:276,1,146.666666666667,4|2,1:1|0:2,0:0:0:0:
170,238,13688,1,2,0:2:0:0:
170,238,13818,2,0,P|106:256|114:353,1,146.666666666667,2|2,1:2|0:2,0:0:0:0:
160,376,14468,1,2,0:2:0:0:
160,376,14597,1,2,1:2:0:0:
70,245,14857,1,2,3:2:0:0:
189,160,15117,5,2,3:2:0:0:
263,115,15247,1,2,0:2:0:0:
144,88,15377,6,0,L|2:127,1,146.666666666667,2|2,1:2|0:2,0:0:0:0:
217,42,16026,1,2,0:2:0:0:
217,42,16156,2,0,B|281:60|281:60|290:81|290:81|371:106,1,146.666666666667,2|2,1:2|3:2,0:0:0:0:
429,51,16805,1,2,0:2:0:0:
429,51,16935,2,0,L|465:210,1,146.666666666667,2|2,1:2|0:2,0:0:0:0:
487,272,17585,1,2,0:2:0:0:
487,272,17714,5,2,1:2:0:0:
375,182,17974,1,2,0:0:0:0:
505,5,18234,1,2,3:2:0:0:
505,5,18364,1,2,0:2:0:0:
429,51,18494,6,0,P|352:77|306:11,1,165,2|0,1:2|0:0,0:0:0:0:
121,15,19273,2,0,P|50:3|-2:55,1,146.666666666667,2|2,1:2|3:2,0:0:0:0:
133,138,19922,1,2,0:2:0:0:
133,138,20052,2,0,L|164:296,1,146.666666666667,2|0,1:2|0:0,0:0:0:0:
126,353,20702,1,0,0:0:0:0:
126,353,20831,1,2,1:2:0:0:
229,226,21091,1,2,3:2:0:0:
362,368,21351,5,2,3:2:0:0:
285,321,21481,1,2,0:2:0:0:
407,292,21611,6,0,L|435:132,1,146.666666666667,2|0,1:2|3:2,0:0:0:0:
430,4,22260,5,2,0:2:0:0:
430,4,22390,2,0,P|482:16|490:115,1,146.666666666667,2|2,1:2|0:2,0:0:0:0:
348,176,23039,1,2,0:2:0:0:
299,113,23169,2,0,L|137:81,1,146.666666666667,2|2,1:2|0:2,0:0:0:0:
18,16,23819,5,2,0:2:0:0:
68,86,23948,1,2,1:2:0:0:
17,199,24208,5,2,3:2:0:0:
104,291,24468,5,2,0:2:0:0:
142,220,24598,1,2,0:2:0:0:
243,330,24728,6,0,L|400:286,1,146.666666666667,2|0,1:2|0:0,0:0:0:0:
461,334,25377,1,0,0:0:0:0:
461,334,25507,2,0,L|518:92,2,220,4|2|2,3:1|1:2|3:2,0:0:0:0:
404,190,27455,1,0,0:0:0:0:
270,60,27844,5,2,1:2:0:0:
270,60,28234,2,0,L|293:129,1,73.3333333333333,2|0,0:2|0:0,0:0:0:0:
210,238,28623,6,0,P|102:250|60:144,1,220,0|0,0:0|1:2,0:0:0:0:
294,210,29792,1,0,0:0:0:0:
294,210,30182,2,0,P|347:213|385:266,2,110,0|0|0,1:0|1:2|1:2,0:0:0:0:
100,375,31351,5,2,0:2:0:0:
172,58,31740,6,0,L|212:248,1,183.333333333333,6|0,1:2|0:2,0:0:0:0:
27,330,32520,6,0,L|71:93,1,219.999993286133,2|0,1:2|0:2,0:0:0:0:
251,2,33299,6,0,L|319:307,1,307.999990600586,2|2,1:2|1:2,0:0:0:0:
363,71,34468,1,2,3:2:0:0:
382,357,34857,6,0,P|446:328|450:166,1,242.000007385254,0|0,3:2|1:2,0:0:0:0:
318,302,36025,5,2,0:1:0:0:
69,287,36415,6,2,P|166:273|253:389,1,242.000007385254,0|0,0:0|3:2,0:0:0:0:
512,0,37974,6,0,L|203:98,1,293.333333333333,6|0,1:1|0:0,0:0:0:0:
0,91,38753,2,0,B|72:106|72:106|89:129|89:129|173:145,1,176,10|0,0:2|3:2,0:0:0:0:
297,19,39338,5,2,0:0:0:0:
243,181,39533,1,2,0:2:0:0:
164,19,39727,1,2,0:0:0:0:
347,261,39922,2,0,L|323:143,1,117.333333333333,2|0,1:2|0:2,0:0:0:0:
512,0,40312,6,0,L|442:301,1,293.333333333333,8|0,0:2|0:0,0:0:0:0:
503,355,41091,5,2,1:1:0:0:
429,201,41286,1,2,0:2:0:0:
274,298,41481,2,0,L|258:390,1,88,2|2,0:2|3:2,0:0:0:0:
361,260,41870,5,10,0:2:0:0:
243,173,42065,1,2,0:0:0:0:
168,302,42260,5,2,0:2:0:0:
91,180,42455,1,2,0:2:0:0:
85,350,42649,5,2,3:2:0:0:
167,140,42844,1,2,0:0:0:0:
8,0,43039,2,0,L|31:124,1,117.333333333333,2|0,1:2|0:0,0:0:0:0:
247,168,43429,2,0,L|271:41,1,117.333333333333,8|0,0:2|0:0,0:0:0:0:
440,0,43818,2,0,L|469:143,1,117.333333333333,2|0,1:1|0:2,0:0:0:0:
512,384,44208,6,0,L|224:296,1,293.333333333333,6|0,1:1|0:0,0:0:0:0:
13,361,44987,2,0,P|105:360|132:262,1,176,10|0,0:2|0:0,0:0:0:0:
79,155,45572,5,2,0:0:0:0:
196,229,45767,1,2,0:2:0:0:
15,216,45961,5,2,0:0:0:0:
255,173,46156,2,0,L|339:196,1,88,2|0,1:2|0:0,0:0:0:0:
512,384,46546,2,0,L|423:79,1,293.333333333333,10|0,0:2|0:0,0:0:0:0:
392,258,47325,1,6,1:1:0:0:
495,155,47520,1,2,0:0:0:0:
357,18,47715,2,0,L|329:136,1,88,2|2,1:1|0:0,0:0:0:0:
196,229,48104,5,10,0:2:0:0:
126,87,48299,1,2,0:0:0:0:
229,0,48494,2,0,B|246:78|246:78|237:98|237:98|254:172,1,176,2|0,3:2|3:2,0:0:0:0:
220,363,49143,5,2,0:3:0:0:
335,346,49273,2,0,P|304:296|220:305,1,117.333333333333,0|0,1:2|0:0,0:0:0:0:
80,367,49663,6,0,L|136:384,1,58.6666666666667,10|0,0:2|0:0,0:0:0:0:
67,220,49921,5,2,0:0:0:0:
20,294,50051,1,2,1:2:0:0:
0,76,50311,5,0,3:3:0:0:
67,220,50442,2,0,P|91:175|58:110,1,117.333333333333,6|0,1:1|0:0,0:0:0:0:
127,275,50831,2,0,L|241:251,1,117.333333333333,6|0,1:1|0:0,0:0:0:0:
335,346,51221,2,0,B|338:289|387:257|393:307|441:274|444:229,1,176,10|0,0:2|3:2,0:0:0:0:
332,69,51805,5,2,0:3:0:0:
382,180,52000,1,2,3:3:0:0:
332,69,52260,5,2,0:3:0:0:
512,37,52390,2,0,L|369:14,1,117.333333333333,0|0,1:2|3:2,0:0:0:0:
283,133,52779,2,0,L|191:165,1,88,10|2,0:2|0:0,0:0:0:0:
41,67,53169,1,2,0:2:0:0:
118,169,53364,1,2,0:0:0:0:
63,247,53559,6,0,L|30:369,1,117.333333333333,6|0,1:1|0:0,0:0:0:0:
259,237,53948,2,0,P|250:180|195:162,1,117.333333333333,2|0,1:2|0:0,0:0:0:0:
113,359,54338,2,0,L|286:319,1,176,10|2,0:2|0:3,0:0:0:0:
284,319,55117,1,8,0:2:0:0:
402,370,55377,5,2,0:3:0:0:
485,198,55507,2,0,L|455:314,1,117.333333333333,0|0,1:2|0:0,0:0:0:0:
499,384,55896,1,10,0:2:0:0:
388,263,56156,5,2,0:0:0:0:
388,263,56286,2,0,L|302:244,1,58.6666666666667,2|2,1:2|0:3,0:0:0:0:
186,271,56546,5,0,0:0:0:0:
231,151,56675,2,0,P|182:145|145:200,1,117.333333333333,6|0,1:1|0:0,0:0:0:0:
0,239,57065,2,0,P|29:270|105:253,1,117.333333333333,2|0,1:1|0:0,0:0:0:0:
280,86,57454,2,0,P|343:88|401:190,1,176,10|0,0:2|3:2,0:0:0:0:
202,56,58038,5,2,0:0:0:0:
192,259,58233,1,2,3:2:0:0:
256,317,58493,5,2,0:3:0:0:
94,366,58623,2,0,L|209:384,1,117.333333333333,0|2,1:1|0:2,0:0:0:0:
331,278,59013,2,0,L|438:257,1,88,10|2,0:2|0:0,0:0:0:0:
484,317,59402,1,2,0:0:0:0:
264,228,59597,1,2,0:0:0:0:
377,38,59792,5,6,1:1:0:0:
