osu file format v14

[General]
AudioFilename: audio.mp3
AudioLeadIn: 0
PreviewTime: 37834
Countdown: 0
SampleSet: Soft
StackLeniency: 0.7
Mode: 0
LetterboxInBreaks: 0
WidescreenStoryboard: 1

[Editor]
DistanceSpacing: 0.8
BeatDivisor: 6
GridSize: 32
TimelineZoom: 3.199999

[Metadata]
Title:Enemy (TV Size)
TitleUnicode:Enemy (TV Size)
Artist:Imagine Dragons x JID
ArtistUnicode:Imagine Dragons x JID
Creator:Elayue
Version:Deca's Misery
Source:Arcane
Tags:j.i.d lol league of legends english pop jinx powder vi ekko jayce viktor riot games netflix destin choice route heimerdinger male vocals vocalist piltover noxus xahlt zelq agatsu hero_ic heroine some hero glaze elicz1 deca runeterra
BeatmapID:3354278
BeatmapSetID:1642885

[Difficulty]
HPDrainRate:6
CircleSize:4
OverallDifficulty:8.5
ApproachRate:9.2
SliderMultiplier:3.59999990463257
SliderTickRate:1

[Events]
//Background and Video events
0,0,"FER3YB8VcAQZzm_.jpg",0,0
//Break Periods
//Storyboard Layer 0 (Background)
//Storyboard Layer 1 (Fail)
//Storyboard Layer 2 (Pass)
//Storyboard Layer 3 (Foreground)
//Storyboard Layer 4 (Overlay)
//Storyboard Sound Samples

[TimingPoints]
572,779.220779220779,4,3,1,25,1,0
572,-500,4,3,1,25,0,0
13039,-111.111111111111,4,2,1,40,0,0
14597,-83.3333333333333,4,2,1,40,0,0
15377,-111.111111111111,4,2,1,40,0,0
19273,-83.3333333333333,4,2,1,40,0,0
20052,-142.857142857143,4,2,1,40,0,0
20831,-111.111111111111,4,2,1,40,0,0
22130,-111.111111111111,4,2,1,25,0,0
22260,-111.111111111111,4,2,1,40,0,0
24727,-250,4,2,1,40,0,0
25507,-200,4,2,1,50,0,0
26286,-200,4,2,1,40,0,0
27065,-200,4,2,1,30,0,0
31351,-100,4,2,1,30,0,0
31740,-100,4,2,1,35,0,0
36026,-100,4,2,0,40,0,0
36156,-100,4,2,1,60,0,0
37195,-100,4,2,1,25,0,0
37974,-45.4545454545455,4,2,1,70,0,0
38753,-83.3333333333333,4,2,1,70,0,0
39338,-71.4285714285714,4,2,1,70,0,0
39922,-100,4,2,1,70,0,0
40312,-76.9230769230769,4,2,1,70,0,0
41091,-71.4285714285714,4,2,1,70,0,0
43039,-100,4,2,1,70,0,0
43429,-66.6666666666667,4,2,1,70,0,0
43818,-100,4,2,1,70,0,0
44208,-45.4545454545455,4,2,1,70,0,0
44987,-83.3333333333333,4,2,1,70,0,0
45571,-71.4285714285714,4,2,1,70,0,0
46156,-100,4,2,1,70,0,0
46546,-76.9230769230769,4,2,1,70,0,0
47325,-71.4285714285714,4,2,1,70,0,0
48494,-100,4,2,1,70,0,0
48883,-125,4,2,1,70,0,0
49662,-66.6666666666667,4,2,1,70,0,0
50442,-76.9230769230769,4,2,1,70,0,0
51610,-133.333333333333,4,2,1,70,0,0
52000,-76.9230769230769,4,2,1,70,0,0
54727,-133.333333333333,4,2,1,70,0,0
55117,-125,4,2,1,70,0,0
55896,-66.6666666666667,4,2,1,70,0,0
56675,-76.9230769230769,4,2,1,70,0,0
57844,-133.333333333333,4,2,1,70,0,0
58234,-76.9230769230769,4,2,1,70,0,0
59792,-76.9230769230769,4,2,2,70,0,0
61351,-76.9230769230769,4,2,1,50,0,0

[Colours]
Combo1 : 179,147,221
Combo2 : 247,125,125
Combo3 : 99,176,239
Combo4 : 232,139,123

[HitObjects]
122,261,571,5,4,1:3:0:0:
291,197,831,1,0,0:2:0:0:
166,139,1091,1,0,0:2:0:0:
230,265,1351,2,0,P|213:220|210:200,1,47.9999987284343,0|0,0:2|0:0,0:0:0:0:
506,152,2130,5,4,0:3:0:0:
337,88,2390,1,0,0:2:0:0:
462,30,2650,1,0,0:2:0:0:
398,156,2910,2,0,P|415:111|418:91,1,47.9999987284343,0|0,0:2|0:0,0:0:0:0:
506,226,3688,5,0,0:0:0:0:
337,290,3948,1,0,0:2:0:0:
462,348,4208,1,0,0:2:0:0:
398,222,4468,2,0,P|415:267|418:287,1,47.9999987284343,0|0,0:2|0:0,0:0:0:0:
23,102,5247,5,4,0:3:0:0:
192,166,5507,1,0,0:2:0:0:
67,224,5767,1,0,0:2:0:0:
67,224,5896,1,0,0:0:0:0:
131,98,6027,2,0,P|114:143|111:163,1,47.9999987284343,0|0,0:2|0:0,0:0:0:0:
218,343,6805,5,0,0:0:0:0:
412,262,7065,1,0,1:2:0:0:
270,216,7325,1,0,0:2:0:0:
373,381,7455,1,0,0:2:0:0:
307,330,7584,2,0,P|312:304|321:280,1,47.9999987284343,0|0,1:2|0:0,0:0:0:0:
320,84,8364,5,0,1:2:0:0:
509,163,8624,1,0,1:2:0:0:
360,211,8884,1,0,0:2:0:0:
468,44,9014,1,0,0:2:0:0:
408,105,9143,2,0,P|418:143|422:155,1,47.9999987284343,0|0,1:2|0:2,0:0:0:0:
29,123,9922,5,0,1:2:0:0:
226,216,10182,1,0,1:2:0:0:
76,254,10442,1,0,0:2:0:0:
182,99,10572,1,0,0:2:0:0:
116,145,10701,2,0,P|121:168|128:191,1,47.9999987284343,0|0,1:2|0:0,0:0:0:0:
310,351,11481,5,0,1:2:0:0:
501,271,11741,1,0,1:2:0:0:
357,225,12001,1,0,0:2:0:0:
464,381,12131,1,0,0:2:0:0:
398,334,12260,2,0,P|403:310|410:287,1,47.9999987284343,0|0,1:2|0:0,0:0:0:0:
451,86,13039,6,0,P|402:127|342:85,1,107.999993843079,4|0,1:1|0:0,0:0:0:0:
140,138,13559,1,2,0:2:0:0:
308,61,13688,1,2,0:2:0:0:
180,12,13818,2,0,P|212:97|225:199,1,161.999990764618,2|0,1:2|0:2,0:0:0:0:
134,366,14338,5,2,0:2:0:0:
60,234,14468,1,2,0:2:0:0:
5,342,14597,2,0,P|74:313|90:310,1,71.9999958953859,2|0,1:2|0:2,0:0:0:0:
159,226,14857,2,0,P|200:241|226:263,1,71.9999958953859,2|0,3:2|0:2,0:0:0:0:
333,369,15117,5,2,3:2:0:0:
333,369,15247,1,2,0:2:0:0:
393,314,15377,2,0,P|423:249|380:167,1,161.999990764618,2|0,1:2|0:2,0:0:0:0:
84,108,15896,5,2,0:2:0:0:
211,42,16026,1,2,0:2:0:0:
102,9,16156,2,0,P|40:26|-19:38,1,107.999993843079,2|2,1:2|3:2,0:0:0:0:
309,227,16675,1,2,3:2:0:0:
182,161,16805,1,2,0:2:0:0:
291,128,16935,2,0,P|353:145|412:157,1,107.999993843079,2|0,1:2|0:0,0:0:0:0:
189,384,17455,6,0,P|181:339|167:305,1,53.9999969215394,2|2,0:2|0:2,0:0:0:0:
156,252,17714,2,0,B|76:259|94:305|-7:310,1,161.999990764618,2|0,1:2|0:2,0:0:0:0:
102,363,18234,1,2,3:2:0:0:
241,244,18364,1,2,0:2:0:0:
36,162,18494,2,0,P|67:229|81:289,1,107.999993843079,2|0,1:2|0:0,0:0:0:0:
304,382,19013,6,0,P|313:342|325:318,1,53.9999969215394,0|0,0:0|0:0,0:0:0:0:
324,71,19273,2,0,P|340:138|354:166,1,71.9999958953859,2|0,1:2|0:0,0:0:0:0:
441,306,19533,2,0,P|392:280|347:265,1,71.9999958953859,2|0,3:2|0:0,0:0:0:0:
248,258,19792,1,2,3:2:0:0:
248,258,19922,1,2,0:2:0:0:
413,97,20052,2,0,P|478:131|458:222,1,167.999990422567,2|0,1:2|0:0,0:0:0:0:
134,212,20831,6,0,P|90:176|96:152,1,53.9999969215394,2|0,1:2|0:2,0:0:0:0:
18,158,21091,2,0,P|18:124|78:76,1,107.999993843079,2|2,3:2|3:2,0:0:0:0:
166,55,21481,1,2,0:2:0:0:
132,199,21610,2,0,P|59:178|14:261,1,161.999990764618,2|0,1:2|0:0,0:0:0:0:
113,326,22130,1,0,3:2:0:0:
223,234,22260,1,2,0:2:0:0:
281,319,22390,2,0,L|358:340,1,53.9999969215394,2|0,1:2|0:2,0:0:0:0:
417,243,22649,2,0,L|337:268,1,53.9999969215394,2|0,3:2|0:2,0:0:0:0:
200,378,22909,5,2,0:2:0:0:
204,382,23039,1,2,0:2:0:0:
184,159,23169,2,0,P|175:74|147:-31,1,161.999990764618,2|0,1:2|0:2,0:0:0:0:
177,264,23688,1,2,0:2:0:0:
262,129,23818,1,2,0:2:0:0:
104,175,23948,2,0,P|47:192|-11:203,1,107.999993843079,2|2,1:2|3:2,0:0:0:0:
254,252,24468,5,2,0:2:0:0:
134,89,24597,1,2,0:2:0:0:
333,183,24727,2,0,P|388:201|438:212,1,95.9999974568685,2|0,1:2|0:0,0:0:0:0:
405,128,25507,6,0,P|385:77|368:10,1,119.999996821086,4|0,3:1|0:0,0:0:0:0:
116,208,26286,2,0,P|169:188|238:173,1,119.999996821086,2|0,1:2|0:0,0:0:0:0:
301,106,27065,2,0,P|263:95|269:15,1,119.999996821086,2|0,3:2|0:0,0:0:0:0:
372,150,27844,1,2,1:2:0:0:
210,321,28234,1,2,0:2:0:0:
206,306,28623,2,0,B|213:214|297:260|293:129,1,179.999995231629,0|0,0:0|1:2,0:0:0:0:
278,146,30182,1,0,1:0:0:0:
360,254,30571,1,0,1:2:0:0:
178,165,30961,2,0,P|127:178|93:184,1,59.9999984105428,0|0,1:2|0:0,0:0:0:0:
57,222,31351,2,0,P|139:239|196:268,1,119.999996821086,2|0,0:2|0:2,0:0:0:0:
452,382,31740,6,0,B|417:308|497:263|497:263|485:245|485:245|406:297|347:243,1,299.999992052714,6|0,1:2|0:2,0:0:0:0:
359,87,32520,2,0,P|324:236|317:397,1,299.999992052714,2|0,1:2|3:2,0:0:0:0:
104,337,33299,2,0,P|105:279|181:264,1,119.999996821086,2|0,1:2|0:0,0:0:0:0:
278,285,33688,2,0,P|256:330|182:303,1,119.999996821086,0|0,0:0|0:2,0:0:0:0:
145,169,34078,1,2,1:2:0:0:
279,16,34468,6,0,P|291:88|312:153,1,119.999996821086,2|0,3:2|0:2,0:0:0:0:
359,267,34857,2,0,B|419:308|523:216|342:86|202:192|214:228,1,299.999992052714,0|0,3:2|0:0,0:0:0:0:
152,277,35636,2,0,P|201:297|262:231,1,119.999996821086,0|0,1:2|0:0,0:0:0:0:
219,83,36026,2,2,P|168:107|179:177,1,119.999996821086,2|0,0:1|0:0,0:0:0:0:
268,364,36416,2,2,P|286:224|349:3,1,359.999990463257,0|0,0:0|3:2,0:0:0:0:
344,13,37974,6,0,B|279:32|279:32|262:87|262:87|129:107,1,198.000000797272,6|0,1:1|0:0,0:0:0:0:
130,267,38753,2,0,P|118:154|80:15,1,215.999987686158,10|0,0:2|3:2,0:0:0:0:
319,191,39338,2,0,P|353:224|393:207,1,62.9999964084627,2|0,0:0|0:0,0:0:0:0:
413,288,39533,2,0,P|446:273|464:226,1,62.9999964084627,2|0,0:2|0:0,0:0:0:0:
458,151,39727,1,2,0:0:0:0:
298,282,39922,2,0,P|212:306|166:326,1,119.999996821086,2|0,1:2|0:2,0:0:0:0:
241,205,40312,2,2,B|198:91|334:115|281:-12,1,233.999983089448,8|0,0:2|0:0,0:1:0:0:
331,175,41091,6,0,P|378:153|420:142,1,62.9999964084627,2|0,1:1|0:0,0:0:0:0:
486,107,41286,2,0,P|441:88|418:73,1,62.9999964084627,2|0,0:2|0:0,0:0:0:0:
410,235,41481,1,2,0:2:0:0:
512,328,41675,1,2,3:2:0:0:
215,379,41870,6,0,L|235:306,1,62.9999964084627,10|0,0:2|0:0,0:0:0:0:
241,205,42065,1,2,0:0:0:0:
363,358,42260,1,2,0:2:0:0:
295,263,42455,1,0,0:2:0:0:
80,326,42649,6,0,P|142:303|192:289,1,83.9999952112835,2|0,3:2|0:0,0:0:0:0:
272,60,42909,1,2,3:3:0:0:
169,5,43039,2,0,P|190:80|206:143,1,119.999996821086,2|0,1:2|0:0,0:0:0:0:
446,360,43429,2,0,P|463:286|491:209,1,90.0000010490418,8|0,0:2|0:0,0:0:0:0:
467,272,43818,2,0,P|401:257|334:230,1,119.999996821086,2|0,1:1|0:2,0:0:0:0:
99,125,44208,6,0,B|164:144|164:144|181:199|181:199|293:217,1,198.000000797272,6|0,1:1|0:0,0:0:0:0:
339,315,44987,2,0,P|317:149|271:35,1,215.999987686158,10|0,0:2|0:0,0:0:0:0:
40,361,45571,2,0,P|69:321|117:322,1,62.9999964084627,2|0,0:0|0:0,0:0:0:0:
100,243,45766,2,0,P|148:250|168:287,1,62.9999964084627,2|0,0:2|0:0,0:0:0:0:
272,384,45961,1,2,0:0:0:0:
450,356,46156,2,0,P|382:346|324:331,1,119.999996821086,2|0,1:2|3:2,0:0:0:0:
393,261,46546,2,2,B|350:147|486:171|433:44,1,233.999983089448,10|0,0:2|0:0,0:1:0:0:
218,257,47325,6,0,P|181:237|126:223,1,62.9999964084627,6|0,1:1|0:0,0:0:0:0:
88,174,47520,2,0,P|128:154|158:142,1,62.9999964084627,2|0,0:0|0:0,0:0:0:0:
152,368,47714,2,0,P|139:326|126:292,1,62.9999964084627,2|0,1:1|0:0,0:0:0:0:
6,164,47909,1,2,0:0:0:0:
224,23,48104,6,0,P|211:56|198:106,1,62.9999964084627,10|0,0:2|0:0,0:0:0:0:
219,287,48299,1,2,0:0:0:0:
493,96,48494,2,0,P|418:70|361:40,1,119.999996821086,2|0,3:2|0:0,0:0:0:0:
381,52,48883,2,0,L|396:114,1,47.9999987284343,0|0,3:2|0:0,0:0:0:0:
389,356,49143,1,2,0:3:0:0:
489,262,49273,2,0,P|501:206|518:155,1,95.9999974568685,0|0,1:2|0:0,0:0:0:0:
275,244,49662,6,0,L|184:271,1,90.0000010490418,10|0,0:2|0:0,0:0:0:0:
162,358,50052,5,2,1:2:0:0:
375,211,50182,1,0,3:3:0:0:
121,103,50312,1,0,3:3:0:0:
263,15,50442,6,0,P|277:116|308:203,1,155.999988726299,6|0,1:1|0:0,0:0:0:0:
51,335,50831,2,0,P|74:248|117:164,1,155.999988726299,6|0,1:1|0:0,0:0:0:0:
348,58,51221,2,0,P|394:72|440:85,1,77.9999943631493,10|0,0:2|0:0,0:0:0:0:
423,80,51610,2,0,P|357:97|317:112,1,67.5000007867814,0|2,3:2|0:3,0:0:0:0:
82,305,52000,2,0,P|144:285|187:278,1,77.9999943631493,2|0,3:3|0:0,0:0:0:0:
245,384,52260,1,2,0:3:0:0:
372,308,52390,2,0,P|412:250|367:138,1,155.999988726299,0|0,1:2|3:2,0:0:0:0:
134,55,52779,5,10,0:2:0:0:
308,233,52974,1,2,0:0:0:0:
306,2,53169,5,2,0:2:0:0:
156,282,53364,1,2,0:0:0:0:
22,204,53559,6,0,P|118:158|198:141,1,155.999988726299,6|0,1:1|0:2,0:0:0:0:
512,118,53948,2,0,P|437:95|368:59,1,155.999988726299,2|2,1:2|0:3,0:0:0:0:
136,359,54338,2,0,P|151:299|175:268,1,77.9999943631493,10|0,0:2|0:0,0:0:0:0:
159,285,54727,2,0,P|119:276|69:257,1,67.5000007867814,2|0,0:3|0:0,0:0:0:0:
0,350,55117,2,0,L|69:328,1,47.9999987284343,8|0,0:2|0:2,0:0:0:0:
298,366,55377,1,2,0:3:0:0:
397,250,55507,2,0,P|380:178|366:138,1,95.9999974568685,0|0,1:2|0:0,0:0:0:0:
491,88,55896,6,0,P|434:81|410:76,1,67.5000007867814,10|0,0:2|0:0,0:0:0:0:
168,199,56286,5,2,1:2:0:0:
315,93,56416,1,2,0:3:0:0:
183,357,56546,1,0,0:0:0:0:
0,180,56675,6,0,P|20:99|25:-3,1,155.999988726299,6|0,1:1|0:2,0:0:0:0:
260,210,57065,2,0,P|271:298|300:384,1,155.999988726299,2|2,1:1|0:3,0:0:0:0:
429,43,57455,2,0,P|483:61|543:74,1,77.9999943631493,10|0,0:2|0:0,0:0:0:0:
503,66,57844,2,0,P|486:122|473:176,1,67.5000007867814,0|2,3:2|0:0,0:0:0:0:
194,317,58234,6,0,P|183:257|167:213,1,77.9999943631493,2|0,3:2|0:0,0:0:0:0:
87,186,58494,1,2,0:3:0:0:
336,6,58623,2,0,B|319:120|287:69|287:192,1,155.999988726299,0|2,1:1|0:2,0:0:0:0:
412,271,59013,5,10,0:2:0:0:
108,104,59208,1,2,0:0:0:0:
431,61,59403,5,2,0:0:0:0:
65,296,59597,1,2,0:0:0:0:
475,384,59792,6,0,P|440:246|429:155,1,233.999983089448,6|0,1:1|0:0,0:0:0:0:
