osu file format v14

[General]
AudioFilename: audio.mp3
AudioLeadIn: 0
PreviewTime: 37834
Countdown: 0
SampleSet: Soft
StackLeniency: 0.7
Mode: 0
LetterboxInBreaks: 0
WidescreenStoryboard: 1

[Editor]
Bookmarks: 13029,25497,37964
DistanceSpacing: 0.8
BeatDivisor: 4
GridSize: 4
TimelineZoom: 2.5

[Metadata]
Title:Enemy (TV Size)
TitleUnicode:Enemy (TV Size)
Artist:Imagine Dragons x JID
ArtistUnicode:Imagine Dragons x JID
Creator:Elayue
Version:Agatsu's Insane
Source:Arcane
Tags:j.i.d lol league of legends english pop jinx powder vi ekko jayce viktor riot games netflix destin choice route heimerdinger male vocals vocalist piltover noxus xahlt zelq agatsu hero_ic heroine some hero glaze elicz1 deca runeterra
BeatmapID:3355353
BeatmapSetID:1642885

[Difficulty]
HPDrainRate:6
CircleSize:4
OverallDifficulty:8
ApproachRate:9
SliderMultiplier:3
SliderTickRate:1

[Events]
//Background and Video events
0,0,"m4ypzfm7i7181.jpg",0,0
//Break Periods
//Storyboard Layer 0 (Background)
//Storyboard Layer 1 (Fail)
//Storyboard Layer 2 (Pass)
//Storyboard Layer 3 (Foreground)
//Storyboard Layer 4 (Overlay)
//Storyboard Sound Samples

[TimingPoints]
572,779.220779220779,4,3,1,25,1,0
13039,-100,4,2,1,40,0,0
25507,-142.857142857143,4,2,1,50,0,0
26286,-142.857142857143,4,2,1,40,0,0
27065,-142.857142857143,4,2,1,30,0,0
28234,-200,4,2,1,30,0,0
31351,-142.857142857143,4,2,1,30,0,0
31740,-142.857142857143,4,2,1,35,0,0
36026,-142.857142857143,4,2,0,40,0,0
36156,-142.857142857143,4,2,1,60,0,0
37195,-142.857142857143,4,2,1,25,0,0
37974,-100,4,2,1,70,0,0
59792,-100,4,2,2,70,0,0
61351,-100,4,2,1,50,0,0

[Colours]
Combo1 : 24,254,180
Combo2 : 0,183,91

[HitObjects]
32,190,572,5,4,1:3:0:0:
32,190,831,1,0,0:2:0:0:
32,190,1091,1,0,0:2:0:0:
32,190,1351,1,0,0:2:0:0:
415,271,2130,5,4,0:3:0:0:
415,271,2390,1,0,0:2:0:0:
415,271,2650,1,0,0:2:0:0:
415,271,2909,1,0,0:2:0:0:
139,352,3688,5,0,0:0:0:0:
139,352,3948,1,0,0:2:0:0:
139,352,4208,1,0,0:2:0:0:
139,352,4468,1,0,0:2:0:0:
312,377,5247,5,4,0:3:0:0:
312,377,5507,1,0,0:2:0:0:
312,377,5766,2,0,P|314:357|323:325,2,50,0|0|0,0:2|0:0|0:2,0:0:0:0:
144,292,6805,5,0,0:0:0:0:
61,374,7065,1,0,1:2:0:0:
70,299,7325,2,0,P|49:284|20:254,1,50,0|0,0:2|0:2,0:0:0:0:
136,367,7584,1,0,1:2:0:0:
332,205,8364,5,0,1:2:0:0:
415,287,8624,1,0,1:2:0:0:
406,212,8884,2,0,P|427:197|456:167,1,50,0|0,0:2|0:2,0:0:0:0:
340,280,9143,1,0,1:2:0:0:
67,182,9922,5,0,1:2:0:0:
128,59,10182,1,0,1:2:0:0:
142,132,10442,2,0,P|148:164|162:212,1,50,0|0,0:2|0:2,0:0:0:0:
40,38,10701,1,0,1:2:0:0:
471,146,11481,5,0,1:2:0:0:
410,23,11741,1,0,1:2:0:0:
396,96,12001,2,0,P|390:128|376:176,1,50,0|0,0:2|0:2,0:0:0:0:
498,2,12260,1,0,1:2:0:0:
251,121,12649,5,0,0:0:0:0:
251,121,12779,1,0,0:0:0:0:
251,121,12909,1,0,0:0:0:0:
251,121,13039,2,0,P|214:113|123:71,1,100,4|0,1:1|0:0,0:0:0:0:
150,97,13559,2,0,P|172:128|189:171,1,50,2|2,0:2|0:2,0:0:0:0:
212,239,13818,2,0,P|195:179|295:124,1,150,2|0,1:2|0:2,0:0:0:0:
323,108,14338,2,0,P|345:123|390:144,1,50,2|2,0:2|0:2,0:0:0:0:
476,183,14597,5,2,1:2:0:0:
326,248,14857,1,2,3:2:0:0:
430,384,15117,1,2,3:2:0:0:
430,384,15247,1,2,0:2:0:0:
430,384,15377,2,0,P|432:356|417:221,1,150,2|0,1:2|0:2,0:0:0:0:
378,174,15896,2,0,P|349:166|292:137,1,50,2|2,0:2|0:2,0:0:0:0:
180,75,16156,5,2,1:2:0:0:
294,224,16416,1,2,3:2:0:0:
136,138,16675,2,0,P|96:166|56:184,1,50,2|2,3:2|0:2,0:0:0:0:
50,257,16935,2,0,P|63:193|-23:140,1,150,2|0,1:2|0:0,0:0:0:0:
130,262,17455,5,2,0:2:0:0:
139,271,17584,1,2,0:2:0:0:
147,279,17714,2,0,P|102:315|25:349,1,100,2|0,1:2|0:0,0:0:0:0:
269,153,18234,2,0,P|282:118|307:77,1,50,2|2,3:2|0:2,0:0:0:0:
303,33,18494,2,0,B|309:164|378:92|378:243,1,225,2|2,1:2|0:0,0:0:0:0:
458,371,19273,5,2,1:2:0:0:
303,255,19533,2,0,P|270:239|232:211,1,50,2|0,3:2|0:0,0:0:0:0:
278,333,19792,1,2,3:2:0:0:
278,333,19922,1,2,0:2:0:0:
278,333,20052,2,0,P|346:351|414:263,1,150,2|0,1:2|0:0,0:0:0:0:
321,129,20636,5,2,0:0:0:0:
381,173,20831,2,0,P|396:130|405:76,1,100,2|2,1:2|3:2,0:0:0:0:
203,200,21351,1,2,3:2:0:0:
203,200,21481,1,2,0:2:0:0:
203,200,21610,2,0,P|140:212|90:119,1,150,2|0,1:2|0:0,0:0:0:0:
246,262,22130,2,0,P|313:293|336:301,1,50,0|2,3:2|0:2,0:0:0:0:
378,384,22390,6,0,P|377:365|362:272,1,100,2|2,1:2|3:2,0:0:0:0:
190,127,22909,1,2,0:2:0:0:
190,127,23039,1,2,0:2:0:0:
190,127,23169,2,0,B|277:141|239:184|368:178,1,150,2|0,1:2|0:2,0:0:0:0:
169,198,23688,2,0,P|114:220|82:226,1,50,2|2,0:2|0:2,0:0:0:0:
226,364,23948,5,2,1:2:0:0:
68,261,24208,1,2,3:2:0:0:
3,361,24468,1,2,0:2:0:0:
3,361,24597,1,2,0:2:0:0:
3,361,24727,2,0,P|67:344|175:291,1,150,2|0,1:2|0:0,0:0:0:0:
304,146,25247,2,0,P|282:202|275:231,1,50,0|0,0:0|0:0,0:0:0:0:
239,321,25507,6,0,P|270:232|190:169,1,209.999993591309,4|2,3:1|1:2,0:0:0:0:
123,201,27065,2,0,P|92:290|172:353,1,209.999993591309,2|2,3:2|1:2,0:0:0:0:
355,229,28234,2,0,P|390:222|436:204,1,75,2|0,0:2|0:0,0:0:0:0:
460,273,29013,2,0,P|435:311|412:357,1,75,0|0,0:0|1:2,0:0:0:0:
382,258,29792,2,0,P|380:220|400:11,1,225,2|0,0:0|1:2,0:0:0:0:
175,287,31351,2,0,P|144:306|100:320,1,69.9999978637696,2|0,0:2|0:2,0:0:0:0:
117,236,31740,6,0,B|224:250|173:288|286:291,1,174.999994659424,6|0,1:2|0:2,0:0:0:0:
179,162,32520,2,0,B|72:176|123:214|10:217,1,174.999994659424,2|0,1:2|3:2,0:0:0:0:
144,265,33299,2,0,P|149:223|143:71,1,174.999994659424,2|0,1:2|0:2,0:0:0:0:
78,121,34078,2,0,P|65:170|44:213,1,69.9999978637696,2|0,1:2|0:0,0:0:0:0:
20,66,34468,2,0,P|7:17|-14:-26,1,69.9999978637696,2|0,3:2|0:2,0:0:0:0:
101,158,34857,6,0,P|112:245|238:259,1,209.999993591309,0|0,3:2|1:2,0:0:0:0:
500,147,36026,2,2,P|427:154|181:189,1,314.999990386963,2|0,0:1|3:2,0:0:0:0:
109,252,37974,6,0,L|143:75,1,150,6|0,1:1|0:0,0:0:0:0:
130,89,38623,1,0,0:0:0:0:
130,89,38753,2,0,P|76:108|85:214,1,150,10|0,0:2|3:2,0:0:0:0:
166,323,39338,1,2,0:0:0:0:
279,187,39533,1,2,0:2:0:0:
213,221,39727,5,2,0:0:0:0:
306,325,39922,2,0,P|337:340|366:355,1,50,2|0,1:2|0:0,0:0:0:0:
240,373,40182,1,0,0:0:0:0:
240,373,40312,2,0,P|235:341|245:149,1,225,8|0,0:2|0:0,0:0:0:0:
39,35,41091,5,2,1:1:0:0:
170,149,41286,2,0,P|135:172|83:194,1,75,2|2,0:2|0:2,0:0:0:0:
266,9,41675,1,2,3:2:0:0:
138,81,41870,5,10,0:2:0:0:
244,166,42065,1,2,0:0:0:0:
353,57,42260,5,2,0:2:0:0:
288,94,42455,1,2,0:2:0:0:
452,205,42649,2,0,P|450:182|409:112,1,75,2|0,3:2|0:0,0:0:0:0:
216,280,43039,6,0,P|168:302|141:320,1,50,2|0,1:2|0:0,0:0:0:0:
324,228,43299,1,0,0:0:0:0:
324,228,43429,2,0,P|331:204|356:156,1,50,8|0,0:2|0:0,0:0:0:0:
384,333,43688,1,0,0:0:0:0:
384,333,43818,2,0,P|405:357|423:385,1,50,2|0,1:1|0:0,0:0:0:0:
188,139,44078,5,0,0:2:0:0:
230,196,44208,2,0,B|144:181|186:151|51:125,1,150,6|0,1:1|0:0,0:0:0:0:
85,145,44857,1,0,0:0:0:0:
85,145,44987,2,0,P|131:155|159:45,1,150,10|0,0:2|0:0,0:0:0:0:
46,213,45571,1,2,0:0:0:0:
180,311,45766,2,0,B|186:276|186:276|159:226,1,75,2|2,0:2|0:0,0:0:0:0:
59,69,46156,5,2,1:2:0:0:
59,69,46286,1,0,0:0:0:0:
59,69,46416,1,0,3:2:0:0:
59,69,46546,2,0,L|4:315,1,225,10|0,0:2|0:0,0:0:0:0:
230,159,47325,5,6,1:1:0:0:
117,224,47520,1,2,0:0:0:0:
240,249,47714,5,2,1:1:0:0:
98,154,47909,1,2,0:0:0:0:
249,58,48104,6,0,P|309:28|347:5,1,75,10|2,0:2|0:0,0:0:0:0:
421,268,48494,2,0,P|360:273|318:193,1,150,2|0,3:2|3:2,0:0:0:0:
321,195,49143,5,2,0:3:0:0:
321,195,49273,2,0,P|354:181|393:154,1,50,0|0,1:2|0:0,0:0:0:0:
184,295,49533,1,0,0:0:0:0:
184,295,49662,2,0,P|169:338|161:360,1,50,10|0,0:2|0:0,0:0:0:0:
120,136,49922,1,0,0:0:0:0:
120,136,50052,2,0,P|90:100|72:73,1,50,2|0,1:2|3:3,0:0:0:0:
0,330,50312,5,0,3:3:0:0:
15,257,50442,2,0,B|100:273|67:301|173:303,2,150,6|6|10,1:1|1:1|0:2,0:0:0:0:
17,267,51610,2,0,P|58:259|112:240,1,75,0|2,3:2|0:3,0:0:0:0:
271,108,52000,2,0,P|214:154|250:248,1,150,2|0,3:3|1:2,0:0:0:0:
276,274,52584,1,2,0:0:0:0:
421,177,52779,5,10,0:2:0:0:
356,211,52974,1,2,0:0:0:0:
231,74,53169,5,2,0:2:0:0:
325,141,53364,1,2,0:0:0:0:
101,210,53559,6,0,B|80:178|80:178|87:123,1,75,6|0,1:1|0:0,0:0:0:0:
237,194,53948,2,0,B|219:227|219:227|169:249,1,75,2|0,1:2|0:0,0:0:0:0:
154,82,54338,2,0,B|191:80|191:80|235:113,1,75,10|0,0:2|0:0,0:0:0:0:
167,156,54727,2,0,B|94:140|114:174|12:143,1,150,2|8,0:3|0:2,0:0:0:0:
14,153,55377,5,2,0:3:0:0:
14,153,55507,2,0,P|37:168|78:200,1,50,0|0,1:2|0:0,0:0:0:0:
156,323,55766,1,0,0:0:0:0:
156,323,55896,2,0,P|142:288|119:251,2,50,10|0|2,0:2|0:0|0:0,0:0:0:0:
94,102,56286,1,2,1:2:0:0:
138,159,56416,1,2,0:3:0:0:
207,178,56546,1,0,0:0:0:0:
279,165,56675,6,0,P|279:145|297:11,2,150,6|2|10,1:1|1:1|0:2,0:0:0:0:
273,173,57844,2,0,P|237:189|186:204,1,75,0|2,3:2|0:0,0:0:0:0:
386,331,58234,2,0,B|316:312|336:354|210:310,1,150,2|0,3:2|1:1,0:0:0:0:
168,287,58818,1,0,0:0:0:0:
212,222,59013,5,10,0:2:0:0:
151,377,59208,1,2,0:0:0:0:
70,258,59403,5,2,0:0:0:0:
224,344,59597,1,2,0:0:0:0:
385,218,59792,6,0,P|389:244|408:304,1,75,6|0,1:1|0:0,0:0:0:0:
