osu file format v14

[General]
AudioFilename: audio.mp3
AudioLeadIn: 0
PreviewTime: -1
Countdown: 1
SampleSet: None
StackLeniency: 0.7
Mode: 0
LetterboxInBreaks: 0
WidescreenStoryboard: 0

[Editor]
DistanceSpacing: 1.4
BeatDivisor: 4
GridSize: 4
TimelineZoom: 1

[Metadata]
Title:Whatever It Takes
TitleUnicode:Whatever It Takes
Artist:Imagine Dragons
ArtistUnicode:Imagine Dragons
Creator:-C O N T R A L-
Version:Will I finish this?
Source:
Tags:
BeatmapID:1420889
BeatmapSetID:672130

[Difficulty]
HPDrainRate:5
CircleSize:4.2
OverallDifficulty:7.8
ApproachRate:9
SliderMultiplier:1.2
SliderTickRate:1

[Events]
//Background and Video events
//Break Periods
//Storyboard Layer 0 (Background)
//Storyboard Layer 1 (Fail)
//Storyboard Layer 2 (Pass)
//Storyboard Layer 3 (Foreground)
//Storyboard Sound Samples

[TimingPoints]
14257,444.444444444444,4,2,0,45,1,0
28479,-55.5555555555556,4,2,0,60,0,0
41590,-55.5555555555556,4,2,0,75,0,0
42701,-66.6666666666667,4,1,0,75,0,0

[HitObjects]
129,142,14257,5,0,0:0:0:0:
136,158,14368,1,0,0:0:0:0:
143,174,14479,1,0,0:0:0:0:
220,140,14701,2,0,P|262:141|300:157,1,60
278,146,15034,1,0,0:0:0:0:
278,146,15145,1,0,0:0:0:0:
360,126,15368,5,0,0:0:0:0:
375,137,15479,2,0,B|377:171|399:197|399:197|387:216|392:238,1,90
468,127,16034,5,0,0:0:0:0:
456,86,16145,1,0,0:0:0:0:
426,56,16257,1,0,0:0:0:0:
387,39,16368,1,0,0:0:0:0:
345,36,16479,1,0,0:0:0:0:
298,106,16701,1,0,0:0:0:0:
288,95,16812,1,0,0:0:0:0:
278,84,16923,6,0,P|255:107|220:118,1,60
219,132,17257,2,0,L|209:230,1,90
54,266,17812,6,0,L|36:228,1,30
76,145,18034,2,0,L|74:192,1,30
119,234,18257,1,0,0:0:0:0:
132,242,18368,1,0,0:0:0:0:
145,250,18479,2,0,L|151:297,1,30
163,295,18701,6,0,P|191:308|226:309,1,60
239,302,19034,2,0,L|155:347,1,90
258,372,19590,6,0,L|330:329,1,60
316,327,19923,2,0,B|348:290|370:238,1,90
512,152,20479,6,0,P|486:168|448:170,1,60
442,181,20812,2,0,P|394:177|348:178,1,90
328,54,21368,5,0,0:0:0:0:
293,76,21479,1,0,0:0:0:0:
251,82,21590,1,0,0:0:0:0:
211,73,21701,1,0,0:0:0:0:
181,44,21812,1,0,0:0:0:0:
163,82,21923,1,0,0:0:0:0:
170,123,22034,1,0,0:0:0:0:
140,152,22145,1,0,0:0:0:0:
137,193,22256,2,0,P|149:226|150:257,1,60
150,250,22590,2,0,P|196:230|244:235,1,90
345,254,23145,5,0,0:0:0:0:
336,266,23256,1,0,0:0:0:0:
327,278,23368,1,0,0:0:0:0:
318,290,23479,1,0,0:0:0:0:
309,302,23590,1,0,0:0:0:0:
233,265,23812,6,0,P|215:269|198:268,1,30
102,225,24034,2,0,P|114:235|132:277,1,60
131,274,24368,2,0,L|108:381,1,90
78,164,24923,6,0,P|60:157|45:142,5,30
142,103,25590,1,0,0:0:0:0:
177,126,25701,1,0,0:0:0:0:
194,164,25812,1,0,0:0:0:0:
153,259,26034,1,0,0:0:0:0:
153,259,26145,1,0,0:0:0:0:
299,173,26479,6,0,L|336:229,1,60
411,251,26923,1,0,0:0:0:0:
411,251,27034,1,0,0:0:0:0:
148,126,27368,6,0,L|185:182,1,60
260,204,27812,1,0,0:0:0:0:
260,204,28034,1,0,0:0:0:0:
403,53,28479,6,0,L|298:87,1,107.999996704102
401,66,28923,2,0,L|296:100,1,107.999996704102
149,67,29368,5,0,0:0:0:0:
310,177,29590,1,0,0:0:0:0:
162,146,29812,1,0,0:0:0:0:
298,99,30034,1,0,0:0:0:0:
216,240,30256,6,0,P|237:293|295:331,1,107.999996704102
264,327,30701,2,0,P|223:293|205:243,1,107.999996704102
319,223,31145,5,0,0:0:0:0:
425,116,31368,1,0,0:0:0:0:
319,9,31590,1,0,0:0:0:0:
212,116,31812,1,0,0:0:0:0:
357,76,32034,6,0,P|316:122|314:186,1,107.999996704102
362,89,32479,2,0,P|321:135|319:199,1,107.999996704102
167,179,32923,5,0,0:0:0:0:
211,238,33145,1,0,0:0:0:0:
256,298,33368,1,0,0:0:0:0:
301,357,33590,1,0,0:0:0:0:
440,298,33812,5,0,0:0:0:0:
413,149,34034,1,0,0:0:0:0:
312,36,34256,1,0,0:0:0:0:
126,130,34479,5,0,0:0:0:0:
126,130,34701,2,0,P|175:159|236:183,1,107.999996704102
352,103,35145,1,0,0:0:0:0:
275,234,35368,1,0,0:0:0:0:
19,240,35590,6,0,L|126:259,1,107.999996704102
22,252,36034,2,0,L|129:271,1,107.999996704102
257,351,36479,5,0,0:0:0:0:
182,168,36701,1,0,0:0:0:0:
307,252,36923,1,0,0:0:0:0:
170,281,37145,1,0,0:0:0:0:
269,149,37368,6,0,P|319:117|396:106,1,107.999996704102
366,92,37812,2,0,P|313:105|269:135,1,107.999996704102
339,227,38256,5,0,0:0:0:0:
279,364,38479,1,0,0:0:0:0:
139,306,38701,1,0,0:0:0:0:
199,167,38923,1,0,0:0:0:0:
403,169,39145,6,0,P|426:224|399:287,1,107.999996704102
394,182,39590,2,0,P|417:237|390:300,1,107.999996704102
321,242,40034,5,0,0:0:0:0:
245,247,40256,1,0,0:0:0:0:
173,272,40479,1,0,0:0:0:0:
116,323,40701,1,0,0:0:0:0:
4,221,40923,5,0,0:0:0:0:
108,112,41145,1,0,0:0:0:0:
251,64,41368,1,0,0:0:0:0:
164,188,41590,5,0,0:0:0:0:
174,202,41812,5,8,0:0:0:0:
353,105,42034,1,0,0:0:0:0:
262,313,42256,1,0,0:0:0:0:
241,71,42479,1,0,0:0:0:0:
241,71,42590,1,0,0:0:0:0:
241,71,42701,6,0,B|260:115|298:169|298:169|288:204|301:253,1,180.000006866455,4|0,0:0|0:0,0:0:0:0:
389,210,43368,1,0,0:0:0:0:
389,210,43590,2,0,P|350:314|281:328,1,180.000006866455
200,242,44256,1,0,0:0:0:0:
226,365,44479,1,0,0:0:0:0:
118,230,44701,1,0,0:0:0:0:
292,138,44923,6,0,L|199:163,1,90.0000034332277
92,104,45368,2,0,L|178:80,1,90.0000034332277
203,75,45812,1,0,0:0:0:0:
302,104,46034,1,0,0:0:0:0:
302,104,46145,1,0,0:0:0:0:
302,104,46256,6,0,P|290:192|269:292,1,180.000006866455,4|0,0:0|0:0,0:0:0:0:
153,325,46923,1,0,0:0:0:0:
208,212,47145,2,0,B|258:199|258:199|295:176,1,90.0000034332277
353,69,47590,2,0,B|302:81|302:81|266:105,1,90.0000034332277
203,127,48034,5,4,0:0:0:0:
131,124,48256,1,0,0:0:0:0:
67,89,48479,1,0,0:0:0:0:
108,207,48701,1,0,0:0:0:0:
219,265,48923,1,0,0:0:0:0:
131,124,49145,1,0,0:0:0:0:
244,180,49368,5,0,0:0:0:0:
305,190,49479,1,0,0:0:0:0:
364,168,49590,1,0,0:0:0:0:
386,109,49701,1,0,0:0:0:0:
366,49,49812,6,0,P|270:58|178:78,1,180.000006866455,4|0,0:0|0:0,0:0:0:0:
95,160,50479,1,0,0:0:0:0:
208,214,50701,2,0,P|244:257|218:193,1,180.000006866455
175,142,51368,1,0,0:0:0:0:
71,282,51590,1,0,0:0:0:0:
95,158,51812,1,0,0:0:0:0:
230,303,52034,6,0,L|328:321,1,90.0000034332277
428,257,52479,2,0,L|330:239,1,90.0000034332277
317,234,52923,1,0,0:0:0:0:
228,268,53145,1,0,0:0:0:0:
228,268,53256,1,0,0:0:0:0:
228,268,53368,6,0,B|178:225|178:225|156:96,1,180.000006866455
206,36,54034,1,0,0:0:0:0:
308,108,54256,2,0,P|351:136|412:141,1,90.0000034332277
415,266,54701,2,0,P|372:238|311:233,1,90.0000034332277
215,272,55145,6,0,B|228:322|277:347|277:347|211:331|167:339,1,180.000006866455,4|0,0:0|0:0,0:0:0:0:
88,276,55812,5,0,0:0:0:0:
251,65,56034,1,0,0:0:0:0:
61,142,56256,1,0,0:0:0:0:
287,218,56479,1,0,0:0:0:0:
139,123,56701,1,0,0:0:0:0:
139,123,56812,1,0,0:0:0:0:
139,123,56923,6,0,B|163:180|163:180|139:193|139:193|220:253,1,180.000006866455
287,218,57590,1,0,0:0:0:0:
299,92,57812,2,0,P|382:124|405:225,1,180.000006866455
