osu file format v14

[General]
AudioFilename: Warriors.mp3
AudioLeadIn: 0
PreviewTime: 30984
Countdown: 0
SampleSet: None
StackLeniency: 0.3
Mode: 0
LetterboxInBreaks: 0
WidescreenStoryboard: 1

[Editor]
Bookmarks: 104830,129445,135599,154061,163291
DistanceSpacing: 1
BeatDivisor: 3
GridSize: 4
TimelineZoom: 2

[Metadata]
Title:Warriors
TitleUnicode:Warriors
Artist:Imagine Dragons
ArtistUnicode:Imagine Dragons
Creator:SuperMIC
Version:Squire
Source:League of Legends
Tags:Nwolf LoL 2014 worlds world championships
BeatmapID:888514
BeatmapSetID:214341

[Difficulty]
HPDrainRate:3
CircleSize:3
OverallDifficulty:2.5
ApproachRate:2
SliderMultiplier:1
SliderTickRate:1

[Events]
//Background and Video events
Video,-310,"warriors.avi"
0,0,"rsz_1lol.jpg",0,0
//Break Periods
2,55799,66337
2,129635,134029
//Storyboard Layer 0 (Background)
//Storyboard Layer 1 (Fail)
//Storyboard Layer 2 (Pass)
//Storyboard Layer 3 (Foreground)
//Storyboard Sound Samples

[TimingPoints]
205,384.615384615385,4,2,1,25,1,0
6358,-100,4,3,0,30,0,0
29820,-100,4,3,0,40,0,0
30205,-100,4,3,0,50,0,0
30589,-100,4,3,0,60,0,0
30974,-100,4,3,1,70,0,1
55589,-100,4,3,1,40,0,0
78794,-100,4,3,1,10,0,0
80205,-100,4,3,1,70,0,1
104692,-100,4,3,1,70,0,0
104820,-100,4,3,1,70,0,1
104948,-100,4,3,1,70,0,0
123217,-100,4,3,1,75,0,0
126294,-100,4,3,1,80,0,0
126679,-100,4,3,1,82,0,0
127063,-100,4,3,1,85,0,0
127448,-100,4,3,1,87,0,0
127833,-100,4,3,1,90,0,0
128602,-100,4,3,1,100,0,0
129371,-100,4,2,1,35,0,0
135589,-100,4,3,1,70,0,1
163281,-100,4,3,1,70,0,0

[Colours]
Combo1 : 106,0,213
Combo2 : 213,106,0
Combo3 : 0,96,213
Combo4 : 201,12,40

[HitObjects]
80,76,6358,6,0,L|280:64,1,200,4|2,0:0|0:0,0:0:0:0:
444,180,7897,2,0,L|244:192,1,200,4|2,0:0|0:0,0:0:0:0:
44,204,9435,2,0,P|80:300|148:368,2,200,4|2|4,0:0|0:0|0:0,0:0:0:0:
180,56,11743,1,2,0:0:0:0:
376,100,12512,6,0,P|408:124|440:176,2,99.9999999999999,4|2|2,0:0|0:2|0:0,0:0:0:0:
288,280,14051,2,0,P|256:256|224:204,2,99.9999999999999,4|2|2,0:0|0:2|0:0,0:0:0:0:
116,180,15589,2,0,P|152:288|224:360,2,200,4|2|4,0:0|0:0|0:0,0:0:0:0:
256,36,17897,1,2,0:0:0:0:
396,180,18666,6,0,P|360:288|288:360,1,200,4|2,0:0|0:0,0:0:0:0:
96,268,20205,2,0,B|72:232|32:192|32:192|72:152|96:116,1,200,4|2,0:0|0:0,0:0:0:0:
256,192,21743,1,4,0:0:0:0:
416,268,22512,2,0,B|440:232|480:192|480:192|440:152|416:116,2,200,2|6|2,0:0|0:0|0:0,0:0:0:0:
200,324,24820,6,0,B|154:308|133:256|154:244|174:232|153:179|108:164,1,200,4|2,0:0|0:0,0:0:0:0:
268,44,26358,2,0,L|464:92,1,200,4|2,0:0|0:0,0:0:0:0:
480,292,27897,2,0,P|380:280|356:192,1,200
156,196,29435,2,0,P|125:285|31:292,1,200,8|8,0:0|0:0,0:0:0:0:
120,112,30974,6,0,B|152:104|188:104|224:136|224:136|312:144,1,200,4|8,1:0|0:1,0:0:0:0:
440,296,32512,1,0,1:0:0:0:
240,316,33281,1,8,0:1:0:0:
68,216,34051,6,0,B|156:168|156:168|156:68,1,200,0|8,1:0|0:1,0:0:0:0:
356,68,35589,2,0,B|356:168|356:168|444:216,1,200,0|8,1:0|0:1,0:0:0:0:
332,372,37128,6,0,B|276:360|256:312|256:312|236:360|180:372,1,200,4|8,1:0|0:1,0:0:0:0:
106,192,38666,1,0,1:0:0:0:
256,60,39435,1,8,0:1:0:0:
404,192,40205,6,0,P|348:272|332:376,1,200,0|8,1:0|0:1,0:0:0:0:
136,336,41743,2,0,L|92:240,1,99.9999999999999,0|0,1:0|1:0,0:0:0:0:
196,248,42512,2,0,L|212:148,1,99.9999999999999,8|2,0:1|0:0,0:0:0:0:
308,180,43281,6,0,P|372:256|464:240,1,200,4|8,1:0|0:1,0:0:0:0:
308,368,44820,2,0,B|308:352|308:352|308:300|256:276|204:300|204:352|204:352|204:368,1,200,0|8,1:0|0:1,0:0:0:0:
49,241,46358,2,0,P|144:254|204:180,2,200,0|8|0,1:0|0:1|1:0,0:0:0:0:
108,160,48281,2,0,P|120:124|168:88,1,99.9999999999999,2|8,0:0|0:1,0:0:0:0:
368,72,49435,6,0,L|380:272,1,200,4|8,1:0|0:1,0:0:0:0:
192,340,50974,1,0,1:0:0:0:
232,144,51743,1,8,0:1:0:0:
44,204,52512,6,0,P|72:300|160:344,1,200,0|8,1:0|0:1,0:0:0:0:
356,344,54051,2,0,P|441:298|467:204,2,200,0|8|4,1:0|0:1|0:2,0:0:0:0:
104,332,67897,6,0,B|135:295|128:239|103:239|80:239|72:182|103:147,1,200,4|8,0:0|0:1,0:0:0:0:
284,64,69435,2,0,P|392:72|440:148,1,200,4|8,0:0|0:1,0:0:0:0:
420,340,70974,2,0,B|412:236|412:236|452:240|480:232|504:212,2,200,4|8|4,0:0|0:1|0:0,0:0:0:0:
220,364,73281,1,8,0:1:0:0:
60,244,74051,6,0,L|36:44,1,200,4|2,0:0|0:0,0:0:0:0:
136,36,75205,1,2,0:2:0:0:
136,36,75589,2,0,L|159:234,1,200,4|2,0:0|0:0,0:0:0:0:
232,300,76743,1,2,0:2:0:0:
308,240,77128,6,0,P|344:148|452:116,1,200,4|8,0:0|0:1,0:0:0:0:
468,328,78666,2,0,B|428:292|428:240|428:240|428:292|388:328,1,200,0|2,1:0|0:2,0:0:0:0:
188,348,80205,6,0,P|84:324|56:244,1,200,4|8,1:0|0:1,0:0:0:0:
157,73,81743,2,0,B|208:65|256:81|256:81|303:65|355:73,1,200,0|8,1:0|0:1,0:0:0:0:
456,244,83281,2,0,P|418:332|324:348,2,200,0|8|0,1:0|0:1|1:0,0:0:0:0:
356,252,85205,2,0,L|292:172,1,99.9999999999999,2|8,0:0|0:1,0:0:0:0:
108,100,86358,6,0,B|68:192|68:192|108:284,1,200,4|8,1:0|0:1,0:0:0:0:
300,336,87897,2,0,B|400:336|400:336|460:336|484:288,1,200,0|8,1:0|0:1,0:0:0:0:
484,92,89435,6,0,B|461:46|401:46|401:46|301:46,1,200,0|8,1:0|0:1,0:0:0:0:
108,92,90974,2,0,P|96:140|108:188,1,99.9999999999999,0|0,1:0|1:0,0:0:0:0:
196,236,91743,2,0,P|208:187|196:139,1,99.9999999999999,8|2,0:1|0:0,0:0:0:0:
284,92,92512,6,0,P|308:188|284:284,2,200,4|8|0,1:0|0:1|1:0,0:0:0:0:
108,188,94820,1,8,0:1:0:0:
224,352,95589,2,0,L|424:324,1,200,0|8,1:0|0:1,0:0:0:0:
444,228,96743,2,0,L|343:243,1,100,8|0,0:0|1:0,0:0:0:0:
184,128,97897,1,8,0:1:0:0:
368,52,98666,6,0,P|436:124|448:220,1,200,4|8,1:0|0:1,0:0:0:0:
312,368,100205,1,0,1:0:0:0:
256,192,100974,1,8,0:1:0:0:
98,312,101743,6,0,L|68:116,1,200,0|8,1:0|0:1,0:0:0:0:
256,48,103281,2,0,P|352:48|404:140,1,200,0|8,1:0|0:1,0:0:0:0:
304,136,104435,1,8,0:1:0:0:
204,144,104820,6,0,P|255:224|351:224,1,200,4|8,1:0|0:1,0:0:0:0:
504,356,106358,2,0,B|450:334|439:283|439:283|411:327|354:329,1,200,0|8,1:0|0:1,0:0:0:0:
155,329,107897,2,0,B|100:327|72:283|72:283|61:334|8:356,2,200,0|8|0,1:0|0:1|1:0,0:0:0:0:
256,156,110205,1,8,0:1:0:0:
432,256,110974,6,0,B|480:247|491:183|491:183|442:142|400:166,1,200,4|8,1:0|0:1,0:0:0:0:
352,364,112512,2,0,P|256:340|160:364,1,200,0|8,1:0|0:1,0:0:0:0:
112,166,114051,2,0,B|70:142|21:183|21:183|32:247|80:256,2,200,4|8|0,1:0|0:1|1:0,0:0:0:0:
308,200,116358,2,0,P|299:151|316:104,1,99.9999999999999,8|0,0:1|0:0,0:0:0:0:
400,156,117128,6,0,P|416:112|408:60,2,99.9999999999999,4|2|8,1:0|0:0|0:1,0:0:0:0:
228,260,118666,2,0,P|212:304|220:356,2,99.9999999999999,0|2|8,1:0|0:0|0:1,0:0:0:0:
80,120,120205,1,0,1:0:0:0:
256,28,120974,1,8,0:1:0:0:
432,120,121743,2,0,P|436:216|368:288,1,200,0|8,1:0|0:1,0:0:0:0:
168,300,123281,6,0,P|112:308|76:332,2,99.9999999999999,4|8|8,1:0|0:0|0:1,0:0:0:0:
156,100,124820,2,0,P|103:78|60:81,2,99.9999999999999,0|8|8,1:0|0:0|0:1,0:0:0:0:
356,100,126358,2,0,P|408:78|451:81,2,99.9999999999999,0|8|8,1:0|0:0|0:1,0:0:0:0:
344,300,127897,2,0,P|400:308|436:332,2,99.9999999999999,0|8|8,1:0|0:0|0:1,0:0:0:0:
256,192,129435,5,4,0:0:0:0:
180,12,135589,6,0,B|236:24|256:72|256:72|276:24|332:12,1,200,4|8,1:0|0:1,0:0:0:0:
406,192,137127,1,0,1:0:0:0:
256,324,137896,1,8,0:1:0:0:
108,192,138666,6,0,P|164:112|180:8,1,200,0|8,1:0|0:1,0:0:0:0:
376,48,140204,2,0,L|420:144,1,99.9999999999999,0|0,1:0|1:0,0:0:0:0:
316,136,140973,2,0,L|300:236,1,99.9999999999999,8|2,0:1|0:0,0:0:0:0:
204,204,141742,6,0,P|140:128|48:144,1,200,4|8,1:0|0:1,0:0:0:0:
204,16,143281,2,0,B|204:32|204:32|204:84|256:108|308:84|308:32|308:32|308:16,1,200,0|8,1:0|0:1,0:0:0:0:
463,143,144819,2,0,P|368:130|308:204,2,200,0|8|0,1:0|0:1|1:0,0:0:0:0:
404,224,146743,2,0,P|392:260|344:296,1,99.9999999999999,2|8,0:0|0:1,0:0:0:0:
144,312,147896,6,0,L|132:112,1,200,4|8,1:0|0:1,0:0:0:0:
320,44,149435,1,0,1:0:0:0:
280,240,150204,1,8,0:1:0:0:
468,180,150973,6,0,P|440:84|352:40,1,200,0|8,1:0|0:1,0:0:0:0:
156,40,152512,2,0,P|71:86|45:180,1,200,0|8,1:0|0:1,0:0:0:0:
156,348,154051,6,0,L|140:244,2,99.9999999999999,4|2|4,0:2|0:0|0:0,0:0:0:0:
340,268,155589,2,0,L|324:164,2,99.9999999999999,4|2|4,0:0|0:0|0:0,0:0:0:0:
504,140,157128,6,0,P|450:58|356:31,1,200,4|8,0:2|0:1,0:0:0:0:
155,31,158666,2,0,P|62:58|8:140,1,200,0|8,1:0|0:1,0:0:0:0:
256,192,160205,12,4,163281,1:0:0:0:
