osu file format v14

[General]
AudioFilename: Warriors.mp3
AudioLeadIn: 0
PreviewTime: 30984
Countdown: 0
SampleSet: None
StackLeniency: 0.5
Mode: 0
LetterboxInBreaks: 0
WidescreenStoryboard: 1

[Editor]
Bookmarks: 104830,129445,135599,154061,163291
DistanceSpacing: 1
BeatDivisor: 3
GridSize: 4
TimelineZoom: 2

[Metadata]
Title:Warriors
TitleUnicode:Warriors
Artist:Imagine Dragons
ArtistUnicode:Imagine Dragons
Creator:SuperMIC
Version:Sergeant
Source:League of Legends
Tags:Nwolf LoL 2014 worlds world championships
BeatmapID:891276
BeatmapSetID:214341

[Difficulty]
HPDrainRate:4
CircleSize:3.5
OverallDifficulty:4.3
ApproachRate:4.5
SliderMultiplier:1.2
SliderTickRate:1

[Events]
//Background and Video events
Video,-310,"warriors.avi"
0,0,"rsz_1lol.jpg",0,0
//Break Periods
2,55789,66637
2,129635,132791
//Storyboard Layer 0 (Background)
//Storyboard Layer 1 (Fail)
//Storyboard Layer 2 (Pass)
//Storyboard Layer 3 (Foreground)
//Storyboard Sound Samples

[TimingPoints]
205,384.615384615385,4,2,1,25,1,0
6358,-100,4,3,0,30,0,0
28666,-100,4,3,0,40,0,0
29435,-100,4,3,0,50,0,0
30205,-100,4,3,0,60,0,0
30974,-100,4,3,1,70,0,1
55589,-100,4,3,1,40,0,0
78794,-100,4,3,1,10,0,0
80205,-100,4,3,1,70,0,1
104692,-100,4,3,1,70,0,0
104820,-100,4,3,1,70,0,1
104948,-100,4,3,1,70,0,0
123217,-100,4,3,1,75,0,0
126294,-100,4,3,1,80,0,0
126679,-100,4,3,1,82,0,0
127063,-100,4,3,1,85,0,0
127448,-100,4,3,1,87,0,0
127833,-100,4,3,1,90,0,0
128602,-100,4,3,1,100,0,0
129371,-100,4,2,1,35,0,0
133922,-100,4,3,1,45,0,0
134307,-100,4,3,1,55,0,0
134692,-100,4,3,1,65,0,0
135589,-100,4,3,1,70,0,1
163281,-100,4,3,1,70,0,0

[Colours]
Combo1 : 106,0,213
Combo2 : 213,106,0
Combo3 : 0,96,213
Combo4 : 201,12,40

[HitObjects]
188,80,6358,6,0,L|68:60,2,120,4|0|2,0:0|0:0|0:0,0:0:0:0:
256,180,7512,1,2,0:2:0:0:
324,80,7897,2,0,L|444:60,2,120,4|0|2,0:0|0:0|0:0,0:0:0:0:
416,300,9435,6,0,P|380:260|312:240,1,120,4|0,0:0|0:0,0:0:0:0:
196,240,10205,2,0,P|139:256|98:300,1,120,2|0,0:0|0:0,0:0:0:0:
0,228,10974,2,0,P|84:152|208:124,1,240,4|2,0:0|0:0,0:0:0:0:
320,152,12128,1,2,0:2:0:0:
376,256,12512,6,0,P|420:292|484:292,2,120,4|0|2,0:0|0:0|0:0,0:0:0:0:
256,240,13666,1,2,0:2:0:0:
135,256,14051,2,0,P|89:292|31:293,2,120,4|0|2,0:0|0:0|0:0,0:0:0:0:
184,148,15205,1,0,0:0:0:0:
284,84,15589,2,0,B|403:92|403:92|471:192,2,240,4|2|4,0:0|0:0|0:0,0:0:0:0:
420,280,17897,6,0,L|352:180,1,120,2|2,0:0|0:2,0:0:0:0:
256,108,18666,1,4,0:0:0:0:
160,180,19051,2,0,L|92:280,1,120,0|2,0:0|0:0,0:0:0:0:
176,364,19820,1,2,0:2:0:0:
288,316,20205,2,0,P|344:296|404:316,2,120,4|0|2,0:0|0:0|0:0,0:0:0:0:
208,228,21358,1,2,0:2:0:0:
92,279,21743,6,0,P|88:180|200:100,1,240,4|2,0:0|0:0,0:0:0:0:
312,100,22897,1,2,0:2:0:0:
388,192,23281,2,0,P|392:291|280:371,1,240,4|2,0:0|0:0,0:0:0:0:
168,372,24435,1,2,0:2:0:0:
140,256,24820,6,0,P|152:200|196:156,1,120,4|0,0:0|0:0,0:0:0:0:
316,156,25589,2,0,P|358:197|371:255,1,120,2|2,0:0|0:2,0:0:0:0:
492,244,26358,2,0,P|456:128|372:48,1,240,4|2,0:0|0:0,0:0:0:0:
256,24,27512,1,0,0:0:0:0:
144,64,27897,5,8,0:0:0:0:
123,303,28666,1,8,0:0:0:0:
362,324,29435,1,8,0:0:0:0:
383,84,30205,1,8,0:0:0:0:
383,84,30974,6,0,P|308:52|168:108,1,240,4|8,1:0|0:1,0:0:0:0:
256,192,32128,1,0,0:0:0:0:
343,276,32512,2,0,P|241:332|129:300,1,240,0|8,1:0|0:1,0:0:0:0:
60,200,33666,1,0,0:0:0:0:
92,84,34051,6,0,B|158:61|198:115|198:115|206:49|274:34,1,240,0|8,1:0|0:1,0:0:0:0:
448,204,35589,2,0,B|381:226|341:172|341:172|333:238|265:253,1,240,0|8,1:0|0:1,0:0:0:0:
144,244,36743,1,0,0:0:0:0:
68,152,37128,6,0,P|104:60|232:60,1,240,4|8,1:0|0:1,0:0:0:0:
320,136,38281,1,2,0:0:0:0:
364,248,38666,2,0,B|364:308|364:308|316:348,1,120,0|0,1:0|0:0,0:0:0:0:
194,346,39435,2,0,B|148:308|148:308|148:248,1,120,8|2,0:1|0:2,0:0:0:0:
40,192,40205,6,0,B|64:144|112:132|112:132|120:108,1,120,0|0,1:0|0:0,0:0:0:0:
224,52,40974,2,0,P|288:40|340:60,1,120,8|0,0:1|0:0,0:0:0:0:
452,96,41743,5,0,1:0:0:0:
340,140,42128,1,8,0:1:0:0:
452,180,42512,1,8,0:1:0:0:
340,224,42897,1,4,0:0:0:0:
452,264,43281,6,0,P|412:320|360:344,1,120,4|0,1:0|0:0,0:0:0:0:
256,296,44051,1,8,0:1:0:0:
144,342,44435,2,0,P|92:313|60:264,1,120,2|0,0:0|1:0,0:0:0:0:
76,144,45205,1,0,0:0:0:0:
192,120,45589,2,0,P|256:108|300:76,1,120,8|0,0:1|0:0,0:0:0:0:
416,48,46358,6,0,L|448:288,1,240,0|8,1:0|0:1,0:0:0:0:
360,368,47512,1,8,0:0:0:0:
332,252,47897,2,0,L|316:128,1,120,0|0,1:0|0:0,0:0:0:0:
228,52,48666,2,0,P|172:40|116:68,1,120,8|0,1:0|0:0,0:0:0:0:
76,180,49435,6,0,B|88:238|150:260|166:241|181:222|243:244|256:302,1,240,4|8,1:0|0:1,0:0:0:0:
368,352,50589,1,0,0:2:0:0:
452,264,50974,2,0,P|468:212|456:148,1,120,0|0,1:0|0:0,0:0:0:0:
348,200,51743,2,0,B|288:192|288:192|252:144,1,120,8|2,0:1|0:2,0:0:0:0:
312,40,52512,6,0,P|184:48|132:144,1,240,0|8,1:0|0:1,0:0:0:0:
84,372,54051,2,0,L|204:332,1,120,0|8,1:0|0:1,0:0:0:0:
314,334,54820,2,0,L|428:372,1,120,8|4,0:1|0:0,0:0:0:0:
504,276,55589,1,4,2:0:0:0:
440,252,67897,6,0,P|432:200|396:144,1,120,4|0,0:0|0:0,0:0:0:0:
316,56,68666,1,8,0:1:0:0:
196,56,69051,1,2,0:0:0:0:
115,144,69435,6,0,P|80:192|72:252,1,120,4|0,0:0|0:0,0:0:0:0:
192,236,70205,2,0,P|248:244|312:232,1,120,8|0,0:1|0:0,0:0:0:0:
268,344,70974,2,0,P|380:320|504:348,1,240,4|8,0:0|0:1,0:0:0:0:
480,228,72128,1,0,0:0:0:0:
500,108,72512,2,0,P|383:134|267:110,1,240,4|8,0:0|0:1,0:0:0:0:
160,56,73666,5,2,0:2:0:0:
56,112,74051,2,0,L|72:316,1,200,4|2,0:0|0:0,0:0:0:0:
228,348,75205,1,2,0:2:0:0:
228,348,75589,2,0,L|212:144,1,200,4|2,0:0|0:0,0:0:0:0:
352,68,76743,1,2,0:2:0:0:
352,68,77128,5,4,0:0:0:0:
466,105,77512,1,0,0:0:0:0:
466,225,77897,1,8,0:1:0:0:
351,262,78281,1,0,0:0:0:0:
281,165,78666,2,0,P|240:120|72:152,1,240,0|2,1:0|0:2,0:0:0:0:
248,312,80205,6,0,P|308:300|352:264,1,120,4|2,1:0|0:2,0:0:0:0:
396,152,80974,1,8,0:1:0:0:
316,60,81358,1,2,0:2:0:0:
200,96,81743,2,0,P|152:112|76:104,1,120,0|2,1:0|0:2,0:0:0:0:
4,196,82512,2,0,P|20:244|12:320,1,120,8|2,0:1|0:2,0:0:0:0:
124,364,83281,6,0,B|163:319|228:331|232:356|235:380|300:392|340:348,1,240,0|8,1:0|0:1,0:0:0:0:
424,260,84435,1,2,0:2:0:0:
416,140,84820,2,0,P|384:96|324:72,1,120,0|2,1:0|2:0,0:0:0:0:
216,120,85589,1,8,0:1:0:0:
96,64,85974,1,2,0:2:0:0:
96,184,86358,6,0,B|128:244|192:260|192:260|208:376,1,240,4|8,1:0|0:1,0:0:0:0:
308,308,87512,1,2,0:2:0:0:
420,348,87897,2,0,P|425:288|399:231,1,120,0|2,1:0|0:2,0:0:0:0:
300,168,88666,2,0,P|260:128|245:67,1,120,8|2,1:0|0:2,0:0:0:0:
364,68,89435,6,0,L|144:188,1,240,0|8,1:0|0:1,0:0:0:0:
8,372,90974,2,0,P|56:340|128:324,1,120,0|8,1:0|0:1,0:0:0:0:
236,308,91743,1,8,0:1:0:0:
356,316,92128,2,0,L|364:368,2,40,8|8|4,0:1|0:1|0:0,0:0:0:0:
352,292,92512,6,0,B|352:232|352:232|384:180,1,120,4|2,1:0|0:2,0:0:0:0:
316,80,93281,1,8,0:1:0:0:
196,80,93666,1,2,0:2:0:0:
128,180,94051,2,0,B|160:232|160:232|160:292,1,120,0|2,1:0|0:2,0:0:0:0:
76,376,94820,2,0,B|44:324|44:324|44:264,1,120,0|2,1:0|0:2,0:0:0:0:
128,180,95589,6,0,P|228:112|352:144,1,240,0|8,1:0|0:1,0:0:0:0:
416,224,96743,1,2,0:2:0:0:
400,344,97128,2,0,P|347:322|309:273,1,120,0|2,1:0|0:2,0:0:0:0:
208,340,97897,2,0,P|173:294|164:233,1,120,8|2,0:1|0:2,0:0:0:0:
140,116,98666,6,0,B|202:84|256:116|256:116|310:84|372:116,1,240,4|8,1:1|0:1,0:0:0:0:
448,204,99820,1,2,0:2:0:0:
408,316,100205,2,0,P|364:340|292:336,1,120,0|2,1:0|0:2,0:0:0:0:
220,244,100974,1,8,0:1:0:0:
100,236,101358,1,2,0:2:0:0:
20,328,101743,6,0,P|76:356|136:352,1,120,0|0,1:0|0:0,0:0:0:0:
100,236,102512,2,0,L|84:116,1,120,8|0,0:1|0:0,0:0:0:0:
180,44,103281,1,0,1:0:0:0:
300,60,103666,1,8,0:1:0:0:
220,152,104051,1,8,0:1:0:0:
340,168,104435,2,0,L|335:211,2,40,8|8|4,0:1|0:1|0:0,0:0:0:0:
344,144,104820,6,0,B|348:100|348:100|351:68|373:50|397:53|397:53|421:55|439:77|436:109|436:109|431:153,1,240,4|8,1:0|0:1,0:0:0:0:
468,268,105974,1,2,0:0:0:0:
388,360,106358,2,0,P|304:360|220:280,1,200,0|2,1:0|0:0,0:0:0:0:
209,263,107128,2,0,B|181:211|181:211|125:179,1,120,8|2,0:1|0:0,0:0:0:0:
77,72,107897,6,0,L|197:92,1,120,0|2,1:0|0:0,0:0:0:0:
317,92,108666,2,0,L|435:72,2,120,8|2|0,0:1|0:0|1:0,0:0:0:0:
128,252,110205,2,0,P|144:296|200:344,1,120,8|2,0:1|0:0,0:0:0:0:
248,232,110974,6,0,B|308:210|317:142|317:142|368:188|428:166,1,240,4|8,1:0|0:1,0:0:0:0:
364,268,112128,1,2,0:0:0:0:
248,232,112512,2,0,P|192:212|144:164,1,120,0|2,1:0|0:0,0:0:0:0:
64,88,113281,2,0,P|60:140|40:216,1,120,8|2,0:1|0:0,0:0:0:0:
116,304,114051,6,0,B|142:237|209:245|209:245|258:291|224:354,2,240,4|8|0,1:0|0:1|1:0,0:0:0:0:
60,72,116358,2,0,P|112:56|180:60,1,120,8|2,0:1|0:0,0:0:0:0:
296,76,117128,5,0,1:0:0:0:
400,136,117512,1,2,0:0:0:0:
416,256,117897,1,8,0:1:0:0:
332,340,118281,1,2,0:0:0:0:
256,248,118666,5,0,1:0:0:0:
180,340,119051,1,2,0:0:0:0:
96,256,119435,1,8,0:1:0:0:
112,136,119820,1,2,0:0:0:0:
216,76,120205,6,0,P|252:60|292:64,2,80,0|2|0,1:0|0:0|0:0,0:0:0:0:
264,140,120974,2,0,P|300:192|356:208,1,120,8|2,0:1|0:0,0:0:0:0:
416,312,121743,2,0,P|456:312|496:328,2,80,0|2|0,1:0|0:0|0:0,0:0:0:0:
340,336,122512,2,0,L|208:352,1,120,8|2,0:1|0:0,0:0:0:0:
128,276,123281,6,0,P|84:256|48:192,1,120,4|2,0:0|0:0,0:0:0:0:
172,156,124051,2,0,L|291:141,1,120,4|2,0:0|0:0,0:0:0:0:
384,68,124820,5,4,0:0:0:0:
492,124,125205,1,2,0:0:0:0:
396,196,125589,1,4,0:0:0:0:
492,260,125974,1,2,0:0:0:0:
384,316,126358,6,0,P|320:324|267:363,1,120,4|2,0:0|0:0,0:0:0:0:
156,336,127128,2,0,P|120:288|67:262,1,120,4|2,0:0|0:0,0:0:0:0:
40,144,127897,1,4,0:0:0:0:
120,56,128281,1,4,0:0:0:0:
236,32,128666,1,4,0:0:0:0:
344,88,129051,1,4,0:0:0:0:
392,200,129435,5,4,2:0:0:0:
432,220,134051,5,4,0:0:0:0:
432,220,134435,1,4,0:0:0:0:
444,232,134820,1,4,0:0:0:0:
444,232,135205,1,4,0:0:0:0:
444,232,135589,6,0,P|408:324|280:324,1,240,4|8,1:0|0:1,0:0:0:0:
192,248,136743,1,2,0:0:0:0:
148,136,137128,2,0,B|148:76|148:76|196:36,1,120,0|2,1:0|0:0,0:0:0:0:
318,38,137897,2,0,B|364:76|364:76|364:136,1,120,8|2,0:1|0:2,0:0:0:0:
472,192,138666,6,0,B|448:240|400:252|400:252|392:276,1,120,0|0,1:0|0:0,0:0:0:0:
288,332,139435,2,0,P|224:344|172:324,1,120,8|0,0:1|0:0,0:0:0:0:
60,288,140205,5,0,1:0:0:0:
172,244,140589,1,8,0:1:0:0:
60,204,140974,1,8,0:1:0:0:
172,160,141358,1,4,0:0:0:0:
60,120,141743,6,0,P|100:64|152:40,1,120,4|2,1:0|0:0,0:0:0:0:
256,88,142512,1,8,0:1:0:0:
368,42,142897,2,0,P|420:71|452:120,1,120,2|0,0:0|1:0,0:0:0:0:
436,240,143666,1,2,0:0:0:0:
320,264,144051,2,0,P|256:276|212:308,1,120,8|2,0:1|0:0,0:0:0:0:
96,336,144820,6,0,L|64:96,1,240,0|8,1:0|0:1,0:0:0:0:
152,16,145974,1,8,0:0:0:0:
180,132,146358,2,0,L|196:256,1,120,0|2,1:0|0:0,0:0:0:0:
284,332,147128,2,0,P|340:344|396:316,1,120,8|2,1:0|0:0,0:0:0:0:
436,204,147897,6,0,B|424:146|362:124|346:143|331:162|269:140|256:82,1,240,4|8,1:0|0:1,0:0:0:0:
144,32,149051,1,2,0:0:0:0:
60,120,149435,2,0,P|40:172|56:236,1,120,0|2,1:0|0:0,0:0:0:0:
164,184,150205,2,0,B|224:192|224:192|260:240,1,120,8|2,0:1|0:2,0:0:0:0:
200,344,150974,6,0,P|328:336|380:240,1,240,0|8,1:0|0:1,0:0:0:0:
428,12,152512,2,0,L|308:52,1,120,0|8,1:0|0:1,0:0:0:0:
198,50,153281,2,0,L|84:12,1,120,8|4,0:1|0:0,0:0:0:0:
8,108,154051,6,0,P|4:176|36:232,1,120,4|0,0:2|0:0,0:0:0:0:
140,264,154820,2,0,P|144:196|112:140,1,120,4|0,0:0|0:0,0:0:0:0:
236,116,155589,2,0,P|232:184|264:240,1,120,4|0,0:0|0:0,0:0:0:0:
368,272,156358,2,0,P|372:204|340:148,1,120,4|2,0:0|0:0,0:0:0:0:
452,96,157128,6,0,P|496:212|476:328,1,240,4|8,0:2|0:1,0:0:0:0:
368,272,158281,1,0,0:0:0:0:
260,324,158666,2,0,P|208:336|144:304,1,120,4|2,0:0|0:0,0:0:0:0:
104,200,159435,1,8,0:1:0:0:
148,88,159820,1,0,0:0:0:0:
256,192,160205,12,4,163281,1:0:0:0:
