osu file format v14

[General]
AudioFilename: Warriors.mp3
AudioLeadIn: 0
PreviewTime: 30984
Countdown: 0
SampleSet: None
StackLeniency: 0.3
Mode: 0
LetterboxInBreaks: 0
WidescreenStoryboard: 1

[Editor]
Bookmarks: 104830,129445,135599,154061,163291
DistanceSpacing: 0.6
BeatDivisor: 2
GridSize: 4
TimelineZoom: 2

[Metadata]
Title:Warriors
TitleUnicode:Warriors
Artist:Imagine Dragons
ArtistUnicode:Imagine Dragons
Creator:SuperMIC
Version:Knight
Source:League of Legends
Tags:Nwolf LoL 2014 worlds world championships
BeatmapID:888572
BeatmapSetID:214341

[Difficulty]
HPDrainRate:5
CircleSize:4
OverallDifficulty:6
ApproachRate:7
SliderMultiplier:1.4
SliderTickRate:3

[Events]
//Background and Video events
Video,-310,"warriors.avi"
0,0,"rsz_1lol.jpg",0,0
//Break Periods
2,55789,66997
2,129635,133151
//Storyboard Layer 0 (Background)
//Storyboard Layer 1 (Fail)
//Storyboard Layer 2 (Pass)
//Storyboard Layer 3 (Foreground)
//Storyboard Sound Samples

[TimingPoints]
205,384.615384615385,4,2,1,25,1,0
6358,-100,4,3,0,30,0,0
29820,-100,4,3,0,40,0,0
30205,-100,4,3,0,50,0,0
30589,-100,4,3,0,60,0,0
30974,-100,4,3,1,70,0,1
55589,-100,4,3,1,40,0,0
78666,-200,4,3,1,40,0,0
78794,-200,4,3,1,10,0,0
80205,-100,4,3,1,70,0,1
104692,-100,4,3,1,70,0,0
104820,-100,4,3,1,70,0,1
104948,-100,4,3,1,70,0,0
123217,-100,4,3,1,75,0,0
126294,-100,4,3,1,80,0,0
126679,-100,4,3,1,82,0,0
127063,-100,4,3,1,85,0,0
127448,-100,4,3,1,87,0,0
127833,-100,4,3,1,90,0,0
128602,-100,4,3,1,100,0,0
129371,-100,4,2,1,35,0,0
133922,-100,4,3,1,45,0,0
134307,-100,4,3,1,55,0,0
134692,-100,4,3,1,65,0,0
135589,-80,4,3,1,70,0,1
163281,-80,4,3,1,70,0,0

[Colours]
Combo1 : 106,0,213
Combo2 : 213,106,0
Combo3 : 0,96,213
Combo4 : 201,12,40

[HitObjects]
92,344,205,6,0,P|128:312|180:292,1,93.3333333333333,4|0,0:3|0:0,0:0:0:0:
220,296,589,2,0,P|272:296|312:272,1,93.3333333333333
344,240,974,1,0,0:0:0:0:
396,96,1358,2,0,L|408:48,2,46.6666666666667
380,144,1743,6,0,P|340:168|284:172,1,93.3333333333333,2|0,0:0|0:0,0:0:0:0:
244,160,2128,2,0,P|196:144|152:148,1,93.3333333333333
104,156,2512,1,0,0:0:0:0:
40,296,2897,1,0,0:0:0:0:
40,296,3025,1,0,0:0:0:0:
40,296,3153,1,0,0:0:0:0:
40,296,3281,6,0,P|80:324|128:328,1,93.3333333333333,4|0,0:3|0:0,0:0:0:0:
172,316,3666,2,0,P|216:300|260:316,1,93.3333333333333
296,348,4051,1,0,0:0:0:0:
416,252,4435,2,0,L|420:152,1,93.3333333333333
420,108,4820,6,0,P|384:72|344:60,1,93.3333333333333,2|0,0:0|0:0,0:0:0:0:
300,84,5205,2,0,P|256:100|212:84,1,93.3333333333333,2|0,0:0|0:0,0:0:0:0:
168,60,5589,1,2,0:0:0:0:
44,340,6358,6,0,L|184:312,1,140,4|0,0:0|0:0,0:0:0:0:
300,216,7128,2,0,L|204:196,1,93.3333333333333,2|0,0:0|0:0,0:0:0:0:
160,188,7512,2,0,P|112:176|76:144,1,93.3333333333333,2|0,0:0|0:0,0:0:0:0:
56,100,7897,6,0,P|84:48|160:32,1,140,4|0,0:0|0:0,0:0:0:0:
288,112,8666,2,0,P|355:101|390:43,1,140,2|0,0:0|0:0,0:0:0:0:
492,64,9307,1,0,0:0:0:0:
492,64,9435,6,0,L|484:216,1,140,4|0,0:0|0:0,0:0:0:0:
396,264,10076,1,0,0:0:0:0:
396,264,10205,2,0,L|404:112,1,140,2|0,0:0|0:0,0:0:0:0:
252,96,10974,2,0,B|192:76|184:92|176:108|116:88,2,140,4|0|2,0:0|0:0|0:0,0:0:0:0:
212,192,11999,6,0,L|196:240,1,46.6666666666667,0|2,0:0|0:2,0:0:0:0:
108,280,12384,1,0,0:0:0:0:
108,280,12512,2,0,P|148:324|228:332,1,140,4|0,0:0|0:0,0:0:0:0:
320,296,13153,2,0,P|388:300|436:348,1,140,2|0,0:0|0:0,0:0:0:0:
436,348,13666,1,2,0:2:0:0:
492,264,13922,1,0,0:0:0:0:
492,264,14051,6,0,B|408:220|408:220|396:172,1,140,4|0,0:0|0:0,0:0:0:0:
236,92,14692,2,0,B|256:116|280:132|312:144|312:144|332:240,1,186.666666666667,2|0,0:0|0:0,0:0:0:0:
260,308,15461,2,0,P|176:320|120:300,1,140,2|0,0:2|0:0,0:0:0:0:
68,92,16358,2,0,P|116:76|160:84,1,93.3333333333333,2|0,0:0|0:0,0:0:0:0:
204,104,16743,2,0,P|252:116|296:112,1,93.3333333333333,2|0,0:0|0:0,0:0:0:0:
344,96,17128,6,0,P|416:88|476:120,2,140,4|0|2,0:0|0:0|0:0,0:0:0:0:
396,240,18281,2,0,P|380:288|344:312,1,93.3333333333333,2|0,0:2|0:0,0:0:0:0:
320,356,18666,6,0,P|280:332|228:328,1,93.3333333333333,4|0,0:0|0:0,0:0:0:0:
184,328,19051,2,0,L|128:340,3,46.6666666666667,0|0|0|2,0:0|0:0|0:0|0:0,0:0:0:0:
44,216,19820,2,0,P|44:164|60:116,1,93.3333333333333,2|0,0:2|0:0,0:0:0:0:
88,84,20205,2,0,B|124:72|144:44|144:44|164:72|200:84,2,140,4|0|2,0:0|0:0|0:0,0:0:0:0:
206,191,21358,5,2,0:2:0:0:
268,272,21615,1,0,0:0:0:0:
268,272,21743,2,0,P|332:232|330:171,1,140,4|2,0:0|0:0,0:0:0:0:
378,79,22384,2,0,B|310:63|254:99|254:99|230:83|194:83,1,186.666666666667,0|2,0:0|0:0,0:0:0:0:
100,108,23153,1,0,0:0:0:0:
100,108,23281,2,0,L|92:252,2,140,4|0|2,0:0|0:0|0:0,0:0:0:0:
204,220,24435,6,0,B|200:280|200:280|212:312,1,93.3333333333333,2|0,0:2|0:0,0:0:0:0:
248,348,24820,2,0,P|320:360|372:320,1,140,4|0,0:0|0:0,0:0:0:0:
453,215,25461,2,0,B|408:228|365:207|365:207|297:279,1,186.666666666667,2|2,0:0|0:2,0:0:0:0:
414,139,26230,2,0,B|368:112|320:120|288:164|288:164|244:152,1,186.666666666667,4|0,0:0|0:0,0:0:0:0:
144,64,26999,2,0,B|164:120|164:120|148:168|172:200,1,140,2|0,0:0|0:0,0:0:0:0:
170,197,27512,5,2,0:2:0:0:
220,292,27769,2,0,P|280:324|340:292,1,140
372,88,28666,2,0,L|380:184,1,93.3333333333333,2|0,0:0|0:0,0:0:0:0:
432,192,29051,2,0,L|440:288,1,93.3333333333333
412,328,29435,6,0,L|424:376,2,46.6666666666667,8|8|0,0:0|0:0|0:0,0:0:0:0:
360,324,29820,2,8,L|346:371,2,46.6666666666667,8|8|0,0:0|0:0|0:0,0:0:0:0:
312,300,30205,2,8,L|276:334,2,46.6666666666667,8|8|0,0:0|0:0|0:0,0:0:0:0:
284,256,30589,2,8,L|235:267,2,46.6666666666667,8|8|0,0:0|0:0|0:0,0:0:0:0:
348,208,30974,6,0,P|324:144|268:92,1,140,4|0,1:0|0:0,0:0:0:0:
92,68,31743,2,0,P|116:132|172:184,1,140,8|0,0:1|0:0,0:0:0:0:
120,292,32384,1,0,0:0:0:0:
120,292,32512,2,0,P|172:288|220:308,1,93.3333333333333,0|0,1:0|0:0,0:0:0:0:
260,328,32897,2,0,P|304:344|360:340,1,93.3333333333333
400,324,33281,1,8,0:1:0:0:
436,144,33666,2,0,P|412:96|372:68,1,93.3333333333333
324,62,34051,6,0,B|283:62|283:62|255:53|255:53|227:62|227:62|186:62,1,140,0|0,1:0|0:0,0:0:0:0:
60,192,34820,2,0,B|100:192|100:192|128:200|128:200|156:192|156:192|197:192,1,140,8|0,0:1|0:0,0:0:0:0:
232,372,35589,2,0,P|272:344|316:344,1,93.3333333333333,0|0,1:0|0:0,0:0:0:0:
368,356,35974,2,0,P|416:356|456:324,1,93.3333333333333,2|0,0:0|0:0,0:0:0:0:
464,304,36358,5,8,0:1:0:0:
472,276,36487,1,0,0:0:0:0:
472,248,36615,1,0,0:0:0:0:
468,220,36743,2,0,P|464:196|452:172,2,46.6666666666667,8|8|4,0:1|0:1|0:0,0:0:0:0:
392,220,37128,6,0,P|300:204|348:56,1,280,4|8,1:0|0:1,0:0:0:0:
456,68,38153,2,0,P|488:104|488:152,1,93.3333333333333,0|2,0:2|0:0,0:0:0:0:
392,220,38666,2,0,B|331:255|331:255|316:323,1,140,0|0,1:0|0:0,0:0:0:0:
195,323,39307,2,0,B|180:255|180:255|120:220,1,140,2|0,0:0|0:0,0:0:0:0:
119,219,39820,1,2,0:2:0:0:
60,48,40205,6,0,L|200:48,1,140,0|0,1:0|0:0,0:0:0:0:
408,128,40974,2,0,L|268:128,1,140,8|0,0:1|0:0,0:0:0:0:
48,172,41743,6,0,L|2:182,2,46.6666666666667,0|0|0,1:0|0:0|0:0,0:0:0:0:
76,220,42128,2,0,L|42:252,2,46.6666666666667,8|0|8,0:1|0:0|0:1,0:0:0:0:
128,240,42512,2,0,L|114:284,2,46.6666666666667,0|0|0,1:0|0:0|0:0,0:0:0:0:
184,240,42897,2,0,L|195:285,2,46.6666666666667,8|0|4,0:1|0:0|0:0,0:0:0:0:
220,200,43281,6,0,P|264:168|348:164,1,140,4|0,1:0|0:0,0:0:0:0:
480,288,44051,2,0,P|436:320|392:328,1,93.3333333333333,8|0,0:1|0:0,0:0:0:0:
368,372,44435,2,0,P|320:364|280:340,1,93.3333333333333
228,364,44820,2,0,P|204:312|208:224,1,140,0|0,1:0|0:0,0:0:0:0:
80,100,45589,2,0,P|128:92|172:76,1,93.3333333333333,8|0,0:1|0:0,0:0:0:0:
169,76,45974,1,0,0:0:0:0:
288,48,46230,1,0,0:0:0:0:
288,48,46358,6,0,L|300:192,1,140,0|0,1:0|0:0,0:0:0:0:
436,308,47128,2,0,L|428:216,1,93.3333333333333,8|8,0:1|0:0,0:0:0:0:
425,187,47512,1,0,0:0:0:0:
422,159,47640,1,0,0:0:0:0:
419,130,47769,1,0,0:0:0:0:
416,102,47897,6,0,B|380:90|364:58|364:58|348:90|312:102,1,140,0|2,1:0|0:0,0:0:0:0:
132,120,48666,2,0,L|124:64,2,46.6666666666667,8|0|0,0:1|0:0|0:0,0:0:0:0:
76,136,49051,2,8,L|68:80,2,46.6666666666667,8|8|4,0:1|0:1|0:0,0:1:0:0:
24,152,49435,6,0,B|24:228|24:228|24:272|60:308|112:308|112:308|184:308,1,280,4|8,1:0|0:1,0:0:0:0:
304,304,50461,2,0,L|328:256,1,46.6666666666667,2|0,0:0|0:0,0:0:0:0:
376,240,50717,2,0,L|384:184,1,46.6666666666667
428,164,50974,2,0,P|412:104|348:60,1,140,0|0,1:0|0:0,0:0:0:0:
228,64,51615,1,0,0:0:0:0:
228,64,51743,2,0,L|84:72,1,140,8|2,0:1|0:2,0:0:0:0:
72,252,52512,6,0,B|132:272|140:256|148:240|208:260,1,140,0|0,1:0|0:0,0:0:0:0:
440,252,53281,2,0,B|380:272|372:256|364:240|304:260,1,140,8|0,0:1|0:0,0:0:0:0:
212,100,54051,6,0,P|255:84|299:100,2,93.3333333333333,0|0|0,1:0|0:0|0:0,0:0:0:0:
108,164,54820,1,8,0:1:0:0:
104,192,54948,1,0,0:0:0:0:
100,220,55076,1,0,0:0:0:0:
96,248,55205,1,8,0:1:0:0:
92,276,55333,1,8,0:1:0:0:
88,304,55461,1,8,0:1:0:0:
84,332,55589,1,4,0:2:0:0:
108,308,67897,6,0,P|112:236|96:168,1,140,4|0,0:0|0:0,0:0:0:0:
200,56,68666,2,0,P|192:104|200:152,1,93.3333333333333,8|0,0:1|0:0,0:0:0:0:
224,192,69051,2,0,P|272:200|312:228,1,93.3333333333333,2|0,0:2|0:0,0:0:0:0:
336,268,69435,2,0,P|400:288|448:236,1,140,4|0,0:0|0:0,0:0:0:0:
476,88,70205,2,0,L|484:40,2,46.6666666666667,8|0|0,0:1|0:0|0:0,0:0:0:0:
436,120,70589,2,0,P|388:120|340:132,1,93.3333333333333,2|0,0:0|0:0,0:0:0:0:
312,168,70974,6,0,P|280:124|192:96,1,140,4|0,0:0|0:0,0:0:0:0:
68,176,71743,2,0,B|72:224|72:224|100:268,1,93.3333333333333,8|0,0:1|0:0,0:0:0:0:
96,262,72128,1,0,0:0:0:0:
168,336,72384,1,0,0:0:0:0:
168,336,72512,2,0,P|232:320|304:336,1,140,4|0,0:0|0:0,0:0:0:0:
388,208,73281,2,0,P|392:160|404:112,1,93.3333333333333,8|0,0:1|0:0,0:0:0:0:
420,68,73666,5,2,0:2:0:0:
300,48,73922,2,0,P|220:64|128:20,1,186.666666666667,2|0,0:0|0:0,0:0:0:0:
112,148,74692,2,0,P|128:228|84:320,1,186.666666666667,2|0,0:2|0:0,0:0:0:0:
212,336,75461,2,0,P|292:320|384:364,1,186.666666666667,2|0,0:0|0:0,0:0:0:0:
400,236,76230,2,0,P|384:156|428:64,1,186.666666666667,2|2,0:2|0:0,0:0:0:0:
228,64,77128,5,4,0:0:0:0:
113,186,77512,1,0,0:0:0:0:
194,333,77897,1,8,0:1:0:0:
359,301,78281,1,0,0:0:0:0:
380,134,78666,6,0,P|332:80|264:64,1,140,0|2,1:0|0:2,0:0:0:0:
20,328,80205,6,0,P|84:348|148:316,1,140,4|2,1:0|0:2,0:0:0:0:
260,172,80974,2,0,P|321:141|386:161,1,140,8|2,0:1|0:2,0:0:0:0:
476,244,81615,1,0,0:0:0:0:
476,244,81743,2,0,L|468:152,1,93.3333333333333,0|0,1:0|0:0,0:0:0:0:
452,96,82128,2,0,P|416:68|360:52,1,93.3333333333333,2|0,0:2|0:0,0:0:0:0:
344,52,82512,1,8,0:1:0:0:
316,56,82640,1,0,0:0:0:0:
288,68,82769,1,0,0:0:0:0:
268,88,82897,1,2,0:2:0:0:
188,296,83281,6,0,P|164:252|80:204,1,140,0|2,1:0|0:2,0:0:0:0:
176,44,84051,2,0,P|180:80|188:100,3,46.6666666666667,8|0|0|2,0:1|0:0|0:0|0:2,0:0:0:0:
272,288,84820,2,0,P|270:237|319:154,1,140,0|2,1:0|0:2,0:0:0:0:
472,72,85589,2,0,L|476:24,2,46.6666666666667,8|0|0,0:1|0:0|0:0,0:0:0:0:
470,100,85974,1,8,0:1:0:0:
468,127,86102,1,8,0:1:0:0:
466,154,86230,1,4,0:0:0:0:
464,181,86358,6,0,B|442:250|493:311|493:311|413:311|374:372,1,280,4|8,1:0|0:1,0:0:0:0:
268,316,87384,2,0,P|224:288|172:284,1,93.3333333333333,0|2,0:0|0:0,0:0:0:0:
76,340,87897,2,0,L|64:248,1,93.3333333333333,0|0,1:0|0:0,0:0:0:0:
24,208,88281,2,0,L|12:116,1,93.3333333333333,2|0,0:2|0:0,0:0:0:0:
48,72,88666,2,0,P|92:44|132:44,1,93.3333333333333,8|0,0:1|0:0,0:0:0:0:
184,60,89051,1,2,0:2:0:0:
308,172,89435,6,0,P|368:184|424:132,1,140,0|0,1:0|0:0,0:0:0:0:
204,212,90205,2,0,P|144:200|88:252,1,140,8|0,0:1|0:0,0:0:0:0:
300,324,90974,6,0,P|296:344|284:368,2,46.6666666666667,0|0|0,1:0|0:0|0:0,0:0:0:0:
340,288,91358,2,0,P|372:280|388:272,2,46.6666666666667,8|0|8,0:1|0:0|0:1,0:0:0:0:
284,276,91743,5,0,1:0:0:0:
264,256,91871,1,0,0:0:0:0:
252,232,91999,1,0,0:0:0:0:
248,204,92128,1,8,0:1:0:0:
256,176,92256,1,0,0:0:0:0:
272,152,92384,1,4,0:0:0:0:
296,136,92512,6,0,P|352:112|432:120,1,140,4|2,1:0|0:2,0:0:0:0:
504,284,93281,2,0,P|460:308|416:308,1,93.3333333333333,8|0,0:1|0:0,0:0:0:0:
364,300,93666,2,0,P|308:296|272:308,1,93.3333333333333,2|0,0:2|0:0,0:0:0:0:
228,340,94051,2,0,P|172:360|104:320,1,140,0|2,1:0|0:2,0:0:0:0:
52,164,94820,1,8,0:1:0:0:
120,76,95076,2,0,L|96:32,1,46.6666666666667,0|2,0:0|0:2,0:0:0:0:
232,76,95461,1,0,0:0:0:0:
232,76,95589,6,0,B|272:84|292:112|292:112|360:112,1,140,0|2,1:0|0:2,0:0:0:0:
464,244,96358,2,0,L|368:244,1,93.3333333333333,8|8,0:1|0:0,0:0:0:0:
344,244,96743,1,2,0:2:0:0:
316,252,96871,1,0,0:0:0:0:
292,268,96999,1,0,0:0:0:0:
276,292,97128,6,0,B|248:322|213:311|213:311|185:286|198:247,1,140,0|2,1:0|0:2,0:0:0:0:
108,88,97897,2,0,L|100:32,2,46.6666666666667,8|0|0,0:1|0:0|0:0,0:0:0:0:
112,116,98281,1,8,0:1:0:0:
116,144,98410,1,8,0:1:0:0:
120,172,98538,1,4,0:0:0:0:
124,200,98666,6,0,B|122:239|152:270|206:256|210:212|210:212|243:241|292:213|292:170|264:143,1,280,4|8,1:0|0:1,0:0:0:0:
332,40,99692,2,0,P|352:88|388:128,1,93.3333333333333,2|0,0:2|0:0,0:0:0:0:
468,200,100205,2,0,P|476:252|460:296,1,93.3333333333333,0|0,1:0|0:0,0:0:0:0:
416,316,100589,2,0,P|368:312|320:340,1,93.3333333333333,2|0,0:2|0:0,0:0:0:0:
284,368,100974,2,0,P|232:372|192:352,1,93.3333333333333,8|0,0:1|0:0,0:0:0:0:
152,320,101358,1,2,0:2:0:0:
80,152,101743,6,0,B|112:140|112:140|136:151|136:151|170:128|214:143,1,140,0|0,1:0|0:0,0:0:0:0:
432,152,102512,2,0,B|399:140|399:140|375:151|375:151|341:128|299:143,1,140,8|0,0:1|0:0,0:0:0:0:
396,296,103281,2,0,L|444:276,2,46.6666666666667,0|0|0,1:0|0:0|0:0,0:0:0:0:
352,332,103666,2,0,L|345:383,2,46.6666666666667,8|0|8,0:1|0:0|0:1,0:0:0:0:
344,276,104051,5,0,1:0:0:0:
328,256,104179,1,0,0:0:0:0:
304,240,104307,1,0,0:0:0:0:
276,236,104435,1,8,0:1:0:0:
248,240,104563,1,8,0:1:0:0:
224,252,104692,1,4,0:0:0:0:
208,276,104820,6,0,B|176:324|116:308|96:248|136:212|136:212|128:180|128:180|140:144|140:144|132:104,1,280,4|8,1:0|0:1,0:0:0:0:
236,48,105846,2,0,P|280:64|332:60,1,93.3333333333333,2|0,0:0|0:0,0:0:0:0:
444,96,106358,2,0,B|464:156|448:164|432:172|452:232,1,140,0|2,1:0|0:0,0:0:0:0:
464,256,106871,1,0,0:0:0:0:
468,284,106999,1,0,0:0:0:0:
464,312,107128,2,0,P|420:348|340:332,1,140,8|2,0:1|0:0,0:0:0:0:
160,340,107897,6,0,P|136:300|92:272,1,93.3333333333333,0|0,1:0|0:0,0:0:0:0:
44,260,108281,2,0,L|56:156,1,93.3333333333333,2|0,0:0|0:0,0:0:0:0:
100,136,108666,2,0,P|128:96|168:80,1,93.3333333333333,8|0,0:1|0:0,0:0:0:0:
224,92,109051,2,0,P|272:104|320:92,1,93.3333333333333,2|0,0:0|0:0,0:0:0:0:
368,96,109435,2,0,B|389:107|392:126|375:136|375:136|357:147|360:162|380:166|380:166|400:170|402:185|385:195|385:195|368:206|371:221|390:225|390:225|410:229|413:244|396:255|396:255|378:265|382:284|403:295,1,280,0|8,1:0|0:1,0:0:0:0:
296,352,110461,1,0,0:0:0:0:
296,352,110589,1,0,0:0:0:0:
180,320,110846,1,0,0:0:0:0:
180,320,110974,6,0,B|183:262|127:197|66:219|77:277|122:316|171:273|143:193|92:167,1,280,4|8,1:0|0:1,0:0:0:0:
48,56,111999,2,0,L|96:68,1,46.6666666666667,0|2,0:0|0:0,0:0:0:0:
144,48,112256,2,0,L|192:44,1,46.6666666666667
244,60,112512,2,0,P|272:100|360:108,1,140,0|2,1:0|0:0,0:0:0:0:
384,96,113025,1,0,0:0:0:0:
412,92,113153,1,0,0:0:0:0:
440,96,113281,2,0,P|480:144|472:220,1,140,8|2,0:1|0:0,0:0:0:0:
348,352,114051,6,0,B|318:355|300:333|300:311|300:311|300:289|285:264|256:253|227:264|212:289|212:311|212:311|212:333|194:355|165:352,2,280,4|8|0,1:0|0:1|1:0,0:0:0:0:
300,175,115974,2,0,P|256:163|211:175,1,93.3333333333333,8|8,0:1|0:1,0:0:0:0:
172,216,116358,2,0,P|144:212|120:200,2,46.6666666666667,0|0|0,1:0|0:0|0:0,0:0:0:0:
216,252,116743,2,0,P|239:255|260:264,2,46.6666666666667,8|0|8,0:1|0:0|0:1,0:0:0:0:
172,288,117128,6,0,P|144:284|104:288,2,46.6666666666667,0|0|0,1:0|0:0|0:0,0:0:0:0:
212,328,117512,1,2,0:0:0:0:
240,336,117640,1,0,0:0:0:0:
268,332,117769,1,0,0:0:0:0:
292,316,117897,2,0,L|296:256,2,46.6666666666667,8|0|0,0:1|0:0|0:0,0:0:0:0:
324,364,118281,1,2,0:0:0:0:
352,372,118410,1,0,0:0:0:0:
380,368,118538,1,0,0:0:0:0:
404,356,118666,6,0,P|432:344|452:340,2,46.6666666666667,0|0|0,1:0|0:0|0:0,0:0:0:0:
364,316,119051,1,2,0:0:0:0:
348,292,119179,1,0,0:0:0:0:
340,264,119307,1,0,0:0:0:0:
344,236,119435,1,8,0:1:0:0:
356,212,119563,1,0,0:0:0:0:
376,192,119692,1,0,0:0:0:0:
404,184,119820,6,0,P|441:156|452:112,1,93.3333333333333,2|0,0:2|0:0,0:0:0:0:
382,116,120205,2,0,B|343:91|343:91|323:47,2,93.3333333333333,4|2|0,1:0|0:0|0:0,0:0:0:0:
296,200,120974,2,0,P|252:224|232:264,1,93.3333333333333,8|0,0:1|0:0,0:0:0:0:
200,308,121358,2,0,P|177:267|136:246,1,93.3333333333333,2|0,0:2|0:0,0:0:0:0:
80,248,121743,2,0,L|60:152,2,93.3333333333333,0|2|0,1:0|0:0|0:0,0:0:0:0:
148,160,122512,2,0,B|136:100|136:100|140:80|140:80|124:8,1,140,8|2,0:1|0:0,0:0:0:0:
296,88,123281,6,0,L|288:36,2,46.6666666666667,4|0|0,0:0|0:0|0:0,0:0:0:0:
316,140,123666,2,0,P|344:180|392:196,1,93.3333333333333,2|0,0:0|0:0,0:0:0:0:
432,224,124051,2,0,P|392:252|376:300,1,93.3333333333333,4|0,0:0|0:0,0:0:0:0:
340,332,124435,2,0,P|312:292|264:276,1,93.3333333333333,2|0,0:0|0:0,0:0:0:0:
216,288,124820,6,0,L|188:328,2,46.6666666666667,4|0|0,0:0|0:0|0:0,0:0:0:0:
196,236,125205,2,0,P|168:196|124:176,1,93.3333333333333,2|0,0:0|0:0,0:0:0:0:
76,196,125589,2,0,L|52:92,1,93.3333333333333,4|0,0:0|0:0,0:0:0:0:
64,48,125974,2,0,P|108:52|156:40,1,93.3333333333333,2|0,0:0|0:0,0:0:0:0:
204,68,126358,6,0,L|212:116,2,46.6666666666667,4|0|0,0:0|0:0|0:0,0:0:0:0:
252,40,126743,2,0,P|300:36|344:56,1,93.3333333333333,2|0,0:0|0:0,0:0:0:0:
388,84,127128,2,0,L|428:52,2,46.6666666666667,4|0|0,0:0|0:0|0:0,0:0:0:0:
400,140,127512,2,0,P|408:192|428:232,1,93.3333333333333,2|0,0:0|0:0,0:0:0:0:
468,268,127897,6,0,L|512:288,2,46.6666666666667,4|0|0,0:0|0:0|0:0,0:0:0:0:
428,308,128281,2,0,L|448:356,2,46.6666666666667,4|0|0,0:0|0:0|0:0,0:0:0:0:
372,300,128666,1,4,0:0:0:0:
348,288,128794,1,8,0:0:0:0:
320,284,128922,1,0,0:0:0:0:
292,292,129051,1,4,0:0:0:0:
264,300,129179,1,8,0:0:0:0:
236,296,129307,1,0,0:0:0:0:
212,284,129435,5,4,2:0:0:0:
212,284,134051,5,4,0:0:0:0:
212,284,134435,1,4,0:0:0:0:
212,284,134820,2,0,L|180:196,1,93.3333333333333,4|0,0:0|0:0,0:0:0:0:
224,160,135205,2,0,L|228:56,1,93.3333333333333,4|0,0:0|0:0,0:0:0:0:
276,36,135589,6,0,P|372:40|424:96,1,175,4|0,1:0|0:0,0:0:0:0:
476,296,136358,2,0,P|412:304|364:280,1,116.666666666667,8|0,0:1|0:0,0:0:0:0:
256,192,136871,1,2,0:0:0:0:
145,282,137128,2,0,P|132:224|100:176,1,116.666666666667,0|0,1:0|0:0,0:0:0:0:
64,132,137512,2,0,P|120:104|152:56,1,116.666666666667,2|0,0:0|0:0,0:0:0:0:
208,44,137897,2,0,L|324:52,1,116.666666666667,8|0,0:1|0:0,0:0:0:0:
384,56,138281,1,2,0:2:0:0:
484,240,138666,6,0,L|304:224,1,175,0|0,1:0|0:0,0:0:0:0:
128,332,139435,2,0,L|302:347,1,175,8|0,0:1|0:0,0:0:0:0:
140,216,140205,2,0,P|108:196|80:188,2,58.3333333333333,0|0|0,1:0|0:0|0:0,0:0:0:0:
188,180,140589,2,0,P|170:146|150:125,2,58.3333333333333,8|0|8,0:1|0:0|0:1,0:0:0:0:
244,188,140974,5,0,1:0:0:0:
272,192,141102,1,0,0:0:0:0:
300,188,141230,1,0,0:0:0:0:
324,172,141358,1,8,0:1:0:0:
336,148,141487,1,8,0:1:0:0:
340,120,141615,1,4,0:0:0:0:
340,92,141743,6,0,P|380:40|460:88,1,175,4|2,1:0|0:0,0:0:0:0:
484,296,142512,2,0,B|476:332|476:332|384:344,1,116.666666666667,8|0,0:1|0:0,0:0:0:0:
348,376,142897,2,0,P|288:368|240:332,1,116.666666666667,2|0,0:0|0:0,0:0:0:0:
216,284,143281,2,0,P|184:236|76:188,1,175,0|2,1:0|0:0,0:0:0:0:
224,32,144051,2,0,P|276:64|332:64,1,116.666666666667,8|0,0:1|0:0,0:0:0:0:
384,44,144435,2,0,P|416:92|472:124,1,116.666666666667,2|0,0:0|0:0,0:0:0:0:
496,172,144820,6,0,B|471:214|494:255|494:255|450:239|412:270,1,175,0|2,1:0|0:0,0:0:0:0:
252,336,145589,2,0,P|184:328|152:288,1,116.666666666667,8|8,0:1|0:0,0:0:0:0:
144,268,145974,1,2,0:0:0:0:
140,240,146102,1,0,0:0:0:0:
144,212,146230,1,0,0:0:0:0:
156,188,146358,6,0,P|164:128|96:32,1,175,0|2,1:0|0:0,0:0:0:0:
312,80,147128,2,0,P|316:48|332:16,2,58.3333333333333,8|8|0,0:1|0:1|0:0,0:0:0:0:
316,108,147512,1,8,1:0:0:0:
328,136,147640,1,8,0:1:0:0:
348,156,147769,1,4,0:0:0:0:
372,168,147897,6,0,B|415:195|471:183|471:183|431:251|471:319|471:319|415:307|372:335,1,350,4|8,1:0|0:1,0:0:0:0:
236,364,148922,2,0,P|176:380|120:364,1,116.666666666667,0|2,0:2|0:0,0:0:0:0:
52,248,149435,2,0,L|44:120,1,116.666666666667,0|0,1:0|0:0,0:0:0:0:
80,84,149820,2,0,P|136:100|192:84,1,116.666666666667,2|0,0:0|0:0,0:0:0:0:
236,48,150205,2,0,P|296:36|352:52,1,116.666666666667,8|0,0:1|0:0,0:0:0:0:
400,76,150589,1,2,0:2:0:0:
444,244,150974,6,0,P|348:248|312:312,1,175,0|0,1:0|0:0,0:0:0:0:
68,244,151743,2,0,P|164:248|200:312,1,175,8|0,0:1|0:0,0:0:0:0:
256,144,152512,2,0,L|256:28,2,116.666666666667,0|0|0,1:0|0:0|0:0,0:0:0:0:
368,184,153281,2,0,L|368:120,2,58.3333333333333,8|0|0,0:1|0:0|0:0,0:0:0:0:
368,220,153666,1,8,0:1:0:0:
368,256,153794,1,8,0:1:0:0:
368,292,153922,1,0,0:1:0:0:
368,328,154051,6,0,P|320:360|216:324,1,175,4|0,0:2|0:0,0:0:0:0:
24,240,154820,2,0,P|72:208|176:244,1,175,4|0,0:0|0:0,0:0:0:0:
256,48,155589,2,0,B|343:41|343:41|406:102,1,175,4|0,0:0|0:0,0:0:0:0:
508,284,156358,2,0,B|420:290|420:290|357:229,1,175,4|2,0:0|0:0,0:0:0:0:
336,208,156871,1,0,0:0:0:0:
316,188,156999,1,0,0:0:0:0:
296,168,157128,6,0,P|232:116|140:108,1,175,4|2,0:2|0:0,0:0:0:0:
48,296,157897,2,0,P|28:316|0:328,2,58.3333333333333,8|0|0,0:1|0:0|0:0,0:0:0:0:
80,280,158281,1,2,0:0:0:0:
300,352,158666,2,0,P|332:304|384:280,1,116.666666666667,4|0,0:0|0:0,0:0:0:0:
436,252,159051,2,0,P|412:196|364:164,1,116.666666666667,2|0,0:0|0:0,0:0:0:0:
340,160,159435,1,8,0:1:0:0:
312,160,159563,1,0,0:0:0:0:
284,168,159692,1,0,0:0:0:0:
260,184,159820,1,2,0:0:0:0:
164,44,160205,6,0,L|44:28,2,116.666666666667,6|2|2,0:1|0:1|0:0,0:0:0:0:
296,88,160974,2,0,L|416:72,2,116.666666666667,6|2|2,0:1|0:1|0:0,0:0:0:0:
136,128,161743,2,0,L|16:112,2,116.666666666667,6|2|2,0:1|0:1|0:0,0:0:0:0:
320,172,162512,2,0,L|440:156,2,116.666666666667,6|2|2,0:1|0:1|0:0,0:0:0:0:
124,216,163281,5,6,1:0:0:0:
