osu file format v14

[General]
AudioFilename: Warriors.mp3
AudioLeadIn: 0
PreviewTime: 30984
Countdown: 0
SampleSet: None
StackLeniency: 0.3
Mode: 0
LetterboxInBreaks: 0
WidescreenStoryboard: 1

[Editor]
Bookmarks: 104830,129445,135599,154061,163291
DistanceSpacing: 1.3
BeatDivisor: 6
GridSize: 4
TimelineZoom: 2

[Metadata]
Title:Warriors
TitleUnicode:Warriors
Artist:Imagine Dragons
ArtistUnicode:Imagine Dragons
Creator:SuperMIC
Version:Commander
Source:League of Legends
Tags:Nwolf LoL 2014 worlds world championships
BeatmapID:893159
BeatmapSetID:214341

[Difficulty]
HPDrainRate:6.5
CircleSize:4
OverallDifficulty:7
ApproachRate:8
SliderMultiplier:1.6
SliderTickRate:3

[Events]
//Background and Video events
Video,-310,"warriors.avi"
0,0,"rsz_1lol.jpg",0,0
//Break Periods
2,55789,67147
2,129635,133301
//Storyboard Layer 0 (Background)
//Storyboard Layer 1 (Fail)
//Storyboard Layer 2 (Pass)
//Storyboard Layer 3 (Foreground)
//Storyboard Sound Samples

[TimingPoints]
205,384.615384615385,4,2,1,25,1,0
6358,-100,4,3,0,30,0,0
29820,-100,4,3,0,40,0,0
30205,-100,4,3,0,50,0,0
30589,-100,4,3,0,60,0,0
30974,-80,4,3,1,70,0,1
55589,-100,4,3,1,40,0,0
78666,-200,4,3,1,40,0,0
78794,-200,4,3,1,10,0,0
80205,-80,4,3,1,70,0,1
104692,-80,4,3,1,70,0,0
104820,-80,4,3,1,70,0,1
104948,-80,4,3,1,70,0,0
123217,-80,4,3,1,75,0,0
126294,-80,4,3,1,80,0,0
126679,-80,4,3,1,82,0,0
127063,-80,4,3,1,85,0,0
127448,-80,4,3,1,87,0,0
127833,-80,4,3,1,90,0,0
128602,-80,4,3,1,100,0,0
129371,-100,4,2,1,35,0,0
133922,-100,4,3,1,45,0,0
134307,-100,4,3,1,55,0,0
134692,-100,4,3,1,65,0,0
135589,-80,4,3,1,70,0,1
163281,-80,4,3,1,70,0,0

[Colours]
Combo1 : 106,0,213
Combo2 : 213,106,0
Combo3 : 0,96,213
Combo4 : 201,12,40

[HitObjects]
408,316,205,6,0,P|400:260|368:216,1,106.666666666667,4|0,0:3|0:0,0:0:0:0:
324,192,589,1,0,0:0:0:0:
272,184,717,1,0,0:0:0:0:
228,212,846,1,0,0:0:0:0:
212,264,974,2,0,P|176:308|116:324,1,106.666666666667
128,232,1358,2,0,L|100:184,2,53.3333333333333
180,156,1743,6,0,B|152:108|152:108|168:60,1,106.666666666667,2|0,0:0|0:0,0:0:0:0:
204,20,2128,1,0,0:0:0:0:
256,8,2256,1,0,0:0:0:0:
308,24,2384,1,0,0:0:0:0:
344,60,2512,1,0,0:0:0:0:
408,204,2769,1,0,0:0:0:0:
412,208,2897,2,0,L|464:216,1,53.3333333333333
300,320,3281,6,0,P|244:332|200:312,1,106.666666666667,4|0,0:3|0:0,0:0:0:0:
160,280,3666,1,0,0:0:0:0:
148,228,3794,1,0,0:0:0:0:
104,196,3922,1,0,0:0:0:0:
88,144,4051,2,0,P|96:92|140:52,1,106.666666666667
220,80,4435,2,0,L|228:136,2,53.3333333333333
304,40,4820,2,0,P|360:44|400:72,1,106.666666666667,2|0,0:0|0:0,0:0:0:0:
444,156,5205,2,0,L|452:268,1,106.666666666667,2|0,0:0|0:0,0:0:0:0:
451,262,5589,1,2,0:0:0:0:
451,262,6358,6,4,P|379:266|323:334,1,160,4|0,0:0|0:0,0:0:0:0:
164,340,6999,1,0,0:0:0:0:
164,340,7128,1,2,0:0:0:0:
40,240,7384,1,0,0:0:0:0:
40,240,7512,1,2,0:0:0:0:
88,88,7769,1,0,0:0:0:0:
88,88,7897,6,0,B|128:64|164:88|164:88|200:112|240:88,2,160,4|0|2,0:0|0:0|0:0,0:0:0:0:
316,164,9051,2,0,P|344:128|344:64,1,106.666666666667
296,184,9435,6,0,P|268:240|284:336,1,160,4|0,0:0|0:0,0:0:0:0:
440,360,10076,1,0,0:0:0:0:
440,360,10205,2,0,P|468:304|452:208,1,160,2|0,0:0|0:0,0:0:0:0:
388,64,10846,1,0,0:0:0:0:
388,64,10974,2,0,L|272:72,1,106.666666666667,4|0,0:0|0:0,0:0:0:0:
208,128,11358,2,0,L|92:136,1,106.666666666667,2|0,0:0|0:0,0:0:0:0:
101,135,11743,1,2,0:2:0:0:
76,292,11999,6,0,P|56:312|32:324,1,53.3333333333333,0|2,0:0|0:2,0:0:0:0:
208,348,12384,1,0,0:0:0:0:
208,348,12512,2,0,P|256:320|312:328,1,106.666666666667,4|0,0:0|0:0,0:0:0:0:
396,340,12897,2,0,L|404:232,1,106.666666666667
403,233,13281,1,2,0:0:0:0:
344,88,13538,1,0,0:0:0:0:
344,88,13666,1,2,0:2:0:0:
188,60,13922,1,0,0:0:0:0:
188,60,14051,6,0,P|124:56|60:124,1,160,4|0,0:0|0:0,0:0:0:0:
152,300,14692,2,0,B|128:261|152:225|152:225|176:189|152:149,1,160,2|0,0:0|0:0,0:0:0:0:
152,149,15205,1,0,0:0:0:0:
288,232,15461,2,0,B|324:268|328:312|328:312|392:336,1,160
480,364,15974,2,0,P|484:328|452:268,1,106.666666666667
400,192,16358,6,0,P|376:144|380:92,1,106.666666666667,2|0,0:0|0:0,0:0:0:0:
316,28,16743,2,0,P|264:48|208:48,1,106.666666666667,2|0,0:0|0:0,0:0:0:0:
128,88,17128,2,0,L|116:252,2,160,4|0|2,0:0|0:0|0:0,0:0:0:0:
220,308,18281,2,0,L|228:196,1,106.666666666667,2|0,0:2|0:0,0:0:0:0:
272,124,18666,6,0,P|328:116|376:136,1,106.666666666667,4|0,0:0|0:0,0:0:0:0:
416,168,19051,1,0,0:0:0:0:
440,216,19179,1,0,0:0:0:0:
440,268,19307,1,0,0:0:0:0:
416,316,19435,1,2,0:0:0:0:
176,348,19820,2,0,P|152:300|104:276,1,106.666666666667,2|0,0:2|0:0,0:0:0:0:
88,364,20205,6,0,P|41:339|18:292,1,106.666666666667,4|0,0:0|0:0,0:0:0:0:
12,240,20589,1,0,0:0:0:0:
16,188,20717,1,0,0:0:0:0:
40,140,20846,1,0,0:0:0:0:
84,108,20974,1,2,0:0:0:0:
324,104,21358,2,0,P|368:136|424:136,1,106.666666666667,2|0,0:2|0:0,0:0:0:0:
504,104,21743,6,0,P|460:152|460:248,1,160,4|2,0:0|0:0,0:0:0:0:
340,352,22384,2,0,B|280:356|256:300|256:300|232:356|172:352,1,213.333333333333,0|2,0:0|0:0,0:0:0:0:
54,243,23153,1,0,0:0:0:0:
54,243,23281,2,0,B|63:163|63:163|127:115,2,160,4|2|2,0:0|0:2|0:0,0:0:0:0:
212,60,24435,6,0,P|228:112|212:164,1,106.666666666667,2|0,0:2|0:0,0:0:0:0:
213,160,24820,1,4,0:0:0:0:
264,312,25076,1,0,0:0:0:0:
264,312,25205,1,2,0:2:0:0:
408,240,25461,1,0,0:0:0:0:
408,240,25589,1,2,0:0:0:0:
368,84,25846,1,0,0:0:0:0:
368,84,25974,2,0,P|320:52|268:52,1,106.666666666667,2|0,0:2|0:0,0:0:0:0:
184,76,26358,6,0,P|144:112|92:120,1,106.666666666667,4|0,0:0|0:0,0:0:0:0:
24,180,26743,2,0,L|16:304,1,106.666666666667,2|0,0:2|0:0,0:0:0:0:
17,286,27128,1,2,0:0:0:0:
244,360,27512,2,0,P|288:328|340:324,1,106.666666666667,0|0,0:2|0:0,0:0:0:0:
428,344,27897,6,0,B|444:320|476:308|476:308|484:264,1,106.666666666667
484,263,28281,1,0,0:0:0:0:
428,28,28666,2,0,B|403:64|355:82|355:82|342:149,1,160,2|0,0:0|0:0,0:0:0:0:
252,280,29307,1,0,0:0:0:0:
252,280,29435,6,0,L|264:344,2,53.3333333333333,8|8|0,0:0|0:0|0:0,0:0:0:0:
160,264,29820,2,0,L|123:317,2,53.3333333333333,8|8|0,0:0|0:0|0:0,0:0:0:0:
104,192,30205,2,0,L|39:204,2,53.3333333333333,8|8|0,0:0|0:0|0:0,0:0:0:0:
128,104,30589,2,0,L|74:67,2,53.3333333333333,8|8|0,0:0|0:0|0:0,0:0:0:0:
224,144,30974,6,0,P|312:160|412:112,1,200,4|0,1:0|0:0,0:0:0:0:
512,288,31743,2,0,P|424:272|324:320,1,200,8|0,0:1|0:0,0:0:0:0:
140,348,32384,1,0,0:0:0:0:
140,348,32512,2,0,L|88:220,1,133.333333333333,0|0,1:0|0:0,0:0:0:0:
180,204,32897,2,0,L|192:72,1,133.333333333333
192,71,33281,1,8,0:1:0:0:
424,56,33666,2,0,P|436:32|464:4,2,66.6666666666667
396,140,34051,6,0,P|388:240|424:332,1,200,0|0,1:0|0:0,0:0:0:0:
180,360,34820,2,0,P|256:304|332:360,1,200,8|0,0:1|0:0,0:0:0:0:
88,331,35589,2,0,P|124:238|115:140,1,200,0|0,1:0|0:0,0:0:0:0:
388,76,36358,6,0,L|372:8,2,66.6666666666667,8|0|0,0:1|0:0|0:0,0:0:0:0:
400,136,36743,1,8,0:1:0:0:
412,196,36871,1,8,0:1:0:0:
424,256,36999,1,4,0:0:0:0:
436,316,37128,6,0,P|376:360|260:324,2,200,4|0|8,1:0|0:0|0:1,0:0:0:0:
264,244,38153,2,0,P|200:268|180:332,1,133.333333333333,2|0,0:0|0:0,0:0:0:0:
24,224,38666,2,0,L|16:80,1,133.333333333333,0|0,1:0|0:0,0:0:0:0:
104,56,39051,2,0,L|111:189,1,133.333333333333
196,220,39435,1,8,0:1:0:0:
424,56,39820,1,2,0:2:0:0:
452,336,40205,6,0,P|352:300|316:220,1,200,0|0,1:0|0:0,0:0:0:0:
60,336,40974,2,0,P|160:300|196:220,1,200,8|0,0:1|0:0,0:0:0:0:
384,92,41743,6,0,L|392:24,2,66.6666666666667,0|0|0,1:0|0:0|0:0,0:0:0:0:
428,176,42128,2,0,L|484:212,2,66.6666666666667,8|0|8,0:1|0:0|0:1,0:0:0:0:
332,168,42512,1,0,1:0:0:0:
264,116,42640,1,0,0:0:0:0:
180,92,42769,1,0,0:0:0:0:
96,108,42897,1,8,0:1:0:0:
36,172,43025,1,8,0:1:0:0:
16,256,43153,1,4,0:0:0:0:
36,340,43281,6,0,P|116:376|220:340,1,200,4|0,1:0|0:0,0:0:0:0:
276,68,44051,2,0,P|312:128|304:192,1,133.333333333333,8|0,0:1|0:0,0:0:0:0:
288,276,44435,2,0,P|324:336|384:360,1,133.333333333333
472,356,44820,2,0,L|484:156,1,200,0|0,1:0|0:0,0:0:0:0:
212,84,45589,2,0,P|216:48|208:16,2,66.6666666666667,8|0|0,0:1|0:0|0:0,0:0:0:0:
192,140,45974,1,8,0:1:0:0:
148,180,46102,1,0,0:0:0:0:
88,180,46230,1,0,0:0:0:0:
36,152,46358,6,0,P|0:208|56:328,1,200,0|0,1:0|0:0,0:0:0:0:
328,340,47128,2,0,P|352:316|384:304,1,66.6666666666667,8|0,0:1|0:0,0:0:0:0:
440,288,47384,1,8,0:0:0:0:
480,244,47512,1,0,0:0:0:0:
476,184,47640,1,0,0:0:0:0:
338,56,47897,6,0,B|432:96|432:96|476:184,1,200,0|0,1:0|0:0,0:0:0:0:
124,240,48666,2,0,L|120:316,2,66.6666666666667,8|0|0,0:1|0:0|0:0,0:0:0:0:
176,164,49051,2,0,L|180:88,2,66.6666666666667,8|8|4,0:1|0:1|0:0,0:0:0:0:
212,248,49435,6,0,B|204:307|259:325|259:325|315:312|314:253,2,200,4|0|8,1:0|0:0|0:1,0:1:0:0:
276,72,50461,2,0,P|344:60|400:92,1,133.333333333333,0|2,0:0|0:0,0:0:0:0:
492,252,50974,2,0,P|484:320|436:360,1,133.333333333333,0|0,1:0|0:0,0:0:0:0:
352,328,51358,2,0,L|216:316,1,133.333333333333
132,344,51743,1,8,0:1:0:0:
84,68,52128,1,2,0:2:0:0:
219,316,52512,6,0,P|272:256|392:276,1,200,0|0,1:0|0:0,0:0:0:0:
488,8,53281,2,0,P|435:68|315:48,1,200,8|0,0:1|0:0,0:0:0:0:
60,152,54051,6,0,P|48:116|28:88,2,66.6666666666667,0|0|0,1:0|0:0|0:0,0:0:0:0:
68,240,54435,1,8,0:1:0:0:
136,296,54563,1,0,0:0:0:0:
220,280,54692,1,8,0:1:0:0:
276,212,54820,2,0,P|284:184|304:144,2,66.6666666666667,0|0|0,1:0|0:0|0:0,0:0:0:0:
308,292,55205,1,8,0:1:0:0:
388,328,55333,1,8,0:1:0:0:
468,292,55461,1,0,0:0:0:0:
504,212,55589,5,4,0:2:0:0:
112,324,67897,6,0,L|100:164,1,160,4|0,0:0|0:0,0:0:0:0:
320,68,68666,2,0,L|316:8,2,53.3333333333333,8|0|0,0:1|0:0|0:0,0:0:0:0:
324,120,69051,1,0,0:0:0:0:
468,312,69435,6,0,P|420:344|368:340,1,106.666666666667,4|0,0:0|0:0,0:0:0:0:
292,300,69820,2,0,L|184:292,1,106.666666666667,2|0,0:0|0:0,0:0:0:0:
104,328,70205,2,0,P|116:352|144:372,2,53.3333333333333,8|0|0,0:1|0:0|0:0,0:0:0:0:
84,276,70589,1,2,0:0:0:0:
108,116,70846,1,0,0:0:0:0:
108,116,70974,6,0,L|220:104,1,106.666666666667,4|0,0:0|0:0,0:0:0:0:
288,48,71358,2,0,P|308:96|292:152,1,106.666666666667,2|0,0:0|0:0,0:0:0:0:
256,232,71743,2,0,P|276:316|336:352,1,160,8|0,0:1|0:0,0:0:0:0:
496,360,72384,1,0,0:0:0:0:
496,360,72512,6,0,L|500:304,3,53.3333333333333,0|0|0|2,1:0|0:0|0:0|0:0,0:0:0:0:
444,72,73281,1,8,0:1:0:0:
420,120,73410,1,0,0:0:0:0:
372,144,73538,1,0,0:0:0:0:
320,148,73666,2,0,P|264:144|212:168,1,106.666666666667,2|0,0:2|0:0,0:0:0:0:
176,244,74051,6,0,P|128:176|148:104,1,160,4|0,0:0|0:0,0:0:0:0:
288,32,74692,2,0,L|504:28,1,213.333333333333,2|2,0:0|0:2,0:0:0:0:
336,140,75461,1,0,0:0:0:0:
336,140,75589,2,0,P|384:208|364:280,1,160,4|0,0:0|0:0,0:0:0:0:
224,352,76230,2,0,L|8:356,1,213.333333333333,2|2,0:0|0:2,0:0:0:0:
64,72,77128,5,4,0:0:0:0:
176,284,77512,1,0,0:0:0:0:
256,56,77897,1,8,0:1:0:0:
336,284,78281,1,0,0:0:0:0:
448,72,78666,6,0,L|472:240,1,160,0|2,1:0|0:2,0:0:0:0:
192,352,80205,6,0,P|96:332|56:244,1,200,4|2,1:0|0:2,0:0:0:0:
284,84,80974,2,0,L|280:16,2,66.6666666666667,8|0|0,0:1|0:0|0:0,0:0:0:0:
332,160,81358,1,2,0:2:0:0:
448,304,81615,1,0,0:0:0:0:
448,304,81743,6,0,P|380:304|328:348,1,133.333333333333,0|0,1:0|0:0,0:0:0:0:
240,364,82128,2,0,P|172:372|108:332,1,133.333333333333,2|0,0:2|0:0,0:0:0:0:
80,296,82512,1,8,0:1:0:0:
60,240,82640,1,0,0:0:0:0:
60,180,82769,1,0,0:0:0:0:
80,124,82897,1,2,0:2:0:0:
248,40,83153,1,0,0:0:0:0:
248,40,83281,6,0,L|448:56,1,200,0|2,1:0|0:2,0:0:0:0:
496,332,84051,2,0,L|296:316,1,200,8|2,0:1|0:2,0:0:0:0:
104,112,84820,1,0,1:0:0:0:
20,380,85205,1,2,0:2:0:0:
224,192,85589,1,8,0:1:0:0:
268,152,85717,1,0,0:0:0:0:
324,132,85846,1,0,0:0:0:0:
384,132,85974,2,0,P|420:140|448:164,2,66.6666666666667,8|8|4,0:1|0:1|0:3,0:0:0:0:
384,212,86358,6,0,P|256:339|128:212,1,400,4|8,1:0|0:1,0:0:0:0:
168,28,87384,2,0,P|208:24|240:36,1,66.6666666666667,0|0,0:0|0:2,0:0:0:0:
304,92,87640,2,0,P|335:100|368:95,1,66.6666666666667,2|0,0:0|0:0,0:0:0:0:
456,60,87897,2,0,L|472:200,1,133.333333333333,0|0,1:0|0:0,0:0:0:0:
484,284,88281,2,0,P|424:272|384:212,1,133.333333333333,2|0,0:2|0:0,0:0:0:0:
296,180,88666,1,8,0:1:0:0:
20,224,89051,1,2,0:2:0:0:
296,272,89435,6,0,B|196:276|196:276|120:352,1,200,0|0,1:0|0:0,0:0:0:0:
216,112,90205,2,0,B|316:108|316:108|392:32,1,200,8|0,0:1|0:0,0:0:0:0:
484,300,90974,6,0,L|520:368,2,66.6666666666667,0|0|0,1:0|0:0|0:0,0:0:0:0:
404,256,91358,2,0,L|396:188,2,66.6666666666667,8|0|8,0:1|0:0|0:1,0:0:0:0:
348,324,91743,1,0,1:0:0:0:
264,344,91871,1,0,0:0:0:0:
196,288,91999,1,0,0:0:0:0:
124,336,92128,1,8,0:1:0:0:
68,272,92256,1,8,0:1:0:0:
76,188,92384,1,4,0:0:0:0:
152,144,92512,6,0,B|202:122|249:145|249:145|299:127|347:154,1,200,4|2,1:0|0:2,0:0:0:0:
488,372,93281,2,0,P|432:332|368:328,1,133.333333333333,8|0,0:1|0:0,0:0:0:0:
280,352,93666,2,0,L|148:336,1,133.333333333333,2|0,0:2|0:0,0:0:0:0:
60,324,94051,1,0,1:0:0:0:
128,52,94435,1,2,0:2:0:0:
147,335,94820,2,0,L|171:271,1,66.6666666666667,8|0,0:1|0:0,0:0:0:0:
200,220,95076,1,0,0:0:0:0:
240,176,95205,2,0,P|296:140|364:132,1,133.333333333333,2|0,0:2|0:0,0:0:0:0:
448,100,95589,6,0,P|448:164|400:216,1,133.333333333333,0|0,1:0|0:0,0:0:0:0:
332,272,95974,2,0,P|272:272|208:320,1,133.333333333333,2|0,0:2|0:0,0:0:0:0:
164,348,96358,1,8,0:1:0:0:
104,352,96487,1,0,0:0:0:0:
60,312,96615,1,8,0:0:0:0:
60,252,96743,1,0,0:0:0:0:
100,208,96871,1,0,0:0:0:0:
134,45,97128,6,0,P|163:136|99:207,1,200,0|2,1:0|0:2,0:0:0:0:
420,272,97897,2,0,P|452:296|484:304,2,66.6666666666667,8|0|0,0:1|0:0|0:0,0:0:0:0:
384,224,98281,1,8,0:1:0:0:
328,200,98410,1,8,0:1:0:0:
268,208,98538,1,4,0:0:0:0:
228,252,98666,6,0,B|205:294|152:300|141:283|130:266|77:272|55:314,2,200,4|0|8,1:0|0:2|0:1,0:0:0:0:
176,68,99692,2,0,L|124:16,1,66.6666666666667
196,152,99948,2,0,L|164:216,1,66.6666666666667,2|0,0:0|0:0,0:0:0:0:
264,92,100205,2,0,P|328:72|388:96,1,133.333333333333,0|0,1:0|0:0,0:0:0:0:
456,160,100589,2,0,B|484:220|432:228|456:288,1,133.333333333333,2|0,0:2|0:0,0:0:0:0:
504,368,100974,2,0,P|432:380|376:336,1,133.333333333333,8|0,0:1|0:0,0:0:0:0:
328,276,101358,1,2,0:2:0:0:
56,344,101743,6,0,L|40:144,1,200,0|0,1:0|0:0,0:0:0:0:
312,76,102512,2,0,L|328:276,1,200,8|0,0:1|0:0,0:0:0:0:
40,144,103281,5,0,1:0:0:0:
84,68,103410,1,0,0:0:0:0:
164,32,103538,1,0,0:0:0:0:
248,48,103666,2,0,L|256:124,2,66.6666666666667,8|0|8,0:1|0:0|0:1,0:0:0:0:
328,12,104051,1,0,1:0:0:0:
412,32,104179,1,0,0:0:0:0:
464,104,104307,1,0,0:0:0:0:
452,188,104435,1,8,0:1:0:0:
400,256,104563,2,0,P|392:296|396:332,1,66.6666666666667,8|0,0:1|0:0,0:0:0:0:
316,368,104820,6,0,P|248:368|184:264,2,200,4|2|8,1:2|0:0|0:1,0:0:0:0:
464,252,105846,2,0,P|476:180|444:128,1,133.333333333333,0|2,0:0|0:0,0:0:0:0:
276,52,106358,2,0,B|176:36|176:36|96:96,1,200,0|2,1:0|0:0,0:0:0:0:
60,140,106871,1,0,0:0:0:0:
48,200,106999,1,0,0:0:0:0:
56,260,107128,2,0,B|87:308|72:356|72:356|121:342|169:373,1,200,8|2,0:1|0:0,0:0:0:0:
448,376,107897,6,0,L|432:236,1,133.333333333333,0|0,1:0|0:0,0:0:0:0:
340,184,108281,2,0,L|355:316,1,133.333333333333,2|0,0:0|0:0,0:0:0:0:
432,243,108666,2,0,L|416:103,1,133.333333333333,8|0,0:1|0:0,0:0:0:0:
324,51,109051,2,0,L|339:183,1,133.333333333333,2|0,0:0|0:0,0:0:0:0:
236,216,109435,2,0,B|212:192|212:192|172:188|172:188|136:144|60:140,1,200,0|2,1:0|0:0,0:0:0:0:
252,344,110205,1,8,0:1:0:0:
436,316,110461,2,0,L|475:371,1,66.6666666666667
472,132,110846,1,0,0:0:0:0:
472,132,110910,1,0,0:0:0:0:
472,132,110974,6,0,P|404:64|300:80,2,200,4|2|8,1:0|0:0|0:1,0:0:0:0:
324,244,111999,2,0,P|280:232|260:208,1,66.6666666666667,0|2,0:0|0:0,0:0:0:0:
208,148,112256,2,0,P|192:124|160:100,1,66.6666666666667
84,56,112512,2,0,B|56:116|96:164|96:164|84:252,1,200,0|2,1:0|0:0,0:0:0:0:
96,308,113025,1,0,0:0:0:0:
140,348,113153,1,0,0:0:0:0:
200,356,113281,2,0,P|280:344|324:244,1,200,8|2,0:1|0:0,0:0:0:0:
492,20,114051,6,0,P|432:56|364:52,1,133.333333333333,0|0,1:0|0:0,0:0:0:0:
284,32,114435,2,0,L|148:48,1,133.333333333333,2|0,0:0|0:0,0:0:0:0:
120,136,114820,2,0,L|252:120,1,133.333333333333,8|0,0:1|0:0,0:0:0:0:
344,132,115205,2,0,P|312:192|244:212,1,133.333333333333,2|0,0:0|0:0,0:0:0:0:
164,232,115589,2,0,B|138:251|147:292|147:292|178:320|208:308,1,133.333333333333,0|0,1:0|0:0,0:0:0:0:
300,328,115974,6,0,L|336:384,2,66.6666666666667,8|0|8,0:1|0:0|0:1,0:0:0:0:
356,256,116358,2,0,L|424:268,2,66.6666666666667,0|0|0,1:0|0:0|0:0,0:0:0:0:
336,164,116743,2,0,L|400:140,2,66.6666666666667,8|0|0,0:1|0:0|0:0,0:0:0:0:
276,172,117128,5,0,1:0:0:0:
216,156,117256,1,0,0:0:0:0:
184,108,117384,1,0,0:0:0:0:
144,64,117512,1,2,0:0:0:0:
88,44,117640,1,0,0:0:0:0:
32,60,117769,1,0,0:0:0:0:
0,112,117897,1,8,0:1:0:0:
8,172,118025,1,0,0:0:0:0:
56,208,118153,1,0,0:0:0:0:
116,212,118281,2,0,P|148:196|168:168,2,66.6666666666667,2|0|0,0:0|0:0|0:0,0:0:0:0:
80,260,118666,5,0,1:0:0:0:
80,320,118794,1,0,0:0:0:0:
120,364,118922,1,0,0:0:0:0:
180,368,119051,1,2,0:0:0:0:
228,332,119179,1,0,0:0:0:0:
284,312,119307,1,0,0:0:0:0:
344,320,119435,1,8,0:1:0:0:
400,344,119563,1,0,0:0:0:0:
456,328,119692,1,0,0:0:0:0:
484,276,119820,6,0,L|492:136,1,133.333333333333,2|0,0:2|0:0,0:0:0:0:
432,76,120205,2,0,P|376:36|312:44,1,133.333333333333,4|0,1:0|0:0,0:0:0:0:
240,96,120589,1,2,0:0:0:0:
56,116,120846,1,0,0:0:0:0:
56,116,120974,2,0,P|72:184|56:252,1,133.333333333333,8|0,0:1|0:0,0:0:0:0:
0,308,121358,6,0,P|64:288|128:308,1,133.333333333333,2|0,0:0|0:0,0:0:0:0:
208,348,121743,2,0,L|344:324,2,133.333333333333,0|2|0,1:0|0:0|0:0,0:0:0:0:
256,168,122512,2,0,B|288:143|288:143|263:78|312:27|312:27|373:63|367:132|367:132|405:147,1,333.333333333333,8|2,0:1|0:0,0:0:0:0:
472,212,123281,6,0,P|480:244|500:272,2,66.6666666666667,4|0|0,0:0|0:0|0:0,0:0:0:0:
380,236,123666,2,0,P|379:268|391:301,2,66.6666666666667,2|0|0,0:0|0:0|0:0,0:0:0:0:
288,232,124051,1,4,0:0:0:0:
232,248,124179,1,0,0:0:0:0:
196,296,124307,1,0,0:0:0:0:
144,324,124435,1,2,0:0:0:0:
88,304,124563,1,0,0:0:0:0:
56,252,124692,1,0,0:0:0:0:
60,192,124820,6,0,L|48:120,2,66.6666666666667,4|0|0,0:0|0:0|0:0,0:0:0:0:
148,164,125205,2,0,L|136:92,2,66.6666666666667,2|0|0,0:0|0:0|0:0,0:0:0:0:
236,136,125589,1,4,0:0:0:0:
292,116,125717,1,0,0:0:0:0:
344,88,125846,1,0,0:0:0:0:
384,44,125974,1,2,0:0:0:0:
404,100,126102,1,0,0:0:0:0:
448,140,126230,1,0,0:0:0:0:
496,176,126358,6,0,L|504:248,2,66.6666666666667,4|0|0,0:0|0:0|0:0,0:0:0:0:
408,208,126743,2,0,P|348:240|320:296,1,133.333333333333,2|0,0:0|0:0,0:0:0:0:
232,320,127128,2,0,L|216:384,2,66.6666666666667,4|0|0,0:0|0:0|0:0,0:0:0:0:
164,260,127512,2,0,P|161:194|121:142,1,133.333333333333,2|0,0:0|0:0,0:0:0:0:
60,76,127897,5,4,0:0:0:0:
108,40,128025,1,0,0:0:0:0:
168,32,128153,1,0,0:0:0:0:
224,52,128281,1,4,0:0:0:0:
256,104,128410,1,0,0:0:0:0:
252,164,128538,1,0,0:0:0:0:
264,224,128666,5,4,0:0:0:0:
308,264,128794,1,8,0:0:0:0:
368,268,128922,1,0,0:0:0:0:
424,244,129051,1,4,0:0:0:0:
444,188,129179,1,8,0:0:0:0:
436,128,129307,1,0,0:0:0:0:
396,84,129435,5,4,0:0:0:0:
396,84,134051,5,4,0:0:0:0:
396,84,134435,1,4,0:0:0:0:
396,84,134820,2,0,L|404:200,1,106.666666666667,4|0,0:0|0:0,0:0:0:0:
312,184,135205,2,0,L|320:300,1,106.666666666667,4|0,0:0|0:0,0:0:0:0:
248,352,135589,6,0,P|108:344|108:128,1,400,4|8,1:0|0:1,0:0:0:0:
280,60,136615,2,0,L|352:68,1,66.6666666666667
400,144,136871,2,0,L|328:152,1,66.6666666666667,2|0,0:0|0:0,0:0:0:0:
256,204,137128,2,0,P|296:236|380:232,1,133.333333333333,0|0,1:0|0:0,0:0:0:0:
468,248,137512,2,0,P|440:304|376:328,1,133.333333333333,2|0,0:0|0:0,0:0:0:0:
288,352,137897,1,8,0:1:0:0:
12,316,138281,1,2,0:2:0:0:
184,96,138666,6,0,P|116:40|8:68,1,200,0|0,1:0|0:0,0:0:0:0:
328,96,139435,2,0,P|396:40|504:68,1,200,8|0,0:1|0:0,0:0:0:0:
476,344,140205,5,0,1:0:0:0:
392,360,140333,1,0,0:0:0:0:
324,308,140461,1,0,0:0:0:0:
324,220,140589,2,0,L|368:160,2,66.6666666666667,8|0|8,0:1|0:0|0:1,0:0:0:0:
248,264,140974,5,0,1:0:0:0:
171,307,141102,1,0,0:0:0:0:
94,264,141230,1,0,0:0:0:0:
94,178,141358,1,8,0:1:0:0:
168,135,141487,1,8,0:1:0:0:
244,176,141615,1,4,0:0:0:0:
324,220,141743,6,0,L|512:308,2,200,4|2|8,1:0|0:0|0:1,0:0:0:0:
112,36,142897,2,0,P|84:96|92:168,1,133.333333333333,2|0,0:0|0:0,0:0:0:0:
12,212,143281,2,0,B|31:266|83:249|103:303,1,133.333333333333,0|0,1:0|0:0,0:0:0:0:
144,380,143666,1,2,0:0:0:0:
424,368,144051,1,8,0:1:0:0:
464,324,144179,1,0,0:0:0:0:
476,264,144307,1,0,0:0:0:0:
468,204,144435,2,0,P|440:136|396:88,1,133.333333333333,2|0,0:0|0:0,0:0:0:0:
304,68,144820,6,0,B|175:58|175:58|188:107|160:156|111:169|111:169|184:275,1,400,0|8,1:0|0:1,0:0:0:0:
224,320,145717,1,0,0:0:0:0:
280,340,145846,1,8,0:0:0:0:
336,320,145974,1,0,0:0:0:0:
368,272,146102,1,0,0:0:0:0:
423,93,146358,6,0,P|365:173|368:272,1,200,0|2,1:0|0:0,0:0:0:0:
144,72,147128,2,0,L|132:4,2,66.6666666666667,8|0|0,0:1|0:0|0:0,0:0:0:0:
168,128,147512,1,8,0:1:0:0:
152,184,147640,1,8,0:1:0:0:
188,232,147769,1,4,0:0:0:0:
180,292,147897,6,0,P|268:336|328:268,2,200,4|0|8,1:0|0:0|0:1,0:0:0:0:
280,136,148922,1,2,0:2:0:0:
468,156,149179,1,2,0:0:0:0:
312,56,149435,2,0,P|244:56|196:104,1,133.333333333333,0|0,1:0|0:0,0:0:0:0:
180,188,149820,2,0,P|184:256|140:304,1,133.333333333333,2|0,0:0|0:0,0:0:0:0:
100,224,150205,1,8,0:1:0:0:
412,224,150589,1,2,0:2:0:0:
120,164,150974,6,0,B|120:64|120:64|200:0,1,200,0|0,1:0|0:0,0:0:0:0:
392,164,151743,2,0,B|392:64|392:64|312:0,1,200,8|0,0:1|0:0,0:0:0:0:
196,256,152512,2,0,P|256:280|316:256,2,133.333333333333,0|0|0,1:0|0:0|0:0,0:0:0:0:
256,80,153281,1,8,0:1:0:0:
316,88,153410,1,0,0:0:0:0:
376,96,153538,1,0,0:0:0:0:
392,156,153666,1,8,0:1:0:0:
452,164,153794,1,8,0:1:0:0:
512,172,153922,1,0,0:0:0:0:
512,232,154051,6,0,P|500:304|380:340,1,200,4|0,2:0|0:0,0:0:0:0:
0,232,154820,2,0,P|12:304|132:340,1,200,4|0,0:0|0:0,0:0:0:0:
160,76,155589,2,0,L|148:8,2,66.6666666666667,4|0|0,0:0|0:0|0:0,0:0:0:0:
236,132,155974,2,0,L|247:197,2,66.6666666666667
304,72,156358,2,0,L|292:4,2,66.6666666666667,4|0|0,0:0|0:0|0:0,0:0:0:0:
380,128,156743,2,0,L|391:193,2,66.6666666666667
456,76,157128,6,0,L|492:276,1,200,4|0,2:0|0:0,0:0:0:0:
224,356,157897,1,8,0:1:0:0:
164,348,158025,1,0,0:0:0:0:
116,316,158153,1,0,0:0:0:0:
100,260,158281,2,0,P|96:192|136:136,1,133.333333333333,2|0,0:0|0:0,0:0:0:0:
224,148,158666,2,0,P|292:160|344:124,1,133.333333333333,4|0,0:0|0:0,0:0:0:0:
428,88,159051,2,0,P|436:48|436:8,2,66.6666666666667,2|0|0,0:0|0:0|0:0,0:0:0:0:
416,176,159435,2,0,P|400:240|436:304,1,133.333333333333,8|0,0:1|0:0,0:0:0:0:
360,360,159820,2,0,P|328:368|292:360,1,66.6666666666667,2|0,0:0|0:0,0:0:0:0:
228,308,160076,1,0,0:0:0:0:
200,224,160205,5,6,0:1:0:0:
190,37,160461,1,2,0:1:0:0:
355,121,160717,1,2,0:0:0:0:
176,232,160974,5,6,0:1:0:0:
166,45,161230,1,2,0:1:0:0:
331,129,161487,1,2,0:0:0:0:
152,240,161743,5,6,0:1:0:0:
142,53,161999,1,2,0:1:0:0:
307,137,162256,1,2,0:0:0:0:
128,248,162512,5,6,0:1:0:0:
116,60,162769,1,2,0:1:0:0:
196,32,162897,1,0,0:0:0:0:
279,57,163025,1,8,0:1:0:0:
332,124,163153,1,8,0:1:0:0:
332,212,163281,5,6,0:1:0:0:
