osu file format v14

[General]
AudioFilename: audio.mp3
AudioLeadIn: 0
PreviewTime: 80148
Countdown: 0
SampleSet: Normal
StackLeniency: 0.7
Mode: 0
LetterboxInBreaks: 0
WidescreenStoryboard: 0

[Editor]
DistanceSpacing: 0.5
BeatDivisor: 6
GridSize: 4
TimelineZoom: 2.799999

[Metadata]
Title:Warriors
TitleUnicode:Warriors
Artist:Imagine Dragons
ArtistUnicode:Imagine Dragons
Creator:Raikozen
Version:1000lp challenger
Source:
Tags:
BeatmapID:929999
BeatmapSetID:431135

[Difficulty]
HPDrainRate:5
CircleSize:4
OverallDifficulty:9
ApproachRate:10
SliderMultiplier:2.2
SliderTickRate:1

[Events]
//Background and Video events
0,0,"irrelevant fate zero background image.jpg",0,0
//Break Periods
2,129643,133609
//Storyboard Layer 0 (Background)
//Storyboard Layer 1 (Fail)
//Storyboard Layer 2 (Pass)
//Storyboard Layer 3 (Foreground)
//Storyboard Sound Samples

[TimingPoints]
213,384.615384615385,4,1,1,80,1,0
30922,-71.4285714285714,4,1,1,80,0,0
35597,-71.4285714285714,4,1,1,50,0,0
35982,-71.4285714285714,4,1,1,60,0,0
36366,-71.4285714285714,4,1,1,70,0,0
36751,-71.4285714285714,4,1,1,90,0,0
37136,-62.5,4,1,1,90,0,1
40212,-90.9090909090909,4,1,1,80,0,0
41366,-111.111111111111,4,1,1,80,0,0
41751,-133.333333333333,4,1,1,70,0,0
42136,-181.818181818181,4,1,1,60,0,0
42520,-181.818181818181,4,1,1,70,0,0
43289,-68.9655172413792,4,1,1,80,0,0
47905,-68.9655172413792,4,1,1,50,0,0
48289,-68.9655172413792,4,1,1,60,0,0
48674,-68.9655172413792,4,1,1,70,0,0
49059,-68.9655172413792,4,1,1,80,0,0
49443,-57.1428571428571,4,1,1,90,0,1
52520,-64.5161290322581,4,1,1,80,0,0
53289,-80,4,1,1,80,0,0
54059,-100,4,1,1,70,0,0
54443,-117.647058823529,4,1,1,60,0,0
54828,-133.333333333333,4,1,1,50,0,0
55597,-133.333333333333,4,2,1,50,0,0
61751,-100,4,2,1,50,0,0
64443,-125,4,2,1,50,0,0
64828,-142.857142857143,4,2,1,50,0,0
67905,-100,4,2,1,50,0,0
73289,-90.9090909090909,4,2,1,50,0,0
77520,-100,4,2,1,50,0,0
77905,-111.111111111111,4,2,1,50,0,0
78289,-125,4,2,1,50,0,0
78674,-142.857142857143,4,2,1,50,0,0
79059,-166.666666666667,4,2,1,50,0,0
79443,-400,4,2,1,50,0,0
80213,-68.9655172413793,4,1,1,80,0,0
86366,-57.1428571428571,4,1,1,90,0,1
89443,-64.5161290322581,4,1,1,80,0,0
90982,-100,4,1,1,80,0,0
92520,-71.4285714285714,4,1,1,80,0,0
98674,-55.5555555555556,4,1,1,90,0,1
100982,-62.5,4,1,1,90,0,1
101366,-71.4285714285714,4,1,1,90,0,1
101751,-100,4,1,1,90,0,0
102136,-111.111111111111,4,1,1,90,0,0
102520,-133.333333333333,4,1,1,90,0,0
105597,-100,4,1,1,90,0,0
110982,-83.3333333333333,4,1,1,90,0,0
122905,-71.4285714285714,4,1,1,90,0,0
135597,-50,4,1,1,90,0,1
138674,-62.5,4,1,1,90,0,0
147905,-50,4,1,1,90,0,1
150982,-66.6666666666667,4,1,1,90,0,0
152136,-83.3333333333333,4,1,1,90,0,0
152520,-133.333333333333,4,1,1,90,0,0
154059,-100,4,1,1,90,0,0
157136,-55.5555555555556,4,1,1,90,0,1
165213,-55.5555555555556,4,1,1,5,0,0

[HitObjects]
44,216,30982,6,0,B|82:211|116:226|116:226|163:202|163:202|196:244|272:233,1,205.333327067058,4|0,0:0|0:0,0:0:0:0:
456,152,31367,1,0,0:0:0:0:
228,152,31495,1,0,0:0:0:0:
384,296,31624,1,0,0:0:0:0:
340,48,31752,6,0,B|312:160|312:160|312:264,1,205.333327067058,8|0,0:0|0:0,0:0:0:0:
452,176,32136,1,0,0:0:0:0:
232,56,32265,1,0,0:0:0:0:
312,272,32393,1,0,0:0:0:0:
448,64,32521,6,0,B|388:48|388:48|336:64|336:64|240:36,1,205.333327067058
44,240,32906,2,0,P|140:228|184:168,1,102.666663533529
232,36,33162,1,0,0:0:0:0:
88,156,33290,5,8,0:0:0:0:
328,284,33419,1,0,0:0:0:0:
200,44,33547,1,0,0:0:0:0:
128,332,33675,2,0,L|232:336,1,102.666663533529,8|0,0:0|0:0,0:0:0:0:
436,276,33931,1,0,0:0:0:0:
384,4,34060,6,0,B|400:80|400:80|380:256,1,205.333327067058
253,322,34444,2,0,B|98:365|98:365|150:304,1,205.333327067058
328,152,34829,5,8,0:0:0:0:
264,352,34957,1,0,0:0:0:0:
152,168,35085,1,0,0:0:0:0:
240,336,35213,6,0,L|252:100,1,205.333327067058,8|0,0:0|0:0,0:0:0:0:
328,284,35597,6,0,B|388:272|388:272|432:228,1,102.666663533529,2|0,0:0|0:0,0:0:0:0:
360,108,35854,1,0,0:0:0:0:
176,220,35982,5,2,0:0:0:0:
432,240,36110,1,0,0:0:0:0:
300,76,36238,1,0,0:0:0:0:
344,320,36366,5,10,0:0:0:0:
288,32,36495,1,0,0:0:0:0:
128,232,36623,1,0,0:0:0:0:
464,140,36751,5,10,0:0:0:0:
120,0,36879,1,0,0:0:0:0:
232,384,37007,1,0,0:0:0:0:
492,36,37136,6,0,B|419:26|419:26|228:52,1,234.666666666667,4|0,0:0|0:0,0:0:0:0:
8,256,37520,2,0,B|80:280|80:280|280:248,1,234.666666666667
504,56,37905,6,0,P|436:4|356:12,1,117.333333333333,10|0,0:0|0:0,0:0:0:0:
232,384,38161,2,0,P|332:360|368:324,1,117.333333333333,2|0,0:0|0:0,0:0:0:0:
44,16,38418,2,0,P|24:84|28:152,1,117.333333333333,2|0,0:0|0:0,0:0:0:0:
180,372,38674,6,0,B|208:296|208:296|200:100,1,234.666666666667
64,0,39059,1,0,0:0:0:0:
124,284,39187,1,0,0:0:0:0:
228,12,39315,1,0,0:0:0:0:
320,356,39443,6,0,B|328:317|316:281|316:281|342:242|342:242|312:194|321:118,1,234.666666666667,8|0,0:0|0:0,0:0:0:0:
448,64,39828,2,0,P|432:148|372:184,1,117.333333333333
184,256,40084,1,0,0:0:0:0:
236,24,40213,6,0,L|240:204,1,161.333338256836,2|0,0:0|0:0,0:0:0:0:
336,360,40597,6,0,B|364:296|364:296|360:168,1,161.333338256836
204,48,40982,6,0,L|388:60,1,161.333338256836,8|0,0:0|0:0,0:0:0:0:
356,24,41366,6,0,L|208:32,1,131.99999597168
56,104,41751,6,0,L|180:112,1,110.000004196167
252,140,42136,6,0,L|164:144,1,80.6666691284181
60,200,42520,5,2,0:0:0:0:
120,316,42648,1,0,0:0:0:0:
256,344,42777,1,0,0:0:0:0:
372,232,42905,5,2,0:0:0:0:
148,16,43033,1,0,0:0:0:0:
108,344,43161,1,0,0:0:0:0:
272,100,43289,6,0,B|200:80|200:80|156:104|156:104|32:72,1,212.666673156739,4|0,0:0|0:0,0:0:0:0:
148,16,43674,1,0,0:0:0:0:
372,232,43802,1,0,0:0:0:0:
272,12,43930,1,0,0:0:0:0:
160,304,44059,6,0,P|92:316|0:208,1,212.666673156739,8|0,0:0|0:0,0:0:0:0:
148,16,44443,2,0,P|164:88|136:152,1,106.333336578369
68,72,44700,1,0,0:0:0:0:
272,12,44828,6,0,L|492:36,1,212.666673156739
224,328,45213,2,0,B|188:264|188:264|208:84,1,212.666673156739
264,0,45597,5,8,0:0:0:0:
280,232,45725,1,0,0:0:0:0:
104,148,45854,1,0,0:0:0:0:
384,120,45982,5,8,0:0:0:0:
196,228,46110,1,0,0:0:0:0:
248,12,46238,1,0,0:0:0:0:
232,340,46366,6,0,B|164:332|164:332|120:356|120:356|8:344,1,212.666673156739
288,224,46751,2,0,P|344:260|480:172,1,212.666673156739
216,36,47136,6,0,P|176:80|164:152,1,106.333336578369,10|0,0:0|0:0,0:0:0:0:
512,48,47392,2,0,P|464:8|388:8,1,106.333336578369,2|0,0:0|0:0,0:0:0:0:
308,328,47648,2,0,P|392:344|444:312,1,106.333336578369,2|0,0:0|0:0,0:0:0:0:
476,216,47905,5,2,0:0:0:0:
304,144,48033,1,0,0:0:0:0:
320,328,48161,1,0,0:0:0:0:
440,136,48289,5,2,0:0:0:0:
132,104,48418,1,0,0:0:0:0:
264,356,48546,1,0,0:0:0:0:
200,16,48674,5,10,0:0:0:0:
216,376,48802,1,0,0:0:0:0:
440,96,48930,1,0,0:0:0:0:
32,224,49059,5,10,0:0:0:0:
480,176,49187,1,0,0:0:0:0:
112,0,49315,1,0,0:0:0:0:
132,376,49443,6,0,B|164:312|164:312|156:88,1,256.666669114431,4|0,0:0|0:0,0:0:0:0:
12,204,49828,1,0,0:0:0:0:
496,168,49956,1,0,0:0:0:0:
196,0,50084,1,0,0:0:0:0:
244,384,50213,6,0,P|270:327|270:263,1,128.333334557215,10|0,0:0|0:0,0:0:0:0:
12,36,50469,2,0,P|61:78|123:92,1,128.333334557215,2|0,0:0|0:0,0:0:0:0:
464,16,50725,2,0,P|403:4|347:33,1,128.333334557215,2|0,0:0|0:0,0:0:0:0:
424,356,50982,6,0,L|416:92,1,256.666669114431
196,24,51366,1,0,0:0:0:0:
512,236,51495,1,0,0:0:0:0:
332,12,51623,1,0,0:0:0:0:
72,264,51751,6,0,B|112:256|148:272|148:272|200:248|200:248|256:276|336:232,1,256.666669114431,8|0,0:0|0:0,0:0:0:0:
456,44,52136,1,0,0:0:0:0:
124,92,52264,1,0,0:0:0:0:
340,368,52392,1,0,0:0:0:0:
344,84,52520,6,0,B|272:104|272:104|216:84|216:84|112:116,1,227.333335067749
236,200,52905,1,0,0:0:0:0:
276,16,53033,1,0,0:0:0:0:
236,200,53161,1,0,0:0:0:0:
276,16,53289,6,0,B|336:28|336:28|380:12|380:12|472:32,1,183.333333333333,8|0,0:0|0:0,0:0:0:0:
392,272,53674,2,0,B|372:172|372:172|396:72,1,183.333333333333
464,56,54059,6,0,B|396:96|396:96|312:76,1,146.666666666667,2|0,0:0|0:0,0:0:0:0:
120,52,54443,6,0,B|184:35|184:35|260:56,1,124.666669044495,2|0,0:0|0:0,0:0:0:0:
322,173,54828,6,0,B|264:188|264:188|216:176,1,110.000004196167,2|0,0:0|0:0,0:0:0:0:
132,104,55213,5,2,0:0:0:0:
128,84,55341,1,0,0:0:0:0:
124,68,55469,1,0,0:0:0:0:
120,52,55597,6,0,P|128:128|112:172,1,110.000004196167
64,216,55982,2,0,P|116:188|188:188,1,110.000004196167
308,272,56366,6,0,L|140:264,1,165.000006294251
332,248,57007,1,0,0:0:0:0:
332,248,57136,6,0,B|372:244|392:256|392:256|416:236|448:228,1,110.000004196167
376,168,57520,1,0,0:0:0:0:
308,244,57648,1,0,0:0:0:0:
364,336,57777,1,0,0:0:0:0:
448,312,57905,6,0,L|312:320,1,110.000004196167
212,336,58289,2,0,L|336:340,1,110.000004196167
456,340,58674,6,0,B|476:284|476:284|472:156,1,165.000006294251
304,32,59443,2,0,P|312:72|280:148,1,110.000004196167
196,232,59828,2,0,P|252:224|316:256,1,110.000004196167
408,332,60213,6,0,L|228:316,1,165.000006294251
243,317,60982,5,0,0:0:0:0:
292,232,61110,1,0,0:0:0:0:
280,136,61238,1,0,0:0:0:0:
188,100,61366,5,0,0:0:0:0:
192,136,61495,1,0,0:0:0:0:
200,172,61623,1,0,0:0:0:0:
279,221,61751,6,0,B|332:224|348:188|348:188|392:172|440:184,1,146.666666666667,2|0,0:0|0:0,0:0:0:0:
476,268,62136,1,2,0:0:0:0:
412,324,62264,2,0,P|396:284|404:232,1,73.3333333333333
483,121,62520,6,0,L|474:294,1,146.666666666667,2|0,0:0|0:0,0:0:0:0:
324,332,62905,2,0,P|336:284|368:240,1,73.3333333333333,2|0,0:0|0:0,0:0:0:0:
408,204,63161,1,0,0:0:0:0:
408,204,63225,1,0,0:0:0:0:
408,204,63289,6,0,P|344:228|240:196,1,146.666666666667,2|0,0:0|0:0,0:0:0:0:
180,148,63674,1,2,0:0:0:0:
208,352,63802,2,0,L|220:272,1,73.3333333333333
261,68,64059,6,0,L|269:240,1,146.666666666667,2|0,0:0|0:0,0:0:0:0:
304,308,64443,2,0,L|316:168,1,117.333333333333,2|0,0:0|0:0,0:0:0:0:
352,100,64828,6,0,L|360:256,1,153.999995300293,2|0,0:0|0:0,0:0:0:0:
416,348,65341,1,0,0:0:0:0:
464,260,65469,2,0,P|476:216|472:192,1,51.3333317667644
336,72,65725,2,0,L|348:292,1,205.333327067058
424,360,66366,5,0,0:0:0:0:
428,336,66494,1,0,0:0:0:0:
432,308,66623,1,0,0:0:0:0:
436,280,66751,6,0,L|432:220,2,51.3333317667644
348,184,67136,6,0,L|360:124,2,51.3333317667644
488,40,67520,5,0,0:0:0:0:
408,112,67648,1,0,0:0:0:0:
288,116,67777,1,0,0:0:0:0:
180,16,67905,6,0,P|204:64|184:164,1,146.666666666667,6|0,0:0|0:0,0:0:0:0:
88,236,68289,2,0,L|184:228,1,73.3333333333333
284,216,68546,1,0,0:0:0:0:
72,256,68674,6,0,L|236:240,1,146.666666666667,2|0,0:0|0:0,0:0:0:0:
364,216,69059,1,0,0:0:0:0:
268,200,69187,1,0,0:0:0:0:
296,296,69315,1,0,0:0:0:0:
376,200,69443,6,0,B|384:144|384:144|408:116|408:116|420:40,1,146.666666666667,2|0,0:0|0:0,0:0:0:0:
500,16,69828,1,0,0:0:0:0:
456,180,69956,1,0,0:0:0:0:
456,180,70084,1,0,0:0:0:0:
272,36,70213,6,0,L|424:44,1,146.666666666667
256,72,70597,1,0,0:0:0:0:
348,80,70725,1,0,0:0:0:0:
436,84,70854,1,0,0:0:0:0:
236,104,70982,6,0,B|176:92|176:92|140:108|140:108|60:92,1,146.666666666667
40,28,71366,2,0,P|60:84|24:172,1,146.666666666667
0,244,71751,5,0,0:0:0:0:
44,328,71879,1,0,0:0:0:0:
132,344,72007,1,0,0:0:0:0:
220,304,72136,2,0,P|232:260|224:220,1,73.3333333333333
168,160,72392,1,0,0:0:0:0:
136,252,72520,6,0,L|308:240,1,146.666666666667
392,200,72905,2,0,L|220:212,1,146.666666666667
176,172,73289,6,0,P|236:180|264:164,1,80.6666691284181
324,92,73546,1,0,0:0:0:0:
368,208,73674,2,0,P|336:248|336:296,1,80.6666691284181
416,284,73930,1,0,0:0:0:0:
456,200,74059,6,0,L|448:28,1,161.333338256836
316,96,74443,1,0,0:0:0:0:
372,220,74571,1,0,0:0:0:0:
368,24,74700,1,0,0:0:0:0:
292,184,74828,6,0,P|284:224|376:304,1,161.333338256836
460,352,75213,2,0,P|412:332|364:340,1,80.6666691284181
284,372,75469,1,0,0:0:0:0:
200,240,75597,6,0,L|392:248,1,161.333338256836
492,192,75982,1,0,0:0:0:0:
416,144,76110,1,0,0:0:0:0:
416,228,76238,1,0,0:0:0:0:
492,108,76366,6,0,P|448:68|340:108,1,161.333338256836
256,224,76751,2,0,P|208:256|104:208,1,161.333338256836
64,116,77136,6,0,L|68:296,1,161.333338256836
100,368,77520,6,0,L|112:204,1,146.666666666667
160,116,77905,6,0,L|164:264,1,131.99999597168
204,352,78289,6,0,L|212:220,1,117.333333333333
160,116,78674,6,0,L|272:112,1,102.666663533529
348,88,79059,6,0,L|260:80,1,87.9999973144532
64,28,79443,6,0,L|160:20,1,91.6666666666667,2|0,0:0|0:0,0:0:0:0:
296,8,80213,6,0,B|280:88|280:88|288:144|288:144|260:252,1,212.666673156739,4|0,0:0|0:0,0:0:0:0:
112,348,80597,1,0,0:0:0:0:
204,136,80725,1,0,0:0:0:0:
220,368,80854,1,0,0:0:0:0:
112,144,80982,6,0,P|144:76|284:80,1,212.666673156739,8|0,0:0|0:0,0:0:0:0:
440,228,81366,1,0,0:0:0:0:
204,136,81494,1,0,0:0:0:0:
408,0,81623,1,0,0:0:0:0:
272,324,81751,5,0,0:0:0:0:
296,0,81879,1,0,0:0:0:0:
512,236,82007,1,0,0:0:0:0:
236,216,82136,6,0,B|180:232|152:208|152:208|108:224|108:224|80:200|12:208,1,212.666673156739
104,36,82520,2,0,L|112:156,1,106.333336578369,8|0,0:0|0:0,0:0:0:0:
132,368,82777,1,0,0:0:0:0:
212,92,82905,5,8,0:0:0:0:
8,204,83033,1,0,0:0:0:0:
220,304,83161,1,0,0:0:0:0:
144,16,83289,5,0,0:0:0:0:
48,284,83418,1,0,0:0:0:0:
336,216,83546,1,0,0:0:0:0:
144,0,83674,6,0,B|143:90|143:90|155:109|155:109|136:137|136:137|132:227,1,212.666673156739
244,360,84059,5,8,0:0:0:0:
220,56,84187,1,0,0:0:0:0:
32,176,84315,1,0,0:0:0:0:
320,224,84443,5,0,0:0:0:0:
144,4,84571,1,0,0:0:0:0:
188,240,84700,1,0,0:0:0:0:
332,28,84828,6,0,P|264:28|212:60,1,106.333336578369,2|0,0:0|0:0,0:0:0:0:
92,224,85084,1,0,0:0:0:0:
296,116,85213,5,2,0:0:0:0:
128,4,85341,1,0,0:0:0:0:
184,276,85469,1,0,0:0:0:0:
344,12,85597,5,10,0:0:0:0:
20,184,85725,1,0,0:0:0:0:
348,256,85854,1,0,0:0:0:0:
116,0,85982,5,10,0:0:0:0:
216,384,86110,1,0,0:0:0:0:
512,84,86238,1,0,0:0:0:0:
12,176,86366,6,0,B|100:172|100:172|140:152|140:152|184:168|184:168|308:160,1,256.666669114431,4|0,0:0|0:0,0:0:0:0:
472,24,86751,1,0,0:0:0:0:
72,88,86879,1,0,0:0:0:0:
344,328,87007,1,0,0:0:0:0:
236,8,87136,6,0,P|136:16|88:68,1,128.333334557215,10|0,0:0|0:0,0:0:0:0:
368,348,87392,2,0,P|404:284|396:200,1,128.333334557215,2|0,0:0|0:0,0:0:0:0:
28,300,87648,2,0,P|76:356|152:372,1,128.333334557215,2|0,0:0|0:0,0:0:0:0:
480,308,87905,6,0,B|380:320|380:320|336:296|336:296|216:308,1,256.666669114431
12,272,88289,1,0,0:0:0:0:
400,184,88418,1,0,0:0:0:0:
108,0,88546,1,0,0:0:0:0:
148,332,88674,6,0,B|152:276|176:248|176:248|168:204|168:204|196:180|196:180|224:60,1,256.666669114431,8|0,0:0|0:0,0:0:0:0:
88,0,89059,1,0,0:0:0:0:
240,352,89187,1,0,0:0:0:0:
228,0,89315,1,0,0:0:0:0:
28,256,89443,6,0,B|116:248|116:248|164:280|164:280|284:272,1,227.333335067749,2|0,0:0|0:0,0:0:0:0:
380,84,89828,2,0,P|256:108|204:204,1,227.333335067749
396,316,90213,5,10,0:0:0:0:
264,4,90341,1,0,0:0:0:0:
280,244,90469,1,0,0:0:0:0:
500,112,90597,6,0,B|444:88|444:88|372:92,1,113.666667533875
200,168,90854,1,0,0:0:0:0:
280,352,90982,6,0,L|296:248,1,73.3333333333333,2|0,0:0|0:0,0:0:0:0:
312,112,91238,1,0,0:0:0:0:
388,304,91366,6,0,L|404:200,1,73.3333333333333,2|0,0:0|0:0,0:0:0:0:
420,64,91622,1,0,0:0:0:0:
488,264,91751,5,2,0:0:0:0:
296,96,91879,1,0,0:0:0:0:
384,328,92007,1,0,0:0:0:0:
424,16,92136,5,2,0:0:0:0:
212,232,92264,1,0,0:0:0:0:
488,284,92392,1,0,0:0:0:0:
240,0,92520,6,0,B|244:68|244:68|232:108|232:108|240:244,1,205.333327067058,4|0,0:0|0:0,0:0:0:0:
403,144,92905,1,0,0:0:0:0:
145,43,93033,1,0,0:0:0:0:
209,355,93161,1,0,0:0:0:0:
488,260,93289,6,0,B|478:184|478:184|491:152|491:152|478:40,1,205.333327067058,8|0,0:0|0:0,0:0:0:0:
164,52,93674,2,0,P|120:108|120:168,1,102.666663533529
220,360,93930,1,0,0:0:0:0:
392,224,94059,6,0,L|144:232,1,205.333327067058
24,360,94443,5,0,0:0:0:0:
208,208,94571,1,0,0:0:0:0:
80,8,94700,1,0,0:0:0:0:
144,332,94828,5,8,0:0:0:0:
168,328,94892,1,0,0:0:0:0:
196,324,94956,1,0,0:0:0:0:
132,80,95084,1,0,0:0:0:0:
20,300,95213,5,8,0:0:0:0:
312,184,95341,1,0,0:0:0:0:
64,4,95469,1,0,0:0:0:0:
128,356,95597,6,0,L|244:336,2,102.666663533529
40,212,95982,6,0,L|172:232,2,102.666663533529
248,72,96366,6,0,P|164:108|116:88,1,102.666663533529,8|0,0:0|0:0,0:0:0:0:
176,0,96623,1,0,0:0:0:0:
304,136,96751,6,0,L|288:260,1,102.666663533529
268,364,97007,1,0,0:0:0:0:
268,364,97136,5,2,0:0:0:0:
388,212,97264,1,0,0:0:0:0:
200,184,97392,1,0,0:0:0:0:
380,348,97520,5,2,0:0:0:0:
288,116,97648,1,0,0:0:0:0:
172,312,97777,1,0,0:0:0:0:
508,188,97905,5,10,0:0:0:0:
216,8,98033,1,0,0:0:0:0:
232,384,98161,1,0,0:0:0:0:
512,162,98289,5,10,0:0:0:0:
0,181,98418,1,0,0:0:0:0:
512,162,98546,1,0,0:0:0:0:
72,48,98674,6,0,B|80:92|60:120|60:120|85:179|85:179|44:232|56:312,1,263.99999194336,4|0,0:0|0:0,0:0:0:0:
452,332,99059,5,0,0:0:0:0:
152,0,99187,1,0,0:0:0:0:
36,384,99315,1,0,0:0:0:0:
388,280,99443,6,0,P|436:220|448:124,1,131.99999597168,10|0,0:0|0:0,0:0:0:0:
28,16,99700,2,0,P|8:88|40:168,1,131.99999597168,2|0,0:0|0:0,0:0:0:0:
264,376,99956,2,0,L|288:220,1,131.99999597168,2|0,0:0|0:0,0:0:0:0:
152,8,100213,5,2,0:0:0:0:
108,384,100341,1,0,0:0:0:0:
464,148,100469,1,0,0:0:0:0:
20,200,100597,5,2,0:0:0:0:
344,348,100725,1,0,0:0:0:0:
228,48,100854,1,0,0:0:0:0:
140,276,100982,6,0,B|232:272|232:272|272:236|272:236|360:233,1,234.666666666667,8|0,0:0|0:0,0:0:0:0:
484,60,101366,2,0,P|400:88|372:136,1,102.666663533529
332,328,101623,1,0,0:0:0:0:
256,16,101751,6,0,L|244:196,1,146.666666666667,2|0,0:0|0:0,0:0:0:0:
88,364,102136,2,0,L|196:268,1,131.99999597168
396,344,102520,2,0,L|300:268,1,110.000004196167,8|0,0:0|0:0,0:0:0:0:
192,176,102905,5,0,0:0:0:0:
240,348,103033,1,0,0:0:0:0:
240,348,103161,1,0,0:0:0:0:
380,216,103289,6,0,P|396:176|392:144,1,55.0000020980836
340,48,103546,1,0,0:0:0:0:
292,224,103674,6,0,P|312:272|324:284,1,55.0000020980836
472,336,103930,1,0,0:0:0:0:
336,52,104059,5,2,0:0:0:0:
396,292,104187,1,0,0:0:0:0:
508,112,104315,1,0,0:0:0:0:
280,136,104443,5,2,0:0:0:0:
444,228,104571,1,0,0:0:0:0:
324,36,104700,1,0,0:0:0:0:
228,228,104828,6,0,L|232:352,1,110.000004196167,2|0,0:0|0:0,0:0:0:0:
92,364,105213,2,0,L|108:292,1,55.0000020980836,2|0,0:0|0:0,0:0:0:0:
148,140,105469,1,0,0:0:0:0:
224,312,105597,6,0,P|264:296|296:256,1,73.3333333333333,2|0,0:0|0:0,0:0:0:0:
344,112,105854,2,0,P|328:160|332:204,1,73.3333333333333,2|0,0:0|0:0,0:0:0:0:
456,304,106110,2,0,P|412:272|364:264,1,73.3333333333333,2|0,0:0|0:0,0:0:0:0:
220,224,106366,5,2,0:0:0:0:
180,212,106430,1,0,0:0:0:0:
140,216,106495,1,0,0:0:0:0:
104,236,106559,1,0,0:0:0:0:
76,268,106623,1,0,0:0:0:0:
60,304,106687,1,0,0:0:0:0:
104,340,106751,6,0,L|100:240,1,73.3333333333333,2|0,0:0|0:0,0:0:0:0:
88,136,107007,1,0,0:0:0:0:
196,44,107136,6,0,L|184:204,1,146.666666666667,2|0,0:0|0:0,0:0:0:0:
304,360,107520,2,0,L|300:204,1,146.666666666667,2|0,0:0|0:0,0:0:0:0:
440,32,107905,6,0,B|392:76|304:64|304:64|236:20|236:20|172:20|112:88,1,366.666666666667
48,184,108674,2,0,P|48:264|60:288,1,73.3333333333333
124,356,108930,1,0,0:0:0:0:
200,251,109059,2,0,P|210:216|212:180,1,73.3333333333333
188,32,109315,1,0,0:0:0:0:
124,212,109443,5,0,0:0:0:0:
308,172,109571,1,0,0:0:0:0:
184,16,109700,1,0,0:0:0:0:
124,212,109828,2,0,L|132:380,1,146.666666666667
248,360,110213,5,0,0:0:0:0:
432,296,110341,1,0,0:0:0:0:
444,256,110405,1,0,0:0:0:0:
440,216,110469,1,0,0:0:0:0:
336,56,110597,2,0,L|344:152,1,73.3333333333333
360,244,110854,1,0,0:0:0:0:
488,144,110982,6,0,B|408:108|384:188|284:132,1,175.999994628906,2|0,0:0|0:0,0:0:0:0:
160,192,111366,2,0,P|252:220|264:244,1,87.9999973144532
324,336,111623,1,0,0:0:0:0:
96,348,111751,6,0,P|144:320|160:268,1,87.9999973144532,2|0,0:0|0:0,0:0:0:0:
184,36,112007,2,0,L|192:128,1,87.9999973144532,2|0,0:0|0:0,0:0:0:0:
208,56,112264,2,0,L|220:168,1,87.9999973144532,2|0,0:0|0:0,0:0:0:0:
244,300,112520,5,2,0:0:0:0:
288,320,112584,1,0,0:0:0:0:
336,320,112648,1,0,0:0:0:0:
384,304,112713,1,0,0:0:0:0:
424,276,112777,1,0,0:0:0:0:
444,232,112841,1,0,0:0:0:0:
448,184,112905,2,0,P|428:128|388:96,1,87.9999973144532,2|0,0:0|0:0,0:0:0:0:
288,48,113161,1,0,0:0:0:0:
184,176,113289,6,0,L|368:184,1,175.999994628906,2|0,0:0|0:0,0:0:0:0:
472,120,113674,1,0,0:0:0:0:
276,28,113802,1,0,0:0:0:0:
308,264,113930,1,0,0:0:0:0:
504,112,114059,6,0,L|256:8,1,263.99999194336,2|0,0:0|0:0,0:0:0:0:
152,64,114571,1,0,0:0:0:0:
136,180,114700,1,0,0:0:0:0:
224,260,114828,6,0,P|274:264|325:236,1,87.9999973144532
360,96,115084,2,0,P|328:36|280:12,1,87.9999973144532
144,72,115341,2,0,P|120:116|124:168,1,87.9999973144532
176,336,115597,5,2,0:0:0:0:
204,132,115725,1,0,0:0:0:0:
204,132,115854,1,0,0:0:0:0:
76,252,115982,5,2,0:0:0:0:
308,220,116110,1,0,0:0:0:0:
144,56,116238,1,0,0:0:0:0:
156,340,116366,6,0,B|276:396|300:296|416:352,1,263.99999194336,2|0,0:0|0:0,0:0:0:0:
480,272,116879,1,0,0:0:0:0:
480,272,117007,1,0,0:0:0:0:
380,116,117136,6,0,L|372:208,1,87.9999973144532,2|0,0:0|0:0,0:0:0:0:
356,336,117392,1,0,0:0:0:0:
288,28,117520,6,0,L|272:128,1,87.9999973144532,2|0,0:0|0:0,0:0:0:0:
236,344,117777,1,0,0:0:0:0:
176,68,117905,5,2,0:0:0:0:
132,292,118033,1,0,0:0:0:0:
0,136,118161,1,0,0:0:0:0:
224,204,118289,5,2,0:0:0:0:
28,248,118418,1,0,0:0:0:0:
68,36,118546,1,0,0:0:0:0:
124,312,118674,6,0,L|140:220,1,87.9999973144532,2|0,0:0|0:0,0:0:0:0:
172,16,118930,1,0,0:0:0:0:
248,376,119059,6,0,L|264:268,1,87.9999973144532,2|0,0:0|0:0,0:0:0:0:
304,0,119315,1,0,0:0:0:0:
432,324,119443,5,2,0:0:0:0:
104,236,119571,1,0,0:0:0:0:
384,8,119700,1,0,0:0:0:0:
336,348,119828,6,0,P|300:344|240:288,1,87.9999973144532,2|0,0:0|0:0,0:0:0:0:
184,164,120084,1,0,0:0:0:0:
356,4,120213,6,2,L|360:192,2,175.999994628906
80,300,120982,2,2,B|164:288|164:288|216:316|216:316|368:296,1,263.99999194336,2|0,0:0|0:0,0:0:0:0:
456,272,121495,1,0,0:0:0:0:
456,272,121623,1,0,0:0:0:0:
292,48,121751,6,0,P|232:72|208:116,1,87.9999973144532,2|0,0:0|0:0,0:0:0:0:
464,156,122007,2,0,P|432:96|384:72,1,87.9999973144532,2|0,0:0|0:0,0:0:0:0:
256,260,122264,2,0,P|296:280|360:264,1,87.9999973144532,2|0,0:0|0:0,0:0:0:0:
316,164,122520,6,0,B|248:144|248:144|200:164|200:164|120:148,1,175.999994628906,2|0,0:0|0:0,0:0:0:0:
40,280,122905,2,0,B|108:300|108:300|260:268,1,205.333327067058
408,216,123289,6,0,L|432:160,5,51.3333317667644
344,72,123674,2,0,L|356:148,5,51.3333317667644
312,216,124059,5,0,0:0:0:0:
292,246,124123,1,0,0:0:0:0:
263,268,124187,1,0,0:0:0:0:
229,280,124251,1,0,0:0:0:0:
193,280,124315,1,0,0:0:0:0:
158,271,124379,1,0,0:0:0:0:
127,251,124443,1,0,0:0:0:0:
105,222,124507,1,0,0:0:0:0:
91,188,124571,1,0,0:0:0:0:
85,152,124636,1,0,0:0:0:0:
88,116,124700,1,0,0:0:0:0:
101,82,124764,1,0,0:0:0:0:
128,58,124828,6,0,L|187:33,5,51.3333317667644
246,100,125213,2,0,L|302:106,5,51.3333317667644
418,50,125597,5,0,0:0:0:0:
429,84,125661,1,0,0:0:0:0:
433,119,125725,1,0,0:0:0:0:
423,153,125789,1,0,0:0:0:0:
401,182,125854,1,0,0:0:0:0:
371,201,125918,1,0,0:0:0:0:
337,212,125982,1,0,0:0:0:0:
371,222,126046,1,0,0:0:0:0:
399,243,126110,1,0,0:0:0:0:
422,270,126174,1,0,0:0:0:0:
436,302,126238,1,0,0:0:0:0:
441,337,126302,1,0,0:0:0:0:
440,372,126366,6,0,L|461:319,5,51.3333317667644
500,210,126751,1,0,0:0:0:0:
479,168,126815,1,0,0:0:0:0:
445,136,126879,1,0,0:0:0:0:
403,115,126943,1,0,0:0:0:0:
357,106,127007,1,0,0:0:0:0:
310,107,127071,1,0,0:0:0:0:
268,128,127136,6,0,L|243:196,1,51.3333317667644
163,269,127264,2,0,L|161:191,1,51.3333317667644
134,75,127392,2,0,L|118:139,1,51.3333317667644
27,235,127520,2,0,L|17:178,5,51.3333317667644
52,46,127905,5,0,0:0:0:0:
82,80,127969,1,0,0:0:0:0:
125,95,128033,1,0,0:0:0:0:
171,93,128097,1,0,0:0:0:0:
212,73,128161,1,0,0:0:0:0:
248,44,128225,1,0,0:0:0:0:
276,7,128289,2,0,L|283:99,5,51.3333317667644
347,110,128674,5,0,0:0:0:0:
344,128,128738,1,0,0:0:0:0:
342,147,128802,1,0,0:0:0:0:
340,165,128866,1,0,0:0:0:0:
338,184,128930,1,0,0:0:0:0:
335,203,128995,1,0,0:0:0:0:
333,221,129059,1,0,0:0:0:0:
331,240,129123,1,0,0:0:0:0:
329,259,129187,1,0,0:0:0:0:
326,277,129251,1,0,0:0:0:0:
325,296,129315,1,0,0:0:0:0:
322,315,129379,1,0,0:0:0:0:
320,333,129443,5,0,0:0:0:0:
227,243,134059,5,0,0:0:0:0:
308,182,134187,1,0,0:0:0:0:
222,147,134315,1,0,0:0:0:0:
250,271,134443,5,0,0:0:0:0:
274,76,134571,1,0,0:0:0:0:
121,198,134700,1,0,0:0:0:0:
368,272,134828,5,0,0:0:0:0:
147,18,134956,1,0,0:0:0:0:
95,364,135084,1,0,0:0:0:0:
500,16,135213,5,0,0:0:0:0:
8,108,135341,1,0,0:0:0:0:
512,224,135469,1,0,0:0:0:0:
28,303,135597,6,0,B|100:279|100:279|149:305|149:305|228:260|345:302,1,293.333333333333,4|0,0:0|0:0,0:0:0:0:
489,366,135982,5,0,0:0:0:0:
90,368,136110,1,0,0:0:0:0:
317,13,136238,1,0,0:0:0:0:
242,384,136366,6,0,B|229:304|229:304|240:221,1,146.666666666667,8|0,0:0|0:0,0:0:0:0:
509,0,136623,2,0,B|442:50|442:50|369:65,1,146.666666666667,2|0,0:0|0:0,0:0:0:0:
30,0,136879,2,0,B|105:2|105:2|177:53,1,146.666666666667,2|0,0:0|0:0,0:0:0:0:
364,336,137136,6,0,B|398:261|398:261|376:204|376:204|418:142|390:37,1,293.333333333333,2|0,0:0|0:0,0:0:0:0:
72,40,137520,5,2,0:0:0:0:
272,384,137648,1,0,0:0:0:0:
280,0,137777,1,0,0:0:0:0:
40,360,137905,6,0,B|120:336|120:336|180:368|180:368|328:328,1,293.333333333333,8|0,0:0|0:0,0:0:0:0:
264,8,138289,2,0,P|224:104|248:196,1,146.666666666667
404,376,138546,1,0,0:0:0:0:
460,16,138674,6,0,B|450:112|450:112|483:174|483:174|479:291,1,234.666666666667,2|0,0:0|0:0,0:0:0:0:
284,304,139059,1,0,0:0:0:0:
376,172,139187,1,0,0:0:0:0:
400,368,139315,1,0,0:0:0:0:
256,168,139443,6,0,P|288:92|452:60,1,234.666666666667,10|0,0:0|0:0,0:0:0:0:
488,280,139828,2,0,B|420:296|420:296|368:276|368:276|260:304,1,234.666666666667
32,344,140213,5,0,0:0:0:0:
52,316,140341,5,0,0:0:0:0:
68,288,140469,5,0,0:0:0:0:
84,264,140597,6,0,B|76:184|76:184|96:132|96:132|80:-8,1,234.666666666667
8,120,140982,5,0,0:0:0:0:
240,272,141110,1,0,0:0:0:0:
160,28,141238,1,0,0:0:0:0:
128,368,141366,5,0,0:0:0:0:
396,72,141495,1,0,0:0:0:0:
52,0,141623,1,0,0:0:0:0:
252,308,141751,6,0,B|332:296|332:296|388:328|388:328|524:308,1,234.666666666667,4|0,0:0|0:0,0:0:0:0:
232,44,142136,5,0,0:0:0:0:
312,384,142264,1,0,0:0:0:0:
512,108,142392,1,0,0:0:0:0:
56,96,142520,6,2,P|12:148|4:244,1,117.333333333333,10|2,0:0|0:0,0:0:0:0:
196,372,142777,2,0,P|216:292|196:204,1,117.333333333333,2|0,0:0|0:0,0:0:0:0:
308,0,143034,2,0,P|292:80|304:156,1,117.333333333333,2|0,0:0|0:0,0:0:0:0:
380,372,143289,5,0,0:0:0:0:
392,32,143418,1,0,0:0:0:0:
312,328,143546,1,0,0:0:0:0:
500,244,143674,5,0,0:0:0:0:
172,4,143802,1,0,0:0:0:0:
112,368,143930,1,0,0:0:0:0:
440,172,144059,6,0,B|380:120|380:120|184:88,1,234.666666666667,8|0,0:0|0:0,0:0:0:0:
224,376,144443,1,0,0:0:0:0:
372,0,144571,1,0,0:0:0:0:
24,84,144700,1,0,0:0:0:0:
284,296,144828,6,0,B|360:280|360:280|404:292|404:292|520:264,1,234.666666666667
160,0,145213,5,0,0:0:0:0:
172,360,145341,1,0,0:0:0:0:
492,184,145469,1,0,0:0:0:0:
88,116,145597,5,8,0:0:0:0:
384,368,145725,1,0,0:0:0:0:
268,32,145854,1,0,0:0:0:0:
176,344,145982,5,0,0:0:0:0:
408,168,146110,1,0,0:0:0:0:
172,56,146238,1,0,0:0:0:0:
296,256,146366,5,2,0:0:0:0:
260,144,146495,1,0,0:0:0:0:
188,232,146623,1,0,0:0:0:0:
424,144,146751,5,2,0:0:0:0:
168,36,146879,1,0,0:0:0:0:
224,352,147007,1,0,0:0:0:0:
156,0,147136,5,10,0:0:0:0:
8,360,147264,1,0,0:0:0:0:
484,264,147392,1,0,0:0:0:0:
0,284,147520,5,10,0:0:0:0:
364,376,147648,1,0,0:0:0:0:
324,0,147777,1,0,0:0:0:0:
80,372,147905,6,0,B|160:356|160:356|240:384|240:384|392:352,1,293.333333333333,4|0,0:0|0:0,0:0:0:0:
500,192,148289,1,0,0:0:0:0:
8,8,148418,1,0,0:0:0:0:
340,376,148546,1,0,0:0:0:0:
504,28,148674,6,0,P|424:-8|340:20,1,146.666666666667,10|0,0:0|0:0,0:0:0:0:
308,384,148930,2,0,P|396:344|440:284,1,146.666666666667,2|0,0:0|0:0,0:0:0:0:
96,0,149187,2,0,P|64:72|84:188,1,146.666666666667,2|0,0:0|0:0,0:0:0:0:
228,376,149443,6,0,B|224:288|224:288|244:236|244:236|232:76,1,293.333333333333
40,368,149828,1,0,0:0:0:0:
508,208,149956,1,0,0:0:0:0:
4,184,150084,1,0,0:0:0:0:
476,32,150213,6,0,B|404:52|404:52|324:32|324:32|152:68,1,293.333333333333,8|0,0:0|0:0,0:0:0:0:
28,352,150597,1,0,0:0:0:0:
512,316,150725,1,0,0:0:0:0:
132,4,150854,1,0,0:0:0:0:
140,376,150982,6,0,P|216:352|256:304,1,110.000004196167
328,132,151238,1,0,0:0:0:0:
320,368,151366,1,0,0:0:0:0:
412,96,151495,2,0,P|356:44|308:40,1,110.000004196167
136,248,151751,6,0,L|384:232,1,220.000008392334,8|0,0:0|0:0,0:0:0:0:
464,184,152136,6,0,L|272:196,1,175.999994628906
24,164,152520,6,0,L|36:108,2,55.0000020980836
192,260,152905,2,0,L|200:316,2,55.0000020980836
168,96,153289,5,0,0:0:0:0:
100,300,153418,1,0,0:0:0:0:
324,248,153546,1,0,0:0:0:0:
88,168,153674,5,0,0:0:0:0:
212,368,153802,1,0,0:0:0:0:
208,60,153930,1,0,0:0:0:0:
88,296,154059,6,0,B|131:287|131:287|159:297|159:297|193:273|252:291,1,146.666666666667
456,288,154443,6,0,P|376:256|296:272,1,146.666666666667
184,208,154828,6,0,P|256:184|304:100,1,146.666666666667
404,16,155213,6,0,L|392:184,1,146.666666666667
360,364,155597,5,2,0:0:0:0:
384,280,155725,1,0,0:0:0:0:
484,364,155854,1,0,0:0:0:0:
276,328,155982,5,2,0:0:0:0:
336,136,156110,1,0,0:0:0:0:
488,272,156238,1,0,0:0:0:0:
184,264,156366,5,10,0:0:0:0:
472,36,156495,1,0,0:0:0:0:
300,368,156623,1,0,0:0:0:0:
180,0,156751,5,10,0:0:0:0:
496,292,156879,1,0,0:0:0:0:
16,280,157007,1,8,0:0:0:0:
288,8,157136,6,0,B|312:64|312:64|304:300,1,263.99999194336,4|0,0:0|0:0,0:0:0:0:
84,368,157520,2,0,P|48:304|120:128,1,263.99999194336
456,40,157905,5,8,0:0:0:0:
156,284,158033,1,0,0:0:0:0:
228,0,158161,1,0,0:0:0:0:
456,320,158289,5,0,0:0:0:0:
64,252,158418,1,0,0:0:0:0:
368,0,158546,1,0,0:0:0:0:
356,364,158674,6,0,B|280:372|280:372|220:348|220:348|164:388|76:348,1,263.99999194336
160,144,159059,2,0,L|152:288,1,131.99999597168
176,124,159315,1,0,0:0:0:0:
168,296,159443,5,8,0:0:0:0:
396,168,159571,1,0,0:0:0:0:
88,24,159700,1,0,0:0:0:0:
364,376,159828,5,0,0:0:0:0:
308,0,159956,1,0,0:0:0:0:
16,232,160084,1,0,0:0:0:0:
28,284,160148,1,0,0:0:0:0:
40,336,160213,6,0,B|84:272|84:272|72:160,1,131.99999597168
40,36,160469,1,0,0:0:0:0:
184,268,160597,6,0,B|256:276|256:276|324:240,1,131.99999597168
172,20,160854,1,0,0:0:0:0:
188,364,160982,5,8,0:0:0:0:
500,112,161110,1,0,0:0:0:0:
68,120,161238,1,0,0:0:0:0:
352,384,161366,5,0,0:0:0:0:
252,12,161495,1,0,0:0:0:0:
8,256,161623,1,0,0:0:0:0:
428,288,161751,5,10,0:0:0:0:
360,196,161879,1,0,0:0:0:0:
328,296,162007,1,0,0:0:0:0:
432,264,162136,5,10,0:0:0:0:
332,196,162264,1,0,0:0:0:0:
332,320,162392,1,0,0:0:0:0:
452,248,162520,5,10,0:0:0:0:
216,52,162649,1,0,0:0:0:0:
232,360,162777,1,0,0:0:0:0:
496,16,162905,5,10,0:0:0:0:
12,116,163033,1,10,0:0:0:0:
512,300,163161,1,10,0:0:0:0:
8,376,163290,5,6,0:0:0:0:
256,192,163354,12,0,165213,0:0:0:0:
