osu file format v14

[General]
AudioFilename: audio.mp3
AudioLeadIn: 0
PreviewTime: 80310
Countdown: 0
SampleSet: Soft
StackLeniency: 0.7
Mode: 2
LetterboxInBreaks: 0
WidescreenStoryboard: 0

[Editor]
DistanceSpacing: 0.5
BeatDivisor: 3
GridSize: 16
TimelineZoom: 1.8

[Metadata]
Title:Warriors
TitleUnicode:Warriors
Artist:Imagine Dragons
ArtistUnicode:Imagine Dragons
Creator:Minato Yukina
Version:Silver
Source:League of Legends
Tags:2014 World Championship Worlds Daniel Coulter Reynolds Wayne Sermon James Platzman Benjamin Arthur McKee Rock English Smoke + Mirrors Interscope KIDinaKORNER Riot Games male vocals lol Video Game
BeatmapID:1744758
BeatmapSetID:832873

[Difficulty]
HPDrainRate:4
CircleSize:3.3
OverallDifficulty:6.7
ApproachRate:6.7
SliderMultiplier:1.28
SliderTickRate:1

[Events]
//Background and Video events
0,0,"ssw.jpg",0,0
//Break Periods
2,105100,114724
2,131751,133186
//Storyboard Layer 0 (Background)
//Storyboard Layer 1 (Fail)
//Storyboard Layer 2 (Pass)
//Storyboard Layer 3 (Foreground)
//Storyboard Layer 4 (Overlay)
//Storyboard Sound Samples

[TimingPoints]
285,384.615384615385,4,2,1,10,1,0
18746,-100,4,1,1,20,0,0
30285,-100,4,1,1,25,0,0
30669,-100,4,1,1,30,0,0
31054,-100,4,1,1,60,0,1
31182,-100,4,1,1,40,0,1
43361,-100,4,1,1,60,0,1
43490,-100,4,1,1,40,0,1
55669,-100,4,2,1,40,0,0
56054,-100,4,2,1,15,0,0
67977,-100,4,1,1,20,0,0
80285,-100,4,1,1,60,0,1
80541,-100,4,1,1,40,0,1
92592,-100,4,1,1,60,0,1
92720,-100,4,1,1,40,0,1
104900,-100,4,1,1,60,0,0
105028,-100,4,1,1,40,0,0
129515,-100,4,1,1,20,0,0
134900,-100,4,1,1,30,0,0
135285,-100,4,1,1,35,0,0
135669,-100,4,1,1,60,0,1
135797,-100,4,1,1,40,0,1
141823,-100,4,1,1,60,0,1
141951,-100,4,1,1,40,0,1
154131,-100,4,1,1,60,0,0
154259,-100,4,1,1,30,0,0
157208,-100,4,1,1,60,0,1
157336,-100,4,1,1,40,0,1
163361,-100,4,1,1,60,0,0
163490,-100,4,1,1,40,0,0
164131,-100,4,2,0,20,0,0
164900,-100,4,2,0,5,0,0

[Colours]
Combo1 : 71,35,35
Combo2 : 160,80,80
Combo3 : 255,153,104
Combo4 : 204,102,0

[HitObjects]
257,247,6438,6,0,P|163:247|72:107,1,256,4|0,0:3|0:0,0:0:0:0:
202,120,7592,1,0,0:0:0:0:
71,126,7977,2,0,P|133:232|256:246,1,256,0|0,0:0|0:0,0:0:0:0:
122,247,9131,1,0,0:0:0:0:
255,247,9515,6,0,P|349:247|440:107,1,256,0|0,0:0|0:0,0:0:0:0:
310,120,10669,1,0,0:0:0:0:
441,126,11054,2,0,P|378:232|255:246,1,256,0|0,0:0|0:0,0:0:0:0:
390,247,12208,1,0,0:0:0:0:
255,154,12592,6,0,P|145:158|81:284,1,256,0|0,0:0|0:0,0:0:0:0:
209,276,13746,1,0,0:0:0:0:
59,198,14131,2,0,L|318:199,1,256,0|0,0:0|0:0,0:0:0:0:
176,153,15285,1,0,0:0:0:0:
315,207,15669,6,0,P|376:173|368:100,1,128,0|0,0:0|0:0,0:0:0:0:
246,126,16438,2,0,P|185:92|193:19,1,128,0|0,0:0|0:0,0:0:0:0:
316,47,17208,2,0,P|394:69|345:218,1,256,0|0,0:0|0:0,0:0:0:0:
236,206,18361,1,0,0:0:0:0:
432,271,18746,6,0,L|163:271,1,256,4|0,0:3|0:0,0:0:0:0:
309,189,19900,1,0,0:0:0:0:
110,145,20285,2,0,L|379:145,1,256,4|0,0:0|0:0,0:0:0:0:
233,63,21438,1,0,0:0:0:0:
80,271,21823,6,0,L|349:271,1,256,4|0,0:0|0:0,0:0:0:0:
203,189,22977,1,0,0:0:0:0:
402,145,23361,2,0,L|133:145,1,256,4|0,0:0|0:0,0:0:0:0:
279,63,24515,1,0,0:0:0:0:
461,70,24900,6,0,P|486:130|471:214,1,128,4|0,0:0|0:0,0:0:0:0:
334,232,25669,2,0,L|476:234,1,128,0|0,0:0|0:0,0:0:0:0:
271,159,26438,2,0,P|246:219|261:303,1,128,4|0,0:0|0:0,0:0:0:0:
398,321,27208,2,0,L|256:323,1,128,0|0,0:0|0:0,0:0:0:0:
75,237,27977,6,0,L|202:235,1,128,4|0,0:0|0:0,0:0:0:0:
56,194,28746,2,0,P|51:130|75:72,1,128,0|0,0:0|0:0,0:0:0:0:
275,134,29515,2,0,L|4:133,1,256,4|8,0:0|0:0,0:0:0:0:
138,180,30669,1,8,0:0:0:0:
402,216,31054,6,0,P|449:198|415:122,1,128,4|8,0:3|0:0,0:0:0:0:
234,90,31823,2,0,L|379:90,1,128,8|8,0:0|0:0,0:0:0:0:
249,145,32464,6,0,L|244:212,1,42.6666666666667,8|8,0:0|0:0,0:0:0:0:
385,232,32977,1,8,0:0:0:0:
179,274,33361,2,0,L|322:272,1,128,8|8,0:0|0:0,0:0:0:0:
111,252,34131,6,0,P|62:218|93:154,1,128,8|8,0:0|0:0,0:0:0:0:
278,102,34900,2,0,L|136:102,1,128,8|8,0:0|0:0,0:0:0:0:
267,154,35541,6,0,L|271:210,1,42.6666666666667,0|8,0:0|0:0,0:0:0:0:
132,218,36054,1,8,0:0:0:0:
336,216,36438,2,0,P|372:190|345:116,1,128,8|8,0:0|0:0,0:0:0:0:
92,83,37208,6,0,P|41:114|80:167,1,128,8|8,0:0|0:0,0:0:0:0:
264,162,37977,2,0,P|315:193|276:246,1,128,8|8,0:0|0:0,0:0:0:0:
178,255,38618,6,0,L|94:253,1,42.6666666666667,8|8,0:0|0:0,0:0:0:0:
266,210,39131,1,8,0:0:0:0:
62,208,39515,2,0,P|56:153|93:81,1,128,8|8,0:0|0:0,0:0:0:0:
286,141,40285,6,0,L|146:143,1,128,8|8,0:0|0:0,0:0:0:0:
347,191,41054,2,0,L|487:193,1,128,8|0,0:0|0:0,0:0:0:0:
285,216,41823,6,0,L|148:216,1,128,8|8,0:0|0:0,0:0:0:0:
268,278,42464,2,0,L|317:276,1,42.6666666666667,0|8,0:0|0:0,0:0:0:0:
171,238,42977,1,8,0:0:0:0:
440,268,43361,6,0,P|469:228|424:169,1,128,4|8,0:3|0:0,0:0:0:0:
230,127,44131,2,0,L|371:127,1,128,8|8,0:0|0:0,0:0:0:0:
246,173,44772,6,0,L|241:244,1,42.6666666666667,8|0,0:0|0:0,0:0:0:0:
375,248,45285,1,8,0:0:0:0:
177,249,45669,2,0,L|40:249,1,128,8|8,0:0|0:0,0:0:0:0:
246,262,46438,6,0,P|301:243|267:179,1,128,8|8,0:0|0:0,0:0:0:0:
96,184,47208,2,0,P|41:165|75:101,1,128,8|8,0:0|0:0,0:0:0:0:
162,95,47849,6,0,L|223:95,1,42.6666666666667,0|0,0:0|0:0,0:0:0:0:
75,95,48361,1,8,0:0:0:0:
273,165,48746,2,0,P|332:164|371:222,1,128,8|8,0:0|0:0,0:0:0:0:
140,152,49515,6,0,P|84:190|133:248,1,128,8|8,0:0|0:0,0:0:0:0:
309,293,50285,2,0,L|163:296,1,128,8|8,0:0|0:0,0:0:0:0:
294,242,50926,6,0,L|341:241,1,42.6666666666667,8|8,0:0|0:0,0:0:0:0:
203,188,51438,1,8,0:0:0:0:
405,193,51823,2,0,P|450:168|411:100,1,128,8|8,0:0|0:0,0:0:0:0:
231,85,52592,6,0,L|374:84,1,128,8|8,0:0|0:0,0:0:0:0:
161,145,53361,2,0,L|21:147,1,128,8|8,0:0|0:0,0:0:0:0:
231,178,54131,6,0,P|289:206|271:265,1,128,8|8,0:0|0:0,0:0:0:0:
174,292,54772,2,0,L|174:351,1,42.6666666666667,0|0,0:0|0:0,0:0:0:0:
303,333,55285,1,8,0:0:0:0:
102,334,55669,5,4,1:3:0:0:
292,186,56823,2,0,L|426:187,1,128,0|0,0:0|0:0,0:0:0:0:
220,186,58361,6,0,L|86:187,1,128,8|8,0:0|0:0,0:0:0:0:
286,273,59515,2,0,P|336:254|262:107,1,256,0|8,0:0|0:0,0:0:0:0:
129,172,61438,1,8,0:0:0:0:
289,230,61823,6,0,L|20:232,1,256,8|0,0:0|0:0,0:0:0:0:
223,230,63361,2,0,L|492:232,1,256,8|8,0:0|0:0,0:0:0:0:
316,161,64515,1,8,0:0:0:0:
487,144,64900,6,0,L|8:371,1,512,8|8,0:0|0:0,0:0:0:0:
176,240,66823,1,8,0:0:0:0:
336,240,67208,1,8,0:0:0:0:
496,336,67592,1,8,0:0:0:0:
255,328,67977,6,0,P|199:318|223:244,1,128,12|8,0:3|0:0,0:0:0:0:
400,202,68746,2,0,L|262:201,1,128,8|8,0:0|0:0,0:0:0:0:
403,235,69515,2,0,P|459:225|435:151,1,128,8|8,0:0|0:0,0:0:0:0:
258,109,70285,2,0,L|396:108,1,128,8|8,0:0|0:0,0:0:0:0:
253,107,71054,6,0,L|115:107,1,128,8|8,0:0|0:0,0:0:0:0:
322,180,71823,1,8,0:0:0:0:
194,180,72208,1,8,0:0:0:0:
259,107,72592,2,0,L|397:107,1,128,8|8,0:0|0:0,0:0:0:0:
190,180,73361,1,8,0:0:0:0:
318,180,73746,1,8,0:0:0:0:
121,178,74131,6,0,P|103:229|125:318,1,128,8|8,0:0|0:0,0:0:0:0:
321,307,74900,2,0,L|182:307,1,128,12|12,0:0|0:0,0:0:0:0:
391,178,75669,2,0,P|409:229|387:318,1,128,8|8,0:0|0:0,0:0:0:0:
191,307,76438,2,0,L|330:307,1,128,12|12,0:0|0:0,0:0:0:0:
128,192,77208,5,8,0:0:0:0:
256,176,77592,1,8,0:0:0:0:
384,192,77977,1,12,0:0:0:0:
256,176,78361,1,12,0:0:0:0:
450,276,78746,6,0,P|478:236|438:37,1,256,8|0,0:0|0:0,0:0:0:0:
225,98,80285,6,0,L|380:96,1,128,4|8,0:3|0:0,0:0:0:0:
158,100,81054,2,0,P|115:131|145:205,1,128,8|0,0:0|0:0,0:0:0:0:
238,196,81695,6,0,L|241:251,1,42.6666666666667,0|8,0:0|0:0,0:0:0:0:
108,250,82208,1,4,0:0:0:0:
305,262,82592,2,0,P|375:241|401:177,1,128,12|12,0:0|0:0,0:0:0:0:
207,197,83361,6,0,P|137:176|111:112,1,128,12|8,0:0|0:0,0:0:0:0:
304,118,84131,2,0,P|347:149|317:223,1,128,8|8,0:0|0:0,0:0:0:0:
225,224,84772,6,0,L|220:286,1,42.6666666666667,0|12,0:0|0:0,0:0:0:0:
353,280,85285,1,8,0:0:0:0:
160,283,85669,2,0,L|20:288,1,128,12|12,0:0|0:0,0:0:0:0:
286,286,86438,6,0,P|344:258|296:208,1,128,8|0,0:0|0:0,0:0:0:0:
126,149,87208,2,0,L|256:148,1,128,12|12,0:0|0:0,0:0:0:0:
363,148,87849,6,0,L|365:213,1,42.6666666666667,0|12,0:0|0:0,0:0:0:0:
237,193,88361,1,8,0:0:0:0:
435,257,88746,2,0,L|295:253,1,128,12|12,0:0|0:0,0:0:0:0:
102,208,89515,6,0,L|233:208,1,128,12|8,0:0|0:0,0:0:0:0:
31,212,90285,2,0,P|29:280|76:321,1,128,12|12,0:0|0:0,0:0:0:0:
266,315,91054,6,0,L|135:315,1,128,12|8,0:0|0:0,0:0:0:0:
250,275,91695,2,0,L|253:221,1,42.6666666666667,0|12,0:0|0:0,0:0:0:0:
124,226,92208,1,12,0:0:0:0:
386,234,92592,6,0,P|428:213|408:129,1,128,4|0,0:3|0:0,0:0:0:0:
228,167,93361,2,0,P|186:146|206:62,1,128,12|12,0:0|0:0,0:0:0:0:
302,72,94002,6,0,L|304:123,1,42.6666666666667,0|12,0:0|0:0,0:0:0:0:
171,133,94515,1,8,0:0:0:0:
371,158,94900,2,0,P|416:183|382:247,1,128,12|12,0:0|0:0,0:0:0:0:
200,255,95669,6,0,L|331:254,1,128,12|8,0:0|0:0,0:0:0:0:
148,168,96438,2,0,L|17:167,1,128,12|12,0:0|0:0,0:0:0:0:
124,205,97079,6,0,L|176:203,1,42.6666666666667,0|12,0:0|0:0,0:0:0:0:
29,257,97592,1,8,0:0:0:0:
228,252,97977,2,0,L|361:254,1,128,12|12,0:0|0:0,0:0:0:0:
111,250,98746,6,0,P|73:228|94:140,1,128,12|8,0:0|0:0,0:0:0:0:
272,154,99515,2,0,P|310:132|289:44,1,128,12|12,0:0|0:0,0:0:0:0:
199,52,100156,6,0,L|196:99,1,42.6666666666667,0|12,0:0|0:0,0:0:0:0:
326,154,100669,1,8,0:0:0:0:
116,231,101054,2,0,L|250:232,1,128,12|12,0:0|0:0,0:0:0:0:
448,233,101823,6,0,L|311:232,1,128,12|8,0:0|0:0,0:0:0:0:
123,191,102592,1,12,0:0:0:0:
316,138,102977,1,12,0:0:0:0:
207,141,103233,6,0,L|203:194,1,42.6666666666667,0|12,0:0|0:0,0:0:0:0:
405,184,103746,1,8,0:0:0:0:
295,183,104002,2,0,L|299:141,1,42.6666666666667,8|12,0:0|0:0,0:0:0:0:
437,143,104515,1,12,0:0:0:0:
144,144,104900,1,4,0:3:0:0:
256,192,115669,12,8,116823,0:0:0:0:
298,100,117208,6,0,L|451:101,1,128,8|8,0:0|0:0,0:0:0:0:
214,100,117977,2,0,L|61:101,1,128,8|8,0:0|0:0,0:0:0:0:
199,153,118618,6,0,L|198:206,1,42.6666666666667,0|8,0:0|0:0,0:0:0:0:
64,231,119131,1,8,0:0:0:0:
321,230,119515,2,0,L|460:231,1,128,8|8,0:0|0:0,0:0:0:0:
338,276,120156,6,0,L|336:332,1,42.6666666666667,0|8,0:0|0:0,0:0:0:0:
467,335,120669,1,0,0:0:0:0:
254,224,121054,2,0,L|111:223,1,128,8|8,0:0|0:0,0:0:0:0:
383,223,121823,6,0,P|423:197|370:22,1,256,8|8,0:0|0:0,0:0:0:0:
188,25,122977,1,8,0:0:0:0:
350,134,123361,6,0,L|478:136,1,128,8|0,0:0|0:0,0:0:0:0:
255,193,124131,2,0,L|383:195,1,128,8|8,0:0|0:0,0:0:0:0:
278,242,124772,6,0,L|277:296,1,42.6666666666667,0|8,0:0|0:0,0:0:0:0:
412,303,125285,1,0,0:0:0:0:
218,175,125669,2,0,L|360:175,1,128,8|8,0:0|0:0,0:0:0:0:
162,134,126438,6,0,L|34:136,1,128,8|0,0:0|0:0,0:0:0:0:
257,193,127208,2,0,L|129:195,1,128,8|8,0:0|0:0,0:0:0:0:
234,242,127849,6,0,L|235:296,1,42.6666666666667,0|8,0:0|0:0,0:0:0:0:
100,303,128361,1,0,0:0:0:0:
320,178,128746,2,0,L|178:178,1,128,8|8,0:0|0:0,0:0:0:0:
412,303,129515,1,0,0:0:0:0:
256,192,134131,12,4,135669,0:3:0:0:
203,293,136438,6,0,L|349:296,1,128,12|12,0:0|0:0,0:0:0:0:
218,242,137079,2,0,L|171:241,1,42.6666666666667,0|12,0:0|0:0,0:0:0:0:
309,188,137592,1,8,0:0:0:0:
107,193,137977,2,0,P|62:168|101:100,1,128,12|4,0:0|0:0,0:0:0:0:
281,85,138746,6,0,L|138:84,1,128,12|12,0:0|0:0,0:0:0:0:
351,145,139515,2,0,L|491:147,1,128,12|12,0:0|0:0,0:0:0:0:
281,178,140285,6,0,P|223:206|241:265,1,128,12|12,0:0|0:0,0:0:0:0:
338,292,140926,2,0,L|338:351,1,42.6666666666667,8|12,0:0|0:0,0:0:0:0:
209,333,141438,1,12,0:0:0:0:
427,226,141823,6,0,P|469:205|449:121,1,128,4|8,0:3|0:0,0:0:0:0:
269,159,142592,2,0,P|227:138|247:54,1,128,12|12,0:0|0:0,0:0:0:0:
343,64,143233,6,0,L|345:115,1,42.6666666666667,8|12,0:0|0:0,0:0:0:0:
212,125,143746,1,12,0:0:0:0:
412,150,144131,2,0,P|457:175|423:239,1,128,12|12,0:0|0:0,0:0:0:0:
241,247,144900,6,0,L|372:246,1,128,12|12,0:0|0:0,0:0:0:0:
189,160,145669,2,0,L|58:159,1,128,12|12,0:0|0:0,0:0:0:0:
165,197,146310,6,0,L|217:195,1,42.6666666666667,8|12,0:0|0:0,0:0:0:0:
70,249,146823,1,12,0:0:0:0:
269,244,147208,2,0,L|402:246,1,128,12|12,0:0|0:0,0:0:0:0:
152,242,147977,6,0,P|114:220|135:132,1,128,12|8,0:0|0:0,0:0:0:0:
313,146,148746,2,0,P|351:124|330:36,1,128,12|12,0:0|0:0,0:0:0:0:
240,44,149387,6,0,L|237:91,1,42.6666666666667,12|12,0:0|0:0,0:0:0:0:
367,146,149900,1,8,0:0:0:0:
157,223,150285,2,0,L|291:224,1,128,12|12,0:0|0:0,0:0:0:0:
489,225,151054,6,0,L|352:224,1,128,12|8,0:0|0:0,0:0:0:0:
164,183,151823,1,12,0:0:0:0:
357,130,152208,1,12,0:0:0:0:
247,133,152464,6,0,L|190:134,1,42.6666666666667,8|12,0:0|0:0,0:0:0:0:
330,178,152977,1,12,0:0:0:0:
222,198,153233,2,0,L|264:197,1,42.6666666666667,8|12,0:0|0:0,0:0:0:0:
400,202,153746,1,12,0:0:0:0:
136,334,154131,6,0,P|90:312|146:46,1,384,12|8,0:3|0:0,0:0:0:0:
256,192,155669,12,12,157208,0:3:0:0:
383,163,157977,6,0,L|232:163,1,128,12|12,0:0|0:0,0:0:0:0:
451,270,158746,2,0,P|477:232|427:155,1,128,12|8,0:0|0:0,0:0:0:0:
337,160,159387,2,0,L|335:237,1,42.6666666666667,8|12,0:0|0:0,0:0:0:0:
466,237,159900,1,12,0:0:0:0:
207,226,160285,6,0,L|358:226,1,128,12|8,0:0|0:0,0:0:0:0:
136,225,161054,2,0,P|110:187|160:110,1,128,12|12,0:0|0:0,0:0:0:0:
249,117,161695,6,0,L|251:194,1,42.6666666666667,8|8,0:0|0:0,0:0:0:0:
120,194,162208,1,12,0:0:0:0:
316,189,162592,2,0,L|181:190,1,128,12|12,0:0|0:0,0:0:0:0:
430,188,163361,1,12,0:3:0:0:
256,192,163746,12,0,164900,0:0:0:0:
