osu file format v14

[General]
AudioFilename: audio.mp3
AudioLeadIn: 0
PreviewTime: 33904
Countdown: 1
SampleSet: Normal
StackLeniency: 0.7
Mode: 0
LetterboxInBreaks: 0
WidescreenStoryboard: 0

[Editor]
DistanceSpacing: 1.4
BeatDivisor: 12
GridSize: 4
TimelineZoom: 3.200005

[Metadata]
Title:Warriors
TitleUnicode:Warriors
Artist:Imagine Dragons
ArtistUnicode:Imagine Dragons
Creator:222slavexx222
Version:Insane
Source:
Tags:
BeatmapID:1687729
BeatmapSetID:802993

[Difficulty]
HPDrainRate:6
CircleSize:3.8
OverallDifficulty:7
ApproachRate:9
SliderMultiplier:1.4
SliderTickRate:2

[Events]
//Background and Video events
0,0,"hjgkjhg.jpg",0,0
//Break Periods
2,58784,64138
2,108014,119522
//Storyboard Layer 0 (Background)
//Storyboard Layer 1 (Fail)
//Storyboard Layer 2 (Pass)
//Storyboard Layer 3 (Foreground)
//Storyboard Sound Samples

[TimingPoints]
3200,384.612919147954,4,1,0,100,1,0
24738,-66.6666666666667,4,1,0,100,0,0
27815,-100,4,1,0,100,0,0
129353,-66.6666666666667,4,1,0,100,0,0
130891,-100,4,1,0,100,0,0

[HitObjects]
385,157,3200,6,0,P|374:117|346:95,1,70
221,62,3585,2,0,P|181:73|159:101,1,70
126,226,3970,2,0,P|137:266|165:288,1,70
357,279,4354,1,0,0:0:0:0:
205,194,4546,1,0,0:0:0:0:
350,97,4738,6,0,P|321:68|286:63,1,70
161,97,5123,2,0,P|132:126|127:161,1,70
161,286,5508,2,0,P|190:315|225:320,1,70
387,217,5892,1,0,0:0:0:0:
221,204,6084,1,0,0:0:0:0:
290,62,6276,6,0,P|251:52|217:65,1,70
126,157,6661,2,0,P|116:196|129:230,1,70
221,321,7046,2,0,P|260:331|294:318,1,70
382,148,7430,1,0,0:0:0:0:
231,219,7622,1,0,0:0:0:0:
198,64,7815,5,0,0:0:0:0:
268,164,8199,1,0,0:0:0:0:
268,164,8328,1,0,0:0:0:0:
268,164,8456,1,0,0:0:0:0:
268,164,8584,1,0,0:0:0:0:
322,311,8969,1,0,0:0:0:0:
386,161,9353,6,0,P|377:122|349:98,1,70
225,61,9738,2,0,P|186:70|162:98,1,70
125,222,10123,2,0,P|134:261|162:285,1,70
354,283,10507,1,0,0:0:0:0:
212,193,10699,1,0,0:0:0:0:
353,100,10892,6,0,P|326:70|290:64,1,70
164,94,11277,2,0,P|134:122|128:157,1,70
158,283,11662,2,0,P|186:313|221:319,1,70
386,221,12046,1,0,0:0:0:0:
211,213,12238,1,0,0:0:0:0:
294,63,12430,6,0,P|256:52|221:64,1,70
128,153,12815,2,0,P|116:191|128:226,1,70
217,320,13200,2,0,P|256:331|290:319,1,70
392,191,13584,5,0,0:0:0:0:
315,76,13776,1,0,0:0:0:0:
185,33,13969,1,0,0:0:0:0:
53,193,14353,5,0,0:0:0:0:
129,303,14546,1,0,0:0:0:0:
284,337,14738,1,0,0:0:0:0:
347,94,15507,6,0,P|377:121|383:157,1,70
353,283,15892,2,0,P|326:313|290:319,1,70
164,289,16277,2,0,P|134:262|128:226,1,70
226,61,16661,1,0,0:0:0:0:
223,230,16853,1,0,0:0:0:0:
384,153,17046,6,0,P|396:191|383:226,1,70
295,319,17431,2,0,P|256:332|222:319,1,70
128,230,17816,2,0,P|116:192|128:158,1,70
295,64,18200,1,0,0:0:0:0:
208,210,18392,1,0,0:0:0:0:
386,222,18584,6,0,P|377:261|349:285,1,70
225,322,18969,2,0,P|186:313|162:285,1,70
125,161,19354,2,0,P|134:122|162:98,1,70
354,101,19738,5,0,0:0:0:0:
251,147,19930,1,0,0:0:0:0:
361,171,20122,1,0,0:0:0:0:
286,87,20315,1,0,0:0:0:0:
298,200,20507,1,0,0:0:0:0:
354,101,20699,1,0,0:0:0:0:
251,147,20892,1,0,0:0:0:0:
255,55,21661,5,0,0:0:0:0:
138,124,21853,1,0,0:0:0:0:
138,124,21949,1,0,0:0:0:0:
138,124,22046,1,0,0:0:0:0:
255,192,22238,1,0,0:0:0:0:
255,55,22430,1,0,0:0:0:0:
255,192,22815,1,0,0:0:0:0:
399,191,23199,5,0,0:0:0:0:
333,317,23391,1,0,0:0:0:0:
333,317,23487,1,0,0:0:0:0:
333,317,23584,1,0,0:0:0:0:
255,192,23776,1,0,0:0:0:0:
399,191,23968,1,0,0:0:0:0:
255,192,24353,1,0,0:0:0:0:
209,191,24738,2,0,P|209:133|249:93,1,105.000004005432
209,191,25122,2,0,P|259:162|313:176,1,105.000004005432
268,287,25507,1,0,0:0:0:0:
276,58,25699,1,0,0:0:0:0:
109,151,25892,1,0,0:0:0:0:
317,172,26276,2,0,P|266:143|212:157,1,105.000004005432
317,172,26661,2,0,P|266:201|252:255,1,105.000004005432
387,271,27046,1,0,0:0:0:0:
256,192,27430,5,0,0:0:0:0:
336,276,27815,5,0,0:0:0:0:
198,153,28199,1,0,0:0:0:0:
281,233,28392,1,0,0:0:0:0:
198,153,28584,1,0,0:0:0:0:
389,222,28969,1,0,0:0:0:0:
206,56,29353,5,0,0:0:0:0:
334,177,29738,1,0,0:0:0:0:
255,104,29930,1,0,0:0:0:0:
334,177,30122,1,0,0:0:0:0:
291,337,30507,1,0,0:0:0:0:
90,158,30892,5,0,0:0:0:0:
238,291,31276,1,0,0:0:0:0:
140,206,31469,1,0,0:0:0:0:
238,291,31661,1,0,0:0:0:0:
90,150,32045,1,0,0:0:0:0:
288,342,32430,5,0,0:0:0:0:
257,193,32815,1,0,0:0:0:0:
257,193,32943,1,0,0:0:0:0:
257,193,33071,1,0,0:0:0:0:
257,193,33199,1,0,0:0:0:0:
259,333,33969,6,0,B|365:307|441:222|424:128,1,280
189,119,35122,1,0,0:0:0:0:
157,246,35315,1,0,0:0:0:0:
259,333,35507,6,0,B|367:313|429:225|418:135,1,280
189,119,36661,1,0,0:0:0:0:
418,136,37045,6,0,B|424:230|339:314|231:319,1,280
188,121,38199,1,0,0:0:0:0:
308,77,38392,1,0,0:0:0:0:
418,136,38584,6,0,B|424:230|339:314|231:319,1,280
188,123,39738,1,0,0:0:0:0:
274,297,40122,5,0,0:0:0:0:
309,112,40315,1,0,0:0:0:0:
175,244,40507,1,0,0:0:0:0:
361,212,40699,1,0,0:0:0:0:
197,129,40892,1,0,0:0:0:0:
274,297,41276,1,0,0:0:0:0:
359,178,41468,1,0,0:0:0:0:
359,178,41565,1,0,0:0:0:0:
359,178,41661,1,0,0:0:0:0:
177,250,41853,1,0,0:0:0:0:
242,76,42045,1,0,0:0:0:0:
347,295,42238,1,0,0:0:0:0:
413,97,42430,1,0,0:0:0:0:
257,273,42815,1,0,0:0:0:0:
181,106,43199,5,0,0:0:0:0:
344,189,43392,1,0,0:0:0:0:
155,217,43584,1,0,0:0:0:0:
294,95,43776,1,0,0:0:0:0:
257,273,43968,1,0,0:0:0:0:
134,103,44353,1,0,0:0:0:0:
250,49,44545,1,0,0:0:0:0:
250,49,44642,1,0,0:0:0:0:
250,49,44738,1,0,0:0:0:0:
293,296,44930,1,0,0:0:0:0:
390,138,45122,1,0,0:0:0:0:
201,208,45315,1,0,0:0:0:0:
336,52,45507,1,0,0:0:0:0:
218,99,45892,1,0,0:0:0:0:
401,137,46276,6,0,B|407:231|322:315|214:320,1,280
184,118,47430,1,0,0:0:0:0:
294,57,47622,1,0,0:0:0:0:
401,137,47815,6,0,B|407:231|322:315|214:320,1,280
184,119,48968,1,0,0:0:0:0:
235,330,49353,6,0,B|329:336|412:251|417:142,1,280
211,90,50507,1,0,0:0:0:0:
145,215,50699,1,0,0:0:0:0:
235,330,50892,6,0,B|329:336|412:251|417:142,1,280
267,300,52045,1,0,0:0:0:0:
195,113,52430,5,0,0:0:0:0:
361,211,52622,1,0,0:0:0:0:
166,229,52815,1,0,0:0:0:0:
325,98,53007,1,0,0:0:0:0:
267,300,53199,1,0,0:0:0:0:
136,80,53584,1,0,0:0:0:0:
167,254,53776,1,0,0:0:0:0:
167,254,53872,1,0,0:0:0:0:
167,254,53968,1,0,0:0:0:0:
261,87,54161,1,0,0:0:0:0:
275,311,54353,1,0,0:0:0:0:
102,200,54545,1,0,0:0:0:0:
377,111,54738,1,0,0:0:0:0:
192,112,55122,1,0,0:0:0:0:
363,215,55507,5,0,0:0:0:0:
166,228,55699,1,0,0:0:0:0:
314,110,55891,1,0,0:0:0:0:
265,300,56084,1,0,0:0:0:0:
192,112,56276,1,0,0:0:0:0:
363,222,56661,1,0,0:0:0:0:
216,129,56853,1,0,0:0:0:0:
216,129,56949,1,0,0:0:0:0:
216,129,57045,1,0,0:0:0:0:
147,297,57238,1,0,0:0:0:0:
311,118,57430,1,0,0:0:0:0:
144,86,57622,1,0,0:0:0:0:
256,192,57815,1,0,0:0:0:0:
130,287,58327,5,0,0:0:0:0:
394,86,58584,1,0,0:0:0:0:
256,192,64738,12,0,69353,0:0:0:0:
125,161,70891,6,0,P|134:122|162:98,1,70
286,61,71276,2,0,P|325:70|349:98,1,70
386,222,71661,2,0,P|377:261|349:285,1,70
158,283,72045,1,0,0:0:0:0:
300,193,72237,1,0,0:0:0:0:
158,100,72430,6,0,P|186:70|221:64,1,70
347,94,72815,2,0,P|377:122|383:157,1,70
353,283,73200,2,0,P|325:313|290:319,1,70
125,221,73584,1,0,0:0:0:0:
301,213,73776,1,0,0:0:0:0:
217,63,73968,6,0,P|255:52|290:64,1,70
384,153,74353,2,0,P|396:191|383:226,1,70
294,320,74738,2,0,P|256:331|222:319,1,70
120,191,75122,5,0,0:0:0:0:
261,253,75314,1,0,0:0:0:0:
228,59,75507,1,0,0:0:0:0:
255,307,75891,5,0,0:0:0:0:
445,236,76084,1,0,0:0:0:0:
189,68,76276,1,0,0:0:0:0:
164,94,77045,6,0,P|134:121|128:157,1,70
158,283,77430,2,0,P|186:313|221:319,1,70
347,289,77815,2,0,P|377:262|383:226,1,70
285,61,78199,1,0,0:0:0:0:
289,230,78391,1,0,0:0:0:0:
128,153,78584,6,0,P|116:191|128:226,1,70
217,319,78969,2,0,P|255:332|290:319,1,70
383,230,79354,2,0,P|396:192|383:158,1,70
216,64,79738,1,0,0:0:0:0:
304,210,79930,1,0,0:0:0:0:
125,222,80122,6,0,P|134:261|162:285,1,70
286,322,80507,2,0,P|325:313|349:285,1,70
386,161,80892,2,0,P|377:122|349:98,1,70
158,101,81276,5,0,0:0:0:0:
261,147,81468,1,0,0:0:0:0:
151,171,81661,1,0,0:0:0:0:
226,87,81853,1,0,0:0:0:0:
214,200,82045,1,0,0:0:0:0:
158,101,82237,1,0,0:0:0:0:
256,192,82430,1,0,0:0:0:0:
73,147,83199,6,0,B|66:241|151:324|261:329,1,280
326,131,84353,1,0,0:0:0:0:
193,64,84545,1,0,0:0:0:0:
73,147,84737,6,0,B|66:241|151:324|261:329,1,280
270,127,85891,1,0,0:0:0:0:
228,331,86276,6,0,B|134:337|51:252|46:143,1,280
237,94,87430,1,0,0:0:0:0:
307,210,87622,1,0,0:0:0:0:
228,331,87814,6,0,B|134:337|51:252|46:143,1,280
149,102,88968,1,0,0:0:0:0:
411,301,89353,5,0,0:0:0:0:
267,287,89545,1,0,0:0:0:0:
377,134,89737,1,0,0:0:0:0:
104,260,89930,1,0,0:0:0:0:
253,43,90122,1,0,0:0:0:0:
348,264,90507,1,0,0:0:0:0:
256,194,90699,1,0,0:0:0:0:
256,194,90795,1,0,0:0:0:0:
256,194,90891,1,0,0:0:0:0:
255,66,91084,1,0,0:0:0:0:
184,263,91276,1,0,0:0:0:0:
390,191,91468,1,0,0:0:0:0:
219,137,91660,1,0,0:0:0:0:
371,315,92045,1,0,0:0:0:0:
75,70,92430,5,0,0:0:0:0:
133,225,92622,1,0,0:0:0:0:
231,57,92814,1,0,0:0:0:0:
245,319,93007,1,0,0:0:0:0:
398,87,93199,1,0,0:0:0:0:
357,235,93584,1,0,0:0:0:0:
225,129,93776,1,0,0:0:0:0:
225,129,93872,1,0,0:0:0:0:
225,129,93968,1,0,0:0:0:0:
287,289,94160,1,0,0:0:0:0:
333,88,94353,1,0,0:0:0:0:
116,175,94545,1,0,0:0:0:0:
246,236,94737,1,0,0:0:0:0:
296,120,95122,1,0,0:0:0:0:
228,331,95507,6,0,B|134:337|51:252|46:143,1,280
250,99,96660,1,0,0:0:0:0:
309,221,96853,1,0,0:0:0:0:
228,331,97045,6,0,B|134:337|51:252|46:143,1,280
257,133,98199,1,0,0:0:0:0:
46,149,98584,6,0,B|40:243|124:326|234:331,1,280
286,158,99737,1,0,0:0:0:0:
163,78,99930,1,0,0:0:0:0:
46,149,100122,6,0,B|40:243|124:326|234:331,1,280
318,115,101276,1,0,0:0:0:0:
81,301,101660,5,0,0:0:0:0:
137,172,101853,1,0,0:0:0:0:
234,294,102045,1,0,0:0:0:0:
254,56,102237,1,0,0:0:0:0:
420,259,102430,1,0,0:0:0:0:
166,283,102814,1,0,0:0:0:0:
295,136,103007,1,0,0:0:0:0:
295,136,103103,1,0,0:0:0:0:
295,136,103199,1,0,0:0:0:0:
120,137,103391,1,0,0:0:0:0:
296,275,103583,1,0,0:0:0:0:
266,56,103776,1,0,0:0:0:0:
256,193,103968,1,0,0:0:0:0:
180,279,104353,1,0,0:0:0:0:
407,55,104737,5,0,0:0:0:0:
355,196,104930,1,0,0:0:0:0:
249,74,105122,1,0,0:0:0:0:
260,324,105314,1,0,0:0:0:0:
98,142,105507,1,0,0:0:0:0:
282,65,105891,1,0,0:0:0:0:
256,191,106083,1,0,0:0:0:0:
256,191,106180,1,0,0:0:0:0:
256,191,106276,1,0,0:0:0:0:
385,252,106468,1,0,0:0:0:0:
137,243,106660,1,0,0:0:0:0:
345,133,106853,1,0,0:0:0:0:
163,92,107045,1,0,0:0:0:0:
423,280,107558,5,0,0:0:0:0:
125,98,107814,1,0,0:0:0:0:
120,71,120122,5,0,0:0:0:0:
151,106,120218,1,0,0:0:0:0:
180,144,120314,1,0,0:0:0:0:
262,10,120506,5,0,0:0:0:0:
254,56,120603,1,0,0:0:0:0:
243,102,120699,1,0,0:0:0:0:
401,85,120891,5,0,0:0:0:0:
360,107,120987,1,0,0:0:0:0:
316,127,121083,1,0,0:0:0:0:
428,237,121276,5,0,0:0:0:0:
385,219,121372,1,0,0:0:0:0:
342,198,121468,1,0,0:0:0:0:
324,356,121660,5,0,0:0:0:0:
311,311,121756,1,0,0:0:0:0:
302,264,121852,1,0,0:0:0:0:
169,348,122044,5,0,0:0:0:0:
196,310,122141,1,0,0:0:0:0:
227,273,122237,1,0,0:0:0:0:
77,220,122430,5,0,0:0:0:0:
124,217,122526,1,0,0:0:0:0:
172,219,122622,1,0,0:0:0:0:
111,142,122814,5,0,0:0:0:0:
228,237,123006,1,0,0:0:0:0:
299,58,123199,1,0,0:0:0:0:
339,271,123583,5,0,0:0:0:0:
268,166,123776,1,0,0:0:0:0:
54,223,123968,1,0,0:0:0:0:
253,40,124353,5,0,0:0:0:0:
115,93,124545,1,0,0:0:0:0:
367,124,124737,1,0,0:0:0:0:
158,302,125122,5,0,0:0:0:0:
107,109,125314,1,0,0:0:0:0:
257,110,125506,1,0,0:0:0:0:
255,191,125891,5,0,0:0:0:0:
102,192,126083,1,0,0:0:0:0:
102,192,126179,1,0,0:0:0:0:
102,192,126276,1,0,0:0:0:0:
191,96,126468,1,0,0:0:0:0:
187,320,126660,1,0,0:0:0:0:
317,97,126853,1,0,0:0:0:0:
374,314,127045,1,0,0:0:0:0:
255,194,127429,1,0,0:0:0:0:
257,54,127622,1,0,0:0:0:0:
257,54,127718,1,0,0:0:0:0:
257,54,127814,1,0,0:0:0:0:
106,124,128006,1,0,0:0:0:0:
327,153,128199,1,0,0:0:0:0:
166,292,128391,1,0,0:0:0:0:
406,339,128583,1,0,0:0:0:0:
282,157,129353,6,0,P|231:186|217:240,1,105.000004005432
300,299,129641,1,0,0:0:0:0:
300,299,129737,6,0,P|344:261|349:205,1,105.000004005432
166,53,130122,6,0,P|109:63|76:109,1,105.000004005432
101,211,130410,1,0,0:0:0:0:
101,211,130506,6,0,P|151:240|205:225,1,105.000004005432
261,80,130891,1,0,0:0:0:0:
402,178,131083,1,0,0:0:0:0:
217,229,131276,1,0,0:0:0:0:
94,86,131468,1,0,0:0:0:0:
81,277,131660,1,0,0:0:0:0:
232,139,131853,1,0,0:0:0:0:
403,63,132045,1,0,0:0:0:0:
210,267,132237,1,0,0:0:0:0:
35,60,132429,2,0,B|145:318|145:318|256:60|256:60|370:315|370:315|479:58|479:58,1,1120
68,310,137429,5,0,0:0:0:0:
417,191,137814,1,0,0:0:0:0:
71,86,138199,1,0,0:0:0:0:
333,273,138583,5,0,0:0:0:0:
148,178,138968,5,0,0:0:0:0:
353,167,139160,1,0,0:0:0:0:
194,285,139352,1,0,0:0:0:0:
249,95,139545,1,0,0:0:0:0:
333,273,139737,1,0,0:0:0:0:
148,174,139929,1,0,0:0:0:0:
354,167,140122,1,0,0:0:0:0:
155,98,140506,5,0,0:0:0:0:
349,98,140699,1,0,0:0:0:0:
350,288,140891,1,0,0:0:0:0:
154,290,141083,1,0,0:0:0:0:
155,98,141276,1,0,0:0:0:0:
349,98,141468,1,0,0:0:0:0:
350,288,141660,1,0,0:0:0:0:
255,36,142045,5,0,0:0:0:0:
413,108,142237,1,0,0:0:0:0:
434,252,142429,1,0,0:0:0:0:
329,357,142622,1,0,0:0:0:0:
172,351,142814,1,0,0:0:0:0:
68,230,143006,1,0,0:0:0:0:
110,85,143199,1,0,0:0:0:0:
438,317,143583,5,0,0:0:0:0:
72,181,143968,1,0,0:0:0:0:
428,76,144352,1,0,0:0:0:0:
89,56,144737,6,0,B|23:124|34:241|116:316,1,280
256,230,145859,1,0,0:0:0:0:
255,88,146083,1,0,0:0:0:0:
413,47,146276,6,0,B|483:109|483:227|408:308,1,280
257,160,147429,1,0,0:0:0:0:
375,298,147814,6,0,B|312:368|194:368|113:293,1,280
257,189,149000,1,0,0:0:0:0:
256,31,149352,1,0,0:0:0:0:
56,324,149737,5,0,0:0:0:0:
438,177,150122,1,0,0:0:0:0:
57,75,150506,1,0,0:0:0:0:
255,191,150891,5,0,0:0:0:0:
256,40,151276,5,0,0:0:0:0:
103,99,151468,1,0,0:0:0:0:
78,252,151660,1,0,0:0:0:0:
177,367,151853,1,0,0:0:0:0:
323,367,152045,1,0,0:0:0:0:
437,267,152237,1,0,0:0:0:0:
418,109,152430,1,0,0:0:0:0:
349,286,152814,5,0,0:0:0:0:
154,290,153006,1,0,0:0:0:0:
153,98,153199,1,0,0:0:0:0:
346,97,153391,1,0,0:0:0:0:
349,286,153583,1,0,0:0:0:0:
154,290,153776,1,0,0:0:0:0:
153,98,153968,1,0,0:0:0:0:
342,266,154353,5,0,0:0:0:0:
227,84,154545,1,0,0:0:0:0:
218,287,154737,1,0,0:0:0:0:
358,128,154929,1,0,0:0:0:0:
135,187,155122,1,0,0:0:0:0:
343,265,155314,1,0,0:0:0:0:
227,84,155506,1,0,0:0:0:0:
388,77,156788,5,0,0:0:0:0:
95,80,157045,1,0,0:0:0:0:
153,231,158199,1,0,0:0:0:0:
300,77,158583,1,0,0:0:0:0:
300,77,158679,1,0,0:0:0:0:
300,77,158775,1,0,0:0:0:0:
347,210,158968,1,0,0:0:0:0:
347,210,159064,1,0,0:0:0:0:
347,210,159160,1,0,0:0:0:0:
191,73,159352,1,0,0:0:0:0:
191,73,159448,1,0,0:0:0:0:
191,73,159545,1,0,0:0:0:0:
181,232,159737,1,0,0:0:0:0:
181,232,159833,1,0,0:0:0:0:
181,232,159929,1,0,0:0:0:0:
164,96,160122,5,0,0:0:0:0:
393,217,160378,1,0,0:0:0:0:
135,243,160634,1,0,0:0:0:0:
323,83,160891,1,0,0:0:0:0:
275,332,161147,1,0,0:0:0:0:
164,96,161404,1,0,0:0:0:0:
365,296,161660,1,0,0:0:0:0:
223,66,161916,1,0,0:0:0:0:
421,254,162173,1,0,0:0:0:0:
153,354,162429,1,0,0:0:0:0:
391,193,162686,1,0,0:0:0:0:
115,287,162942,1,0,0:0:0:0:
276,67,163198,1,0,0:0:0:0:
360,312,163455,1,0,0:0:0:0:
204,79,163711,1,0,0:0:0:0:
291,336,163968,1,0,0:0:0:0:
104,159,164224,1,0,0:0:0:0:
391,139,164481,1,0,0:0:0:0:
182,312,164737,1,0,0:0:0:0:
239,53,164993,1,0,0:0:0:0:
384,284,165250,1,0,0:0:0:0:
106,185,165506,1,0,0:0:0:0:
328,43,165763,1,0,0:0:0:0:
435,337,166019,1,0,0:0:0:0:
29,203,166275,1,0,0:0:0:0:
256,192,166660,12,0,168583,0:0:0:0:
