osu file format v14

[General]
AudioFilename: audio.mp3
AudioLeadIn: 0
PreviewTime: 33904
Countdown: 1
SampleSet: Normal
StackLeniency: 0.7
Mode: 0
LetterboxInBreaks: 0
WidescreenStoryboard: 0

[Editor]
DistanceSpacing: 1.4
BeatDivisor: 4
GridSize: 4
TimelineZoom: 5.700003

[Metadata]
Title:Warriors
TitleUnicode:Warriors
Artist:Imagine Dragons
ArtistUnicode:Imagine Dragons
Creator:222slavexx222
Version:Extra
Source:
Tags:
BeatmapID:1687728
BeatmapSetID:802993

[Difficulty]
HPDrainRate:4
CircleSize:3.8
OverallDifficulty:7
ApproachRate:9.4
SliderMultiplier:1.4
SliderTickRate:4

[Events]
//Background and Video events
0,0,"hjgkjhg.jpg",0,0
//Break Periods
2,58784,64198
2,109552,113428
2,118783,119582
2,133686,136889
//Storyboard Layer 0 (Background)
//Storyboard Layer 1 (Fail)
//Storyboard Layer 2 (Pass)
//Storyboard Layer 3 (Foreground)
//Storyboard Sound Samples

[TimingPoints]
3200,384.612919147954,4,1,0,100,1,0

[HitObjects]
192,155,3200,6,0,P|157:178|159:208,1,70
300,297,3584,2,0,P|331:282|333:244,1,70
346,125,3969,2,0,P|323:90|293:92,1,70
140,133,4353,1,0,0:0:0:0:
191,272,4546,1,0,0:0:0:0:
345,230,4738,6,0,P|357:189|336:168,1,70
199,90,5123,2,0,P|157:85|139:109,1,70
98,249,5507,2,0,P|100:290|124:315,1,70
273,304,5892,1,0,0:0:0:0:
382,198,6084,1,0,0:0:0:0:
275,92,6276,6,0,B|239:60|204:85|204:85,1,70
104,159,6661,2,0,B|73:195|98:230|98:230,1,70
210,319,7046,2,0,B|246:350|281:325|281:325,1,70
367,239,7430,1,0,0:0:0:0:
354,92,7623,1,0,0:0:0:0:
178,61,7815,5,0,0:0:0:0:
268,164,8199,1,0,0:0:0:0:
268,164,8328,1,0,0:0:0:0:
268,164,8456,1,0,0:0:0:0:
268,164,8584,1,0,0:0:0:0:
283,220,8969,1,0,0:0:0:0:
362,151,9353,6,0,P|361:109|332:89,1,70
180,60,9738,2,0,P|138:61|118:90,1,70
106,243,10123,2,0,P|107:285|136:305,1,70
277,317,10507,1,0,0:0:0:0:
382,193,10699,1,0,0:0:0:0:
254,100,10892,6,0,P|217:94|197:126,1,70
155,254,11276,2,0,P|149:291|181:311,1,70
333,343,11661,2,0,P|370:349|390:317,1,70
401,171,12046,1,0,0:0:0:0:
279,96,12238,1,0,0:0:0:0:
112,112,12430,6,0,P|90:138|101:175,1,70
176,336,12815,2,0,P|202:358|239:347,1,70
400,272,13199,2,0,P|422:246|411:209,1,70,0|0,0:0|0:0,3:0:0:0:
233,114,13584,1,0,0:0:0:0:
239,286,13776,1,0,0:0:0:0:
413,266,13969,6,0,P|435:240|424:203,1,70,0|0,0:0|0:0,3:0:0:0:
330,35,14353,2,0,P|304:13|267:24,1,70,0|0,0:0|0:0,3:0:0:0:
99,118,14738,2,0,P|77:144|88:181,1,70,0|0,0:0|0:0,3:0:0:0:
217,330,15123,1,0,0:0:0:0:
378,326,15315,1,0,0:0:0:0:
461,230,15507,6,0,P|467:196|439:169,1,70,0|0,0:0|0:0,3:0:0:0:
301,33,15892,2,0,P|267:26|240:54,1,70,0|0,0:0|0:0,3:0:0:0:
97,147,16276,2,0,P|90:180|118:207,1,70,0|0,0:0|0:0,3:0:0:0:
236,314,16661,1,0,0:0:0:0:
405,256,16853,1,0,0:0:0:0:
375,124,17046,6,0,P|355:89|320:87,1,70
188,73,17430,2,0,P|153:93|151:128,1,70
137,260,17815,2,0,P|157:295|192:297,1,70
329,272,18199,1,0,0:0:0:0:
237,147,18392,1,0,0:0:0:0:
329,272,18584,6,0,P|363:271|370:237,1,70
347,104,18969,2,0,P|339:65|312:63,1,70
139,79,19353,2,0,P|100:87|98:114,1,70
120,261,19738,1,0,0:0:0:0:
268,226,19930,1,0,0:0:0:0:
121,167,20122,1,0,0:0:0:0:
215,306,20315,1,0,0:0:0:0:
212,141,20507,1,0,0:0:0:0:
115,269,20699,1,0,0:0:0:0:
279,228,20892,1,0,0:0:0:0:
392,278,21276,1,0,0:0:0:0:
261,96,21661,5,0,0:0:0:0:
100,147,21853,1,0,0:0:0:0:
100,147,21949,1,0,0:0:0:0:
100,147,22046,1,0,0:0:0:0:
122,287,22238,1,0,0:0:0:0:
262,330,22430,1,0,0:0:0:0:
424,264,22815,1,0,0:0:0:0:
359,119,23199,5,0,0:0:0:0:
195,78,23392,1,0,0:0:0:0:
195,78,23488,1,0,0:0:0:0:
195,78,23584,1,0,0:0:0:0:
126,156,23776,1,0,0:0:0:0:
130,280,23969,1,0,0:0:0:0:
283,331,24353,1,0,0:0:0:0:
415,213,24738,5,0,0:0:0:0:
297,89,24930,1,0,0:0:0:0:
297,89,25026,1,0,0:0:0:0:
297,89,25122,1,0,0:0:0:0:
181,95,25315,1,0,0:0:0:0:
114,194,25507,1,0,0:0:0:0:
343,157,25892,1,0,0:0:0:0:
166,318,26276,5,0,0:0:0:0:
341,305,26469,1,0,0:0:0:0:
341,305,26565,1,0,0:0:0:0:
341,305,26661,1,0,0:0:0:0:
407,193,26853,1,0,0:0:0:0:
353,81,27046,1,0,0:0:0:0:
148,104,27430,1,0,0:0:0:0:
336,276,27815,5,0,0:0:0:0:
198,153,28199,1,0,0:0:0:0:
281,233,28392,1,0,0:0:0:0:
198,153,28584,1,0,0:0:0:0:
389,222,28969,1,0,0:0:0:0:
206,56,29353,5,0,0:0:0:0:
334,177,29738,1,0,0:0:0:0:
255,104,29930,1,0,0:0:0:0:
334,177,30122,1,0,0:0:0:0:
291,337,30507,1,0,0:0:0:0:
90,158,30892,5,0,0:0:0:0:
238,291,31276,1,0,0:0:0:0:
140,206,31469,1,0,0:0:0:0:
238,291,31661,1,0,0:0:0:0:
90,150,32045,1,0,0:0:0:0:
288,342,32430,5,0,0:0:0:0:
257,193,32815,1,0,0:0:0:0:
257,193,32943,1,0,0:0:0:0:
257,193,33071,1,0,0:0:0:0:
257,193,33199,1,0,0:0:0:0:
259,333,33969,6,0,B|365:307|441:222|424:128,1,280
271,88,35122,1,0,0:0:0:0:
180,202,35315,1,0,0:0:0:0:
259,333,35507,6,0,B|367:313|429:225|418:135,1,280
189,119,36661,1,0,0:0:0:0:
418,136,37045,6,0,B|424:230|339:314|231:319,1,280
138,192,38199,1,0,0:0:0:0:
242,75,38392,1,0,0:0:0:0:
418,136,38584,6,0,B|424:230|339:314|231:319,1,280
188,123,39738,1,0,0:0:0:0:
274,297,40122,5,0,0:0:0:0:
309,112,40315,1,0,0:0:0:0:
175,244,40507,1,0,0:0:0:0:
361,212,40699,1,0,0:0:0:0:
197,129,40892,1,0,0:0:0:0:
274,297,41276,1,0,0:0:0:0:
255,192,41468,1,0,0:0:0:0:
255,192,41565,1,0,0:0:0:0:
255,192,41661,1,0,0:0:0:0:
143,90,41853,1,0,0:0:0:0:
255,192,42045,1,0,0:0:0:0:
364,92,42238,1,0,0:0:0:0:
255,192,42430,1,0,0:0:0:0:
257,273,42815,1,0,0:0:0:0:
181,106,43199,5,0,0:0:0:0:
344,189,43392,1,0,0:0:0:0:
155,217,43584,1,0,0:0:0:0:
294,95,43776,1,0,0:0:0:0:
257,273,43968,1,0,0:0:0:0:
181,108,44353,1,0,0:0:0:0:
255,193,44545,1,0,0:0:0:0:
255,193,44642,1,0,0:0:0:0:
255,193,44738,1,0,0:0:0:0:
366,293,44930,1,0,0:0:0:0:
255,193,45122,1,0,0:0:0:0:
156,293,45315,1,0,0:0:0:0:
255,193,45507,1,0,0:0:0:0:
218,99,45892,1,0,0:0:0:0:
401,137,46276,6,0,B|407:231|322:315|214:320,1,280
195,171,47430,1,0,0:0:0:0:
265,62,47622,1,0,0:0:0:0:
401,137,47815,6,0,B|407:231|322:315|214:320,1,280
230,129,48968,1,0,0:0:0:0:
235,330,49353,6,0,B|329:336|412:251|417:142,1,280
263,75,50507,1,0,0:0:0:0:
165,200,50699,1,0,0:0:0:0:
235,330,50892,6,0,B|329:336|412:251|417:142,1,280
267,300,52045,1,0,0:0:0:0:
195,113,52430,5,0,0:0:0:0:
361,211,52622,1,0,0:0:0:0:
166,229,52815,1,0,0:0:0:0:
325,98,53007,1,0,0:0:0:0:
267,300,53199,1,0,0:0:0:0:
195,113,53584,1,0,0:0:0:0:
255,191,53776,1,0,0:0:0:0:
255,191,53872,1,0,0:0:0:0:
255,191,53968,1,0,0:0:0:0:
358,88,54161,1,0,0:0:0:0:
255,191,54353,1,0,0:0:0:0:
366,298,54545,1,0,0:0:0:0:
255,191,54738,1,0,0:0:0:0:
192,112,55122,1,0,0:0:0:0:
363,215,55507,5,0,0:0:0:0:
166,228,55699,1,0,0:0:0:0:
314,110,55891,1,0,0:0:0:0:
265,300,56084,1,0,0:0:0:0:
192,112,56276,1,0,0:0:0:0:
363,222,56661,1,0,0:0:0:0:
256,192,56853,1,0,0:0:0:0:
256,192,56949,1,0,0:0:0:0:
256,192,57045,1,0,0:0:0:0:
147,297,57238,1,0,0:0:0:0:
256,192,57430,1,0,0:0:0:0:
144,86,57622,1,0,0:0:0:0:
256,192,57815,1,0,0:0:0:0:
130,287,58199,5,0,0:0:0:0:
394,86,58584,1,0,0:0:0:0:
256,192,64738,12,0,70122,0:0:0:0:
265,65,70891,6,0,P|229:55|191:68,1,70
87,178,71276,2,0,P|77:214|90:252,1,70
201,336,71661,2,0,P|237:346|275:333,1,70
401,262,72045,1,0,0:0:0:0:
273,150,72238,1,0,0:0:0:0:
419,275,72430,6,0,P|440:244|441:204,1,70
386,54,72814,2,0,P|355:32|315:31,1,70
137,62,73199,2,0,P|115:92|114:132,1,70
277,91,73584,1,0,0:0:0:0:
245,264,73776,1,0,0:0:0:0:
405,250,73968,6,0,P|408:212|389:177,1,70
250,80,74353,2,0,P|212:76|177:95,1,70
93,220,74738,2,0,P|89:257|108:292,1,70
294,321,75122,1,0,0:0:0:0:
311,159,75314,1,0,0:0:0:0:
358,331,75507,6,0,P|388:309|403:272,1,70
390,121,75891,2,0,P|368:90|331:75,1,70
173,75,76276,2,0,P|142:96|127:133,1,70
200,291,76661,1,0,0:0:0:0:
292,141,76853,1,0,0:0:0:0:
219,330,77045,6,0,P|255:340|293:327,1,70
394,228,77430,2,0,P|404:192|391:154,1,70
292,53,77814,2,0,P|256:43|218:56,1,70
184,217,78199,1,0,0:0:0:0:
326,160,78391,1,0,0:0:0:0:
126,253,78584,6,0,P|141:287|176:308,1,70
317,321,78968,2,0,P|351:306|372:271,1,70
385,130,79353,2,0,P|370:96|335:75,1,70
156,112,79737,1,0,0:0:0:0:
260,247,79930,1,0,0:0:0:0:
79,120,80122,6,0,P|62:153|69:193,1,70
179,287,80507,2,0,P|212:303|252:296,1,70
353,223,80891,2,0,P|369:189|362:149,1,70
155,190,81276,1,0,0:0:0:0:
137,115,81661,5,0,0:0:0:0:
256,192,82045,1,0,0:0:0:0:
256,192,82141,1,0,0:0:0:0:
256,192,82237,1,0,0:0:0:0:
256,192,82334,1,0,0:0:0:0:
256,192,82430,1,0,0:0:0:0:
73,147,83199,6,0,B|66:241|151:324|261:329,1,280
351,193,84353,1,0,0:0:0:0:
229,93,84545,1,0,0:0:0:0:
73,147,84737,6,0,B|66:241|151:324|261:329,1,280
270,127,85891,1,0,0:0:0:0:
228,331,86276,6,0,B|134:337|51:252|46:143,1,280
210,91,87430,1,0,0:0:0:0:
307,210,87622,1,0,0:0:0:0:
228,331,87814,6,0,B|134:337|51:252|46:143,1,280
342,257,88968,1,0,0:0:0:0:
230,94,89353,5,0,0:0:0:0:
217,295,89545,1,0,0:0:0:0:
352,133,89737,1,0,0:0:0:0:
150,198,89930,1,0,0:0:0:0:
342,257,90122,1,0,0:0:0:0:
230,94,90507,1,0,0:0:0:0:
256,194,90699,1,0,0:0:0:0:
256,194,90795,1,0,0:0:0:0:
256,194,90891,1,0,0:0:0:0:
255,66,91084,1,0,0:0:0:0:
256,194,91276,1,0,0:0:0:0:
390,191,91468,1,0,0:0:0:0:
256,194,91660,1,0,0:0:0:0:
201,108,92045,1,0,0:0:0:0:
359,234,92430,5,0,0:0:0:0:
158,222,92622,1,0,0:0:0:0:
327,118,92814,1,0,0:0:0:0:
252,307,93007,1,0,0:0:0:0:
201,108,93199,1,0,0:0:0:0:
357,235,93584,1,0,0:0:0:0:
256,193,93776,1,0,0:0:0:0:
256,193,93872,1,0,0:0:0:0:
256,193,93968,1,0,0:0:0:0:
257,322,94160,1,0,0:0:0:0:
256,193,94353,1,0,0:0:0:0:
123,192,94545,1,0,0:0:0:0:
256,193,94737,1,0,0:0:0:0:
296,120,95122,1,0,0:0:0:0:
228,331,95507,6,0,B|134:337|51:252|46:143,1,280
208,95,96660,1,0,0:0:0:0:
303,198,96853,1,0,0:0:0:0:
228,331,97045,6,0,B|134:337|51:252|46:143,1,280
257,133,98199,1,0,0:0:0:0:
46,149,98584,6,0,B|40:243|124:326|234:331,1,280
292,195,99737,1,0,0:0:0:0:
201,94,99930,1,0,0:0:0:0:
46,149,100122,6,0,B|40:243|124:326|234:331,1,280
318,115,101276,1,0,0:0:0:0:
169,236,101660,5,0,0:0:0:0:
367,220,101853,1,0,0:0:0:0:
201,122,102045,1,0,0:0:0:0:
280,296,102237,1,0,0:0:0:0:
318,115,102430,1,0,0:0:0:0:
170,236,102814,1,0,0:0:0:0:
256,193,103007,1,0,0:0:0:0:
256,193,103103,1,0,0:0:0:0:
256,193,103199,1,0,0:0:0:0:
107,192,103391,1,0,0:0:0:0:
256,193,103583,1,0,0:0:0:0:
256,51,103776,1,0,0:0:0:0:
256,193,103968,1,0,0:0:0:0:
321,274,104353,1,0,0:0:0:0:
245,100,104737,5,0,0:0:0:0:
198,275,104930,1,0,0:0:0:0:
351,154,105122,1,0,0:0:0:0:
141,171,105314,1,0,0:0:0:0:
321,274,105507,1,0,0:0:0:0:
245,101,105891,1,0,0:0:0:0:
256,191,106083,1,0,0:0:0:0:
256,191,106180,1,0,0:0:0:0:
256,191,106276,1,0,0:0:0:0:
395,192,106468,1,0,0:0:0:0:
256,191,106660,1,0,0:0:0:0:
257,327,106853,1,0,0:0:0:0:
256,191,107045,1,0,0:0:0:0:
423,280,107430,5,0,0:0:0:0:
155,102,107814,2,0,B|231:68|237:63|269:57|288:62|301:74|319:88|360:107|374:116|388:146|383:196|344:234|248:286|184:291|190:228|261:205|285:161|229:141|160:171|130:212|136:260|158:293|175:311,1,560
256,192,113968,12,0,118583,0:0:0:0:
107,60,120122,5,0,0:0:0:0:
154,118,120218,1,0,0:0:0:0:
206,174,120314,1,0,0:0:0:0:
261,5,120506,5,0,0:0:0:0:
255,81,120603,1,0,0:0:0:0:
248,154,120699,1,0,0:0:0:0:
413,67,120891,5,0,0:0:0:0:
345,121,120987,1,0,0:0:0:0:
281,170,121083,1,0,0:0:0:0:
450,282,121276,5,0,0:0:0:0:
382,241,121372,1,0,0:0:0:0:
314,205,121468,1,0,0:0:0:0:
353,374,121660,5,0,0:0:0:0:
309,312,121756,1,0,0:0:0:0:
273,249,121852,1,0,0:0:0:0:
139,383,122044,5,0,0:0:0:0:
184,320,122141,1,0,0:0:0:0:
225,257,122237,1,0,0:0:0:0:
33,220,122430,5,0,0:0:0:0:
106,217,122526,1,0,0:0:0:0:
181,216,122622,1,0,0:0:0:0:
111,142,122814,5,0,0:0:0:0:
258,69,123006,1,0,0:0:0:0:
392,164,123199,1,0,0:0:0:0:
297,328,123583,5,0,0:0:0:0:
92,304,123776,1,0,0:0:0:0:
76,119,123968,1,0,0:0:0:0:
253,40,124353,5,0,0:0:0:0:
409,175,124545,1,0,0:0:0:0:
307,335,124737,1,0,0:0:0:0:
129,301,125122,5,0,0:0:0:0:
107,109,125314,1,0,0:0:0:0:
282,49,125506,1,0,0:0:0:0:
255,191,125891,5,0,0:0:0:0:
147,64,126276,5,0,0:0:0:0:
121,86,126372,1,0,0:0:0:0:
101,110,126468,1,0,0:0:0:0:
85,137,126564,1,0,0:0:0:0:
75,168,126660,1,0,0:0:0:0:
71,199,126756,1,0,0:0:0:0:
77,229,126853,1,0,0:0:0:0:
94,255,126949,1,0,0:0:0:0:
112,276,127045,1,0,0:0:0:0:
133,295,127141,1,0,0:0:0:0:
162,311,127237,1,0,0:0:0:0:
192,322,127333,1,0,0:0:0:0:
225,328,127429,1,0,0:0:0:0:
264,327,127526,1,0,0:0:0:0:
294,320,127622,1,0,0:0:0:0:
329,306,127718,1,0,0:0:0:0:
351,279,127814,1,0,0:0:0:0:
356,242,127910,1,0,0:0:0:0:
354,214,128006,1,0,0:0:0:0:
332,173,128103,1,0,0:0:0:0:
297,147,128199,1,0,0:0:0:0:
250,136,128295,1,0,0:0:0:0:
193,137,128391,1,0,0:0:0:0:
150,165,128487,1,0,0:0:0:0:
136,217,128583,1,0,0:0:0:0:
171,257,128679,1,0,0:0:0:0:
225,277,128776,1,0,0:0:0:0:
277,271,128872,1,0,0:0:0:0:
307,237,128968,1,0,0:0:0:0:
309,190,129064,1,0,0:0:0:0:
287,148,129160,1,0,0:0:0:0:
288,98,129256,1,0,0:0:0:0:
323,65,129353,1,0,0:0:0:0:
371,58,129449,1,0,0:0:0:0:
415,74,129545,1,0,0:0:0:0:
447,106,129641,1,0,0:0:0:0:
458,150,129737,1,0,0:0:0:0:
453,192,129833,1,0,0:0:0:0:
439,233,129929,1,0,0:0:0:0:
408,268,130026,1,0,0:0:0:0:
362,281,130122,1,0,0:0:0:0:
313,289,130218,1,0,0:0:0:0:
269,282,130314,1,0,0:0:0:0:
230,255,130410,1,0,0:0:0:0:
199,229,130506,1,0,0:0:0:0:
184,185,130603,1,0,0:0:0:0:
182,137,130699,1,0,0:0:0:0:
210,91,130795,1,0,0:0:0:0:
250,64,130891,1,0,0:0:0:0:
291,39,130987,1,0,0:0:0:0:
344,41,131083,1,0,0:0:0:0:
391,63,131179,1,0,0:0:0:0:
427,104,131276,1,0,0:0:0:0:
431,155,131372,1,0,0:0:0:0:
388,249,131468,1,0,0:0:0:0:
417,206,131564,1,0,0:0:0:0:
344,284,131660,1,0,0:0:0:0:
292,305,131756,1,0,0:0:0:0:
238,309,131853,1,0,0:0:0:0:
190,300,131949,1,0,0:0:0:0:
150,265,132045,1,0,0:0:0:0:
127,217,132141,1,0,0:0:0:0:
125,167,132237,1,0,0:0:0:0:
140,112,132333,2,0,B|209:252|209:252|230:212|233:207|238:196|241:188|242:197|247:220|263:249|269:261|270:265|271:266|273:253|279:233|298:200|325:164|332:147|343:130|353:109,1,420
68,310,137429,5,0,0:0:0:0:
417,191,137814,1,0,0:0:0:0:
71,86,138199,1,0,0:0:0:0:
333,273,138583,5,0,0:0:0:0:
148,178,138968,5,0,0:0:0:0:
353,167,139160,1,0,0:0:0:0:
194,285,139352,1,0,0:0:0:0:
249,95,139545,1,0,0:0:0:0:
333,273,139737,1,0,0:0:0:0:
148,174,139929,1,0,0:0:0:0:
354,167,140122,1,0,0:0:0:0:
155,98,140506,5,0,0:0:0:0:
349,98,140699,1,0,0:0:0:0:
350,288,140891,1,0,0:0:0:0:
154,290,141083,1,0,0:0:0:0:
155,98,141276,1,0,0:0:0:0:
349,98,141468,1,0,0:0:0:0:
350,288,141660,1,0,0:0:0:0:
255,36,142045,5,0,0:0:0:0:
413,108,142237,1,0,0:0:0:0:
434,252,142429,1,0,0:0:0:0:
329,357,142622,1,0,0:0:0:0:
172,351,142814,1,0,0:0:0:0:
68,230,143006,1,0,0:0:0:0:
110,85,143199,1,0,0:0:0:0:
438,317,143583,5,0,0:0:0:0:
72,181,143968,1,0,0:0:0:0:
428,76,144352,1,0,0:0:0:0:
89,56,144737,6,0,B|23:124|34:241|116:316,1,280
256,230,145859,1,0,0:0:0:0:
255,88,146083,1,0,0:0:0:0:
413,47,146276,6,0,B|483:109|483:227|408:308,1,280
257,160,147429,1,0,0:0:0:0:
375,298,147814,6,0,B|312:368|194:368|113:293,1,280
390,95,149000,1,0,0:0:0:0:
118,97,149352,1,0,0:0:0:0:
56,324,149737,5,0,0:0:0:0:
438,177,150122,1,0,0:0:0:0:
57,75,150506,1,0,0:0:0:0:
255,191,150891,5,0,0:0:0:0:
256,40,151276,5,0,0:0:0:0:
103,99,151468,1,0,0:0:0:0:
78,252,151660,1,0,0:0:0:0:
177,367,151853,1,0,0:0:0:0:
323,367,152045,1,0,0:0:0:0:
437,267,152237,1,0,0:0:0:0:
418,109,152430,1,0,0:0:0:0:
349,286,152814,5,0,0:0:0:0:
154,290,153006,1,0,0:0:0:0:
153,98,153199,1,0,0:0:0:0:
346,97,153391,1,0,0:0:0:0:
349,286,153583,1,0,0:0:0:0:
154,290,153776,1,0,0:0:0:0:
153,98,153968,1,0,0:0:0:0:
342,266,154353,5,0,0:0:0:0:
227,84,154545,1,0,0:0:0:0:
218,287,154737,1,0,0:0:0:0:
358,128,154929,1,0,0:0:0:0:
135,187,155122,1,0,0:0:0:0:
343,265,155314,1,0,0:0:0:0:
227,84,155506,1,0,0:0:0:0:
388,77,156660,5,0,0:0:0:0:
95,80,157045,1,0,0:0:0:0:
255,110,157429,1,0,0:0:0:0:
188,174,157814,1,0,0:0:0:0:
175,261,158199,1,0,0:0:0:0:
248,326,158583,1,0,0:0:0:0:
350,323,158968,1,0,0:0:0:0:
419,265,159352,1,0,0:0:0:0:
426,180,159737,1,0,0:0:0:0:
164,96,160122,5,0,0:0:0:0:
393,217,160314,1,0,0:0:0:0:
135,243,160506,1,0,0:0:0:0:
323,83,160698,1,0,0:0:0:0:
275,332,160891,1,0,0:0:0:0:
164,96,161083,1,0,0:0:0:0:
394,216,161275,1,0,0:0:0:0:
135,244,161468,1,0,0:0:0:0:
322,84,161660,1,0,0:0:0:0:
276,333,161852,1,0,0:0:0:0:
154,83,162045,1,0,0:0:0:0:
411,242,162237,1,0,0:0:0:0:
112,249,162429,1,0,0:0:0:0:
352,86,162622,1,0,0:0:0:0:
276,333,162814,1,0,0:0:0:0:
154,83,163006,1,0,0:0:0:0:
411,242,163198,1,0,0:0:0:0:
112,249,163391,1,0,0:0:0:0:
352,86,163583,1,0,0:0:0:0:
276,333,163775,1,0,0:0:0:0:
154,83,163968,1,0,0:0:0:0:
411,242,164160,1,0,0:0:0:0:
111,248,164352,1,0,0:0:0:0:
352,86,164545,1,0,0:0:0:0:
276,333,164737,1,0,0:0:0:0:
154,83,164929,1,0,0:0:0:0:
410,242,165122,1,0,0:0:0:0:
109,249,165314,1,0,0:0:0:0:
353,89,165506,1,0,0:0:0:0:
273,332,165698,1,0,0:0:0:0:
154,84,165891,1,0,0:0:0:0:
410,241,166083,1,0,0:0:0:0:
108,248,166275,2,0,B|113:190|113:189|119:174|133:156|157:149|180:147|192:162|195:174|202:210|194:263|185:304|194:341|225:343|282:335|316:307|323:257|320:211|314:155|281:123|242:102|193:93|145:98|109:101|97:101|96:71|101:65|105:58|154:44|161:43|179:43|186:44|194:45|210:50|289:52|302:54|313:60|316:62|309:76|301:90|287:100|272:109|267:124|272:132|284:151|298:162|316:169|327:171|333:171|348:173|360:173|369:170|383:163|383:163,1,840
