osu file format v14

[General]
AudioFilename: audio.mp3
AudioLeadIn: 0
PreviewTime: -1
Countdown: 1
SampleSet: None
StackLeniency: 0.6
Mode: 0
LetterboxInBreaks: 0
WidescreenStoryboard: 1

[Editor]
Bookmarks: 22904,34332,45761,51475,74332,85761,97189,120046,125761,148618,171475
DistanceSpacing: 1
BeatDivisor: 4
GridSize: 32
TimelineZoom: 1

[Metadata]
Title:Thunder
TitleUnicode:Thunder
Artist:Imagine Dragons
ArtistUnicode:Imagine Dragons
Creator:Xarr
Version:thun
Source:
Tags:
BeatmapID:1440289
BeatmapSetID:676165

[Difficulty]
HPDrainRate:5
CircleSize:3.5
OverallDifficulty:5
ApproachRate:6
SliderMultiplier:0.999999999999999
SliderTickRate:1

[Events]
//Background and Video events
0,0,"wallhaven-97787.jpg",0,0
//Break Periods
//Storyboard Layer 0 (Background)
//Storyboard Layer 1 (Fail)
//Storyboard Layer 2 (Pass)
//Storyboard Layer 3 (Foreground)
//Storyboard Sound Samples

[TimingPoints]
47,357.142857142857,4,2,0,100,1,0
47,-100,4,2,0,100,0,0
22904,-90.9090909090909,4,2,0,100,0,1
34332,-83.3333333333333,4,2,0,100,0,1
45761,-100,4,2,0,100,0,0
74332,-100,4,2,0,100,0,1
97189,-100,4,2,0,100,0,0
125404,-100,4,2,0,100,0,1
171475,-100,4,2,0,100,0,0

[HitObjects]
299,151,47,5,0,0:0:0:0:
397,135,404,2,0,L|447:127,1,50
496,121,761,2,0,L|486:239,1,99.9999999999999
351,367,1832,6,0,P|362:336|364:305,1,50
361,269,2189,2,0,L|240:282,1,99.9999999999999
161,288,2904,5,0,0:0:0:0:
110,201,3261,2,0,P|133:192|158:188,1,50
208,193,3618,2,0,P|228:149|219:76,1,99.9999999999999
47,10,4689,6,0,L|37:80,1,50
34,109,5046,1,0,0:0:0:0:
21,208,5404,1,0,0:0:0:0:
104,263,5761,5,0,0:0:0:0:
118,164,6118,2,0,L|125:114,1,50
134,65,6475,2,0,B|170:49|170:49|245:64,1,99.9999999999999
333,169,7368,5,0,0:0:0:0:
333,169,7546,2,0,L|323:62,2,99.9999999999999
343,268,8618,5,0,0:0:0:0:
441,282,8975,2,0,B|445:250|432:225,1,50
416,186,9332,2,0,P|442:135|495:106,1,99.9999999999999
512,202,10046,6,0,L|501:301,1,99.9999999999999
403,276,10761,2,0,P|335:263|250:339,1,150
249,349,11475,5,0,0:0:0:0:
149,362,11832,2,0,L|99:370,1,50
50,376,12189,2,0,L|60:258,1,99.9999999999999
131,89,13261,6,0,L|138:176,1,50
139,188,13618,2,0,L|146:275,1,50
148,287,13975,1,0,0:0:0:0:
231,232,14332,5,0,0:0:0:0:
319,278,14689,2,0,P|344:287|373:286,1,50
416,276,15046,2,0,L|406:160,1,99.9999999999999
441,139,15582,5,0,0:0:0:0:
440,139,15761,2,0,P|459:93|452:38,1,99.9999999999999
362,81,16475,2,0,L|220:71,1,99.9999999999999
212,71,17011,5,0,0:0:0:0:
212,71,17189,2,0,B|188:103|188:103|195:168,1,99.9999999999999
206,262,17904,1,0,0:0:0:0:
112,297,18261,6,0,L|107:248,1,50
101,197,18618,2,0,L|90:80,1,99.9999999999999
146,13,19332,1,0,0:0:0:0:
203,107,19689,6,0,P|222:91|237:71,1,50
252,23,20046,2,0,L|267:131,1,99.9999999999999
282,220,20761,6,0,L|293:292,1,50
303,317,21118,1,0,0:0:0:0:
303,317,21296,1,0,0:0:0:0:
303,317,21475,2,0,P|353:308|401:329,1,99.9999999999999
476,264,22189,5,0,0:0:0:0:
396,58,22904,6,0,B|362:108|362:108|380:222,1,165.0000050354
388,265,23618,2,0,P|330:268|267:230,1,110.000003356934
191,187,24332,6,0,L|174:313,1,110.000003356934
77,248,25046,2,0,L|94:122,1,110.000003356934
31,46,25761,6,0,P|110:32|180:73,1,165.0000050354
202,124,26475,1,0,0:0:0:0:
307,91,26832,6,0,L|298:169,1,55.0000016784668
347,175,27189,2,0,L|338:253,1,55.0000016784668
389,255,27546,5,0,0:0:0:0:
475,323,27904,2,0,L|487:213,1,110.000003356934
498,104,28618,6,0,B|429:147|429:147|349:121,1,165.0000050354
296,104,29332,2,0,L|309:231,1,110.000003356934
340,318,30046,6,0,P|292:295|238:301,1,110.000003356934
141,355,30761,2,0,P|92:378|38:372,1,110.000003356934
72,267,31475,6,0,B|118:232|118:232|243:262,1,165.0000050354
275,271,32189,1,0,0:0:0:0:
332,177,32546,6,0,P|301:164|271:162,1,55.0000016784668
260,109,32904,2,0,P|226:113|199:126,1,55.0000016784668
170,162,33261,5,0,0:0:0:0:
82,95,33618,2,0,L|68:205,1,110.000003356934
1,303,34332,6,0,B|126:287|126:287|171:339,1,179.999994506836
199,374,35046,1,0,0:0:0:0:
263,272,35404,6,0,P|294:260|328:260,1,59.9999981689453
360,303,35761,2,0,P|423:341|483:337,1,119.999996337891
445,225,36475,5,0,0:0:0:0:
366,134,36832,5,0,0:0:0:0:
246,128,37189,5,0,0:0:0:0:
156,208,37546,6,0,L|142:88,2,119.999996337891
166,267,38439,5,0,0:0:0:0:
166,267,38618,2,0,P|226:257|286:288,1,119.999996337891
377,348,39332,2,0,L|390:204,1,119.999996337891
423,114,40046,6,0,B|333:90|343:167|248:145,1,179.999994506836
194,129,40761,2,0,P|154:76|103:58,1,119.999996337891
50,82,41296,1,0,0:0:0:0:
50,82,41475,2,0,L|72:212,1,119.999996337891
85,258,42011,1,0,0:0:0:0:
85,258,42189,5,0,0:0:0:0:
174,337,42546,5,0,0:0:0:0:
289,303,42904,5,0,0:0:0:0:
331,190,43261,6,0,P|378:225|405:278,2,119.999996337891
271,182,44154,1,0,0:0:0:0:
271,182,44332,6,0,L|280:106,1,59.9999981689453
227,89,44689,2,0,L|218:13,1,59.9999981689453
263,3,45046,5,0,0:0:0:0:
382,17,45404,1,0,0:0:0:0:
310,113,45761,6,0,L|197:102,1,99.9999999999999
111,91,46475,1,0,0:0:0:0:
149,183,46832,1,0,0:0:0:0:
0,204,47368,6,0,L|64:196,1,50
149,183,47904,1,0,0:0:0:0:
343,229,48618,6,0,L|230:218,1,99.9999999999999
169,286,49332,1,0,0:0:0:0:
149,183,49689,1,0,0:0:0:0:
2,215,50225,5,0,0:0:0:0:
2,215,50404,2,0,L|9:148,1,50
13,115,50761,1,0,0:0:0:0:
133,279,51475,6,0,L|140:218,1,50
