osu file format v14

[General]
AudioFilename: audio.mp3
AudioLeadIn: 0
PreviewTime: -1
Countdown: 1
SampleSet: Normal
StackLeniency: 0.7
Mode: 0
LetterboxInBreaks: 0
WidescreenStoryboard: 0

[Editor]
DistanceSpacing: 1
BeatDivisor: 4
GridSize: 8
TimelineZoom: 0.5

[Metadata]
Title:Monster
TitleUnicode:Monster
Artist:Imagine Dragons
ArtistUnicode:Imagine Dragons
Creator:Starlord9
Version:Normal
Source:
Tags:
BeatmapID:1514120
BeatmapSetID:716530

[Difficulty]
HPDrainRate:4
CircleSize:4
OverallDifficulty:4
ApproachRate:5
SliderMultiplier:1.4
SliderTickRate:1

[Events]
//Background and Video events
0,0,"94b69230-cfe8-0132-c08e-0e9062a7590a.png",0,0
//Break Periods
2,165378,207183
//Storyboard Layer 0 (Background)
//Storyboard Layer 1 (Fail)
//Storyboard Layer 2 (Pass)
//Storyboard Layer 3 (Foreground)
//Storyboard Sound Samples

[TimingPoints]
37871,512.820512820513,4,1,0,100,1,0

[HitObjects]
232,96,38383,6,0,L|512:128,1,280
176,136,40691,1,0,0:0:0:0:
32,120,41973,2,0,L|360:160,2,315
144,104,45435,1,0,0:0:0:0:
112,96,46717,1,0,0:0:0:0:
136,136,47614,1,0,0:0:0:0:
88,112,48640,2,0,B|328:184|312:176|400:64,1,350
80,144,51204,2,0,L|432:280,2,350
128,144,54665,1,0,0:0:0:0:
64,104,55691,2,0,L|296:208,1,245
104,144,57358,1,0,0:0:0:0:
104,96,58512,2,0,L|416:104,1,280
48,64,60691,5,0,0:0:0:0:
104,96,61717,2,0,L|416:104,1,280
64,144,63640,1,0,0:0:0:0:
56,72,64665,2,0,B|408:152|320:72|392:40|440:56,1,385
88,160,67358,2,0,L|384:296,3,315
152,136,72101,1,0,0:0:0:0:
80,104,73383,2,0,P|392:160|416:136,1,385
48,104,76204,2,0,L|392:200,2,350
152,104,80306,1,0,0:0:0:0:
72,128,81588,6,0,L|272:224,2,210
144,160,84153,1,0,0:0:0:0:
64,80,85306,2,0,L|368:104,1,280
104,192,87742,1,0,0:0:0:0:
64,80,88896,2,0,L|368:104,1,280
96,176,91332,1,0,0:0:0:0:
88,104,92486,2,0,L|480:248,1,385
128,184,95306,1,0,0:0:0:0:
88,120,96588,2,0,L|480:160,1,385
136,200,99409,1,0,0:0:0:0:
112,120,100691,2,0,L|448:120,1,315
176,128,103383,5,0,0:0:0:0:
24,88,104537,2,0,B|344:96|328:80|312:32,1,315
128,96,107229,1,0,0:0:0:0:
80,112,108768,2,0,L|400:240,2,315
144,112,112614,1,0,0:0:0:0:
48,80,114024,2,0,L|440:144,1,385
176,128,116845,5,0,0:0:0:0:
80,120,118127,2,0,L|432:168,1,350
56,112,121076,2,0,L|432:168,2,350
72,48,124922,2,0,L|400:216,1,350
144,144,127358,1,0,0:0:0:0:
96,96,128512,2,0,B|416:144|376:152|336:40,1,350
160,208,130691,1,0,0:0:0:0:
96,104,131717,2,0,L|472:160,1,350
192,144,133896,1,0,0:0:0:0:
136,128,134922,2,0,L|416:256,2,280
208,112,137742,1,0,0:0:0:0:
176,104,139153,5,0,0:0:0:0:
128,128,140435,1,0,0:0:0:0:
104,112,141460,2,0,L|472:168,1,350
104,120,143768,2,0,L|464:208,2,350
160,120,147229,1,0,0:0:0:0:
96,144,148255,2,0,L|384:208,1,280
120,144,150178,1,0,0:0:0:0:
56,128,150947,2,0,L|408:240,2,350
256,192,154153,12,0,156845,0:0:0:0:
112,88,157742,6,0,L|408:112,1,280
16,104,159794,2,0,L|416:184,1,385
48,160,162101,1,0,0:0:0:0:
80,160,163127,2,0,L|376:192,2,280
168,96,208383,5,0,0:0:0:0:
80,112,209281,2,0,L|400:240,2,315
96,104,212614,2,0,L|472:160,1,350
160,152,214794,1,0,0:0:0:0:
48,88,215947,2,0,L|336:248,2,315
112,144,219281,1,0,0:0:0:0:
160,144,220178,1,0,0:0:0:0:
256,192,221332,12,0,223127,0:0:0:0:
88,104,224281,6,0,B|456:144|360:48|208:32,1,385
88,128,226845,2,0,L|440:224,2,350
