osu file format v14

[General]
AudioFilename: audio.mp3
AudioLeadIn: 0
PreviewTime: 71849
Countdown: 0
SampleSet: Soft
StackLeniency: 0.7
Mode: 3
LetterboxInBreaks: 0
SpecialStyle: 0
WidescreenStoryboard: 1

[Editor]
DistanceSpacing: 1.5
BeatDivisor: 4
GridSize: 4
TimelineZoom: 2.5

[Metadata]
Title:Bones
TitleUnicode:Bones
Artist:Imagine Dragons
ArtistUnicode:Imagine Dragons
Creator:Reihynn
Version:Hard
Source:
Tags:Interscope KIDinaKORNER mercury – acts 1 & 2 The Boys amazon prime video eric kripke english pop rock alternative/indie dan reynolds wayne sermon ben mckee daniel platzman robin fredriksson mattias larsson mattman & robin cj chordjack hs handstream
BeatmapID:4131924
BeatmapSetID:1988996

[Difficulty]
HPDrainRate:7.5
CircleSize:4
OverallDifficulty:7.5
ApproachRate:5
SliderMultiplier:1.4
SliderTickRate:1

[Events]
//Background and Video events
0,0,"bones2.jpg",0,0
//Break Periods
//Storyboard Layer 0 (Background)
//Storyboard Layer 1 (Fail)
//Storyboard Layer 2 (Pass)
//Storyboard Layer 3 (Foreground)
//Storyboard Layer 4 (Overlay)
//Storyboard Sound Samples

[TimingPoints]
4491,526.315795898438,4,2,1,20,1,0
29754,-100,4,2,1,20,0,1
46596,-100,4,2,1,20,0,0
73964,-100,4,2,1,20,0,1
88701,-100,4,2,1,20,0,0
122385,-100,4,2,1,20,0,1
155543,-100,4,2,1,20,0,0

[HitObjects]
192,192,4491,5,0,0:0:0:0:
448,192,4622,1,0,0:0:0:0:
192,192,4754,1,0,0:0:0:0:
320,192,4885,1,0,0:0:0:0:
64,192,5017,1,0,0:0:0:0:
320,192,5148,1,0,0:0:0:0:
448,192,5280,1,0,0:0:0:0:
192,192,5543,1,0,0:0:0:0:
320,192,5806,1,0,0:0:0:0:
64,192,6069,1,0,0:0:0:0:
192,192,6596,1,0,0:0:0:0:
448,192,6859,1,0,0:0:0:0:
320,192,6991,1,0,0:0:0:0:
448,192,7122,1,0,0:0:0:0:
192,192,7385,1,0,0:0:0:0:
64,192,7648,1,0,0:0:0:0:
192,192,7780,1,0,0:0:0:0:
64,192,7912,1,0,0:0:0:0:
320,192,8175,1,0,0:0:0:0:
64,192,8701,1,0,0:0:0:0:
192,192,8964,1,0,0:0:0:0:
320,192,9096,1,0,0:0:0:0:
192,192,9227,1,0,0:0:0:0:
448,192,9491,1,0,0:0:0:0:
320,192,9754,1,0,0:0:0:0:
64,192,10017,1,0,0:0:0:0:
192,192,10280,1,0,0:0:0:0:
64,192,12912,1,0,0:0:0:0:
192,192,13043,1,0,0:0:0:0:
64,192,13175,1,0,0:0:0:0:
320,192,13306,1,0,0:0:0:0:
448,192,13438,1,0,0:0:0:0:
64,192,13701,1,0,0:0:0:0:
192,192,13964,1,0,0:0:0:0:
320,192,14227,1,0,0:0:0:0:
448,192,14491,1,0,0:0:0:0:
448,192,15017,1,0,0:0:0:0:
320,192,15148,1,0,0:0:0:0:
448,192,15280,1,0,0:0:0:0:
192,192,15412,1,0,0:0:0:0:
64,192,15543,1,0,0:0:0:0:
320,192,15806,1,0,0:0:0:0:
192,192,16069,1,0,0:0:0:0:
448,192,16333,1,0,0:0:0:0:
320,192,16596,1,0,0:0:0:0:
192,192,17122,1,0,0:0:0:0:
448,192,17254,1,0,0:0:0:0:
192,192,17385,1,0,0:0:0:0:
320,192,17517,1,0,0:0:0:0:
448,192,17648,1,0,0:0:0:0:
64,192,17912,1,0,0:0:0:0:
448,192,18175,1,0,0:0:0:0:
320,192,18438,1,0,0:0:0:0:
192,192,18701,1,0,0:0:0:0:
192,192,21069,1,0,0:0:0:0:
192,192,21333,1,0,0:0:0:0:
192,192,21727,1,0,0:0:0:0:
320,192,22122,1,0,0:0:0:0:
320,192,22385,1,0,0:0:0:0:
320,192,22780,1,0,0:0:0:0:
448,192,23175,1,0,0:0:0:0:
448,192,23438,1,0,0:0:0:0:
448,192,23833,1,0,0:0:0:0:
64,192,24227,1,0,0:0:0:0:
64,192,24491,1,0,0:0:0:0:
64,192,24885,1,0,0:0:0:0:
320,192,25280,1,0,0:0:0:0:
320,192,25543,1,0,0:0:0:0:
320,192,25938,1,0,0:0:0:0:
192,192,26333,1,0,0:0:0:0:
192,192,26596,1,0,0:0:0:0:
192,192,26991,1,0,0:0:0:0:
320,192,27385,1,0,0:0:0:0:
448,192,27648,1,0,0:0:0:0:
192,192,28043,1,0,0:0:0:0:
192,192,28438,1,0,0:0:0:0:
64,192,28701,1,0,0:0:0:0:
320,192,29096,1,0,0:0:0:0:
448,192,29754,1,0,0:0:0:0:
64,192,29754,1,0,0:0:0:0:
320,192,29885,1,0,0:0:0:0:
448,192,30017,1,0,0:0:0:0:
64,192,30017,1,0,0:0:0:0:
192,192,30148,1,0,0:0:0:0:
320,192,30280,1,0,0:0:0:0:
448,192,30280,1,0,0:0:0:0:
64,192,30280,1,0,0:0:0:0:
192,192,30412,1,0,0:0:0:0:
64,192,30543,1,0,0:0:0:0:
448,192,30543,1,0,0:0:0:0:
320,192,30675,1,0,0:0:0:0:
64,192,30806,1,0,0:0:0:0:
192,192,30806,1,0,0:0:0:0:
64,192,31333,1,0,0:0:0:0:
448,192,31333,1,0,0:0:0:0:
192,192,31333,1,0,0:0:0:0:
192,192,31596,1,0,0:0:0:0:
448,192,31859,1,0,0:0:0:0:
64,192,31859,1,0,0:0:0:0:
320,192,31991,1,0,0:0:0:0:
192,192,32122,1,0,0:0:0:0:
64,192,32122,1,0,0:0:0:0:
448,192,32254,1,0,0:0:0:0:
64,192,32385,1,0,0:0:0:0:
320,192,32385,1,0,0:0:0:0:
192,192,32385,1,0,0:0:0:0:
448,192,32517,1,0,0:0:0:0:
320,192,32648,1,0,0:0:0:0:
64,192,32648,1,0,0:0:0:0:
192,192,32780,1,0,0:0:0:0:
448,192,32912,1,0,0:0:0:0:
320,192,32912,1,0,0:0:0:0:
64,192,33438,1,0,0:0:0:0:
320,192,33438,1,0,0:0:0:0:
448,192,33438,1,0,0:0:0:0:
320,192,33701,1,0,0:0:0:0:
64,192,33964,1,0,0:0:0:0:
192,192,33964,1,0,0:0:0:0:
448,192,34096,1,0,0:0:0:0:
320,192,34227,1,0,0:0:0:0:
64,192,34227,1,0,0:0:0:0:
192,192,34359,1,0,0:0:0:0:
448,192,34491,1,0,0:0:0:0:
64,192,34491,1,0,0:0:0:0:
320,192,34491,1,0,0:0:0:0:
192,192,34622,1,0,0:0:0:0:
320,192,34754,1,0,0:0:0:0:
448,192,34754,1,0,0:0:0:0:
192,192,34885,1,0,0:0:0:0:
64,192,35017,1,0,0:0:0:0:
448,192,35017,1,0,0:0:0:0:
448,192,35543,1,0,0:0:0:0:
64,192,35543,1,0,0:0:0:0:
320,192,35543,1,0,0:0:0:0:
448,192,35806,1,0,0:0:0:0:
64,192,36069,1,0,0:0:0:0:
192,192,36069,1,0,0:0:0:0:
320,192,36201,1,0,0:0:0:0:
64,192,36333,1,0,0:0:0:0:
448,192,36333,1,0,0:0:0:0:
192,192,36464,1,0,0:0:0:0:
64,192,36596,1,0,0:0:0:0:
320,192,36596,1,0,0:0:0:0:
448,192,36596,1,0,0:0:0:0:
192,192,36727,1,0,0:0:0:0:
448,192,36859,1,0,0:0:0:0:
64,192,36859,1,0,0:0:0:0:
320,192,36991,1,0,0:0:0:0:
192,192,37122,1,0,0:0:0:0:
448,192,37122,1,0,0:0:0:0:
320,192,37385,1,0,0:0:0:0:
64,192,37648,1,0,0:0:0:0:
192,192,37648,1,0,0:0:0:0:
448,192,37648,1,0,0:0:0:0:
192,192,37912,1,0,0:0:0:0:
64,192,38175,1,0,0:0:0:0:
448,192,38175,1,0,0:0:0:0:
192,192,38306,1,0,0:0:0:0:
448,192,38438,1,0,0:0:0:0:
64,192,38438,1,0,0:0:0:0:
320,192,38569,1,0,0:0:0:0:
64,192,38701,1,0,0:0:0:0:
448,192,38701,1,0,0:0:0:0:
192,192,38701,1,0,0:0:0:0:
320,192,38833,1,0,0:0:0:0:
64,192,38964,1,0,0:0:0:0:
448,192,38964,1,0,0:0:0:0:
192,192,39096,1,0,0:0:0:0:
448,192,39227,1,0,0:0:0:0:
320,192,39227,1,0,0:0:0:0:
448,192,39754,1,0,0:0:0:0:
64,192,39754,1,0,0:0:0:0:
192,192,39754,1,0,0:0:0:0:
64,192,40017,1,0,0:0:0:0:
320,192,40280,1,0,0:0:0:0:
448,192,40280,1,0,0:0:0:0:
192,192,40412,1,0,0:0:0:0:
64,192,40543,1,0,0:0:0:0:
320,192,40543,1,0,0:0:0:0:
448,192,40675,1,0,0:0:0:0:
64,192,40806,1,0,0:0:0:0:
192,192,40806,1,0,0:0:0:0:
320,192,40806,1,0,0:0:0:0:
448,192,40938,1,0,0:0:0:0:
64,192,41069,1,0,0:0:0:0:
192,192,41069,1,0,0:0:0:0:
320,192,41201,1,0,0:0:0:0:
64,192,41333,1,0,0:0:0:0:
448,192,41333,1,0,0:0:0:0:
192,192,41859,1,0,0:0:0:0:
448,192,41859,1,0,0:0:0:0:
320,192,41859,1,0,0:0:0:0:
448,192,42122,1,0,0:0:0:0:
64,192,42385,1,0,0:0:0:0:
320,192,42385,1,0,0:0:0:0:
192,192,42517,1,0,0:0:0:0:
320,192,42648,1,0,0:0:0:0:
448,192,42648,1,0,0:0:0:0:
64,192,42780,1,0,0:0:0:0:
192,192,42912,1,0,0:0:0:0:
448,192,42912,1,0,0:0:0:0:
320,192,42912,1,0,0:0:0:0:
64,192,43043,1,0,0:0:0:0:
192,192,43175,1,0,0:0:0:0:
448,192,43175,1,0,0:0:0:0:
320,192,43306,1,0,0:0:0:0:
64,192,43438,1,0,0:0:0:0:
192,192,43438,1,0,0:0:0:0:
192,192,43964,1,0,0:0:0:0:
320,192,43964,1,0,0:0:0:0:
64,192,43964,1,0,0:0:0:0:
192,192,44227,1,0,0:0:0:0:
448,192,44491,1,0,0:0:0:0:
320,192,44491,1,0,0:0:0:0:
192,192,44622,1,0,0:0:0:0:
64,192,44754,1,0,0:0:0:0:
448,192,44754,1,0,0:0:0:0:
320,192,44885,1,0,0:0:0:0:
64,192,45017,1,0,0:0:0:0:
192,192,45017,1,0,0:0:0:0:
448,192,45017,1,0,0:0:0:0:
320,192,45148,1,0,0:0:0:0:
64,192,45280,1,0,0:0:0:0:
192,192,45280,1,0,0:0:0:0:
448,192,45412,1,0,0:0:0:0:
320,192,45543,1,0,0:0:0:0:
64,192,45543,1,0,0:0:0:0:
192,192,45806,1,0,0:0:0:0:
320,192,46069,1,0,0:0:0:0:
64,192,46069,1,0,0:0:0:0:
448,192,46069,1,0,0:0:0:0:
320,192,46596,1,0,0:0:0:0:
448,192,46596,1,0,0:0:0:0:
64,192,46727,1,0,0:0:0:0:
320,192,46859,1,0,0:0:0:0:
320,192,46991,1,0,0:0:0:0:
192,192,47122,1,0,0:0:0:0:
64,192,47122,1,0,0:0:0:0:
448,192,47122,1,0,0:0:0:0:
192,192,47385,1,0,0:0:0:0:
320,192,47385,1,0,0:0:0:0:
448,192,47648,1,0,0:0:0:0:
448,192,47912,1,0,0:0:0:0:
64,192,48175,1,0,0:0:0:0:
320,192,48175,1,0,0:0:0:0:
448,192,48175,1,0,0:0:0:0:
448,192,48701,1,0,0:0:0:0:
320,192,48701,1,0,0:0:0:0:
320,192,48833,1,0,0:0:0:0:
64,192,48964,1,0,0:0:0:0:
64,192,49096,1,0,0:0:0:0:
320,192,49227,1,0,0:0:0:0:
448,192,49227,1,0,0:0:0:0:
192,192,49227,1,0,0:0:0:0:
64,192,49491,1,0,0:0:0:0:
192,192,49491,1,0,0:0:0:0:
320,192,49754,1,0,0:0:0:0:
320,192,50017,1,0,0:0:0:0:
192,192,50280,1,0,0:0:0:0:
448,192,50280,1,0,0:0:0:0:
320,192,50280,1,0,0:0:0:0:
64,192,50806,1,0,0:0:0:0:
448,192,50806,1,0,0:0:0:0:
448,192,50938,1,0,0:0:0:0:
192,192,51069,1,0,0:0:0:0:
192,192,51201,1,0,0:0:0:0:
64,192,51333,1,0,0:0:0:0:
448,192,51333,1,0,0:0:0:0:
320,192,51333,1,0,0:0:0:0:
320,192,51596,1,0,0:0:0:0:
192,192,51596,1,0,0:0:0:0:
64,192,51859,1,0,0:0:0:0:
64,192,52122,1,0,0:0:0:0:
64,192,52385,1,0,0:0:0:0:
320,192,52385,1,0,0:0:0:0:
192,192,52385,1,0,0:0:0:0:
320,192,52912,1,0,0:0:0:0:
448,192,52912,1,0,0:0:0:0:
320,192,53175,1,0,0:0:0:0:
448,192,53175,1,0,0:0:0:0:
64,192,53438,1,0,0:0:0:0:
192,192,53438,1,0,0:0:0:0:
448,192,53438,1,0,0:0:0:0:
192,192,53701,1,0,0:0:0:0:
64,192,53701,1,0,0:0:0:0:
320,192,53964,1,0,0:0:0:0:
64,192,54227,1,0,0:0:0:0:
448,192,54227,1,0,0:0:0:0:
192,192,54491,1,0,0:0:0:0:
448,192,54491,1,0,0:0:0:0:
320,192,54491,1,0,0:0:0:0:
64,192,55017,1,0,0:0:0:0:
192,192,55017,1,0,0:0:0:0:
192,192,55148,1,0,0:0:0:0:
448,192,55280,1,0,0:0:0:0:
448,192,55412,1,0,0:0:0:0:
192,192,55543,1,0,0:0:0:0:
320,192,55543,1,0,0:0:0:0:
64,192,55543,1,0,0:0:0:0:
192,192,55806,1,0,0:0:0:0:
448,192,55806,1,0,0:0:0:0:
64,192,56069,1,0,0:0:0:0:
64,192,56333,1,0,0:0:0:0:
192,192,56596,1,0,0:0:0:0:
448,192,56596,1,0,0:0:0:0:
64,192,56596,1,0,0:0:0:0:
192,192,57122,1,0,0:0:0:0:
448,192,57122,1,0,0:0:0:0:
192,192,57254,1,0,0:0:0:0:
320,192,57385,1,0,0:0:0:0:
320,192,57517,1,0,0:0:0:0:
64,192,57648,1,0,0:0:0:0:
448,192,57648,1,0,0:0:0:0:
192,192,57648,1,0,0:0:0:0:
320,192,57912,1,0,0:0:0:0:
448,192,57912,1,0,0:0:0:0:
192,192,58175,1,0,0:0:0:0:
192,192,58438,1,0,0:0:0:0:
64,192,58701,1,0,0:0:0:0:
192,192,58701,1,0,0:0:0:0:
320,192,58701,1,0,0:0:0:0:
320,192,59227,1,0,0:0:0:0:
448,192,59227,1,0,0:0:0:0:
448,192,59359,1,0,0:0:0:0:
64,192,59491,1,0,0:0:0:0:
64,192,59622,1,0,0:0:0:0:
320,192,59754,1,0,0:0:0:0:
192,192,59754,1,0,0:0:0:0:
448,192,59754,1,0,0:0:0:0:
64,192,60017,1,0,0:0:0:0:
192,192,60017,1,0,0:0:0:0:
448,192,60280,1,0,0:0:0:0:
448,192,60543,1,0,0:0:0:0:
64,192,60806,1,0,0:0:0:0:
448,192,60806,1,0,0:0:0:0:
320,192,60806,1,0,0:0:0:0:
64,192,61333,1,0,0:0:0:0:
448,192,61333,1,0,0:0:0:0:
448,192,61464,1,0,0:0:0:0:
192,192,61596,1,0,0:0:0:0:
192,192,61727,1,0,0:0:0:0:
64,192,61859,1,0,0:0:0:0:
320,192,61859,1,0,0:0:0:0:
448,192,61859,1,0,0:0:0:0:
448,192,62122,1,0,0:0:0:0:
64,192,62122,1,0,0:0:0:0:
320,192,62385,1,0,0:0:0:0:
320,192,62648,1,0,0:0:0:0:
64,192,62648,1,0,0:0:0:0:
448,192,62912,1,0,0:0:0:0:
192,192,62912,1,0,0:0:0:0:
320,192,62912,1,0,0:0:0:0:
64,192,63175,1,0,0:0:0:0:
448,192,63438,1,0,0:0:0:0:
448,192,63833,1,0,0:0:0:0:
192,192,64227,1,0,0:0:0:0:
320,192,64491,1,0,0:0:0:0:
192,192,64885,1,0,0:0:0:0:
448,192,65280,1,0,0:0:0:0:
64,192,65543,1,0,0:0:0:0:
64,192,65938,1,0,0:0:0:0:
320,192,66333,1,0,0:0:0:0:
192,192,66596,1,0,0:0:0:0:
320,192,66991,1,0,0:0:0:0:
64,192,67385,1,0,0:0:0:0:
448,192,67648,1,0,0:0:0:0:
448,192,68043,1,0,0:0:0:0:
320,192,68438,1,0,0:0:0:0:
64,192,68701,1,0,0:0:0:0:
64,192,69096,1,0,0:0:0:0:
192,192,69491,1,0,0:0:0:0:
320,192,69754,1,0,0:0:0:0:
320,192,70148,1,0,0:0:0:0:
448,192,70543,1,0,0:0:0:0:
192,192,70806,1,0,0:0:0:0:
448,192,71201,1,0,0:0:0:0:
64,192,71859,1,0,0:0:0:0:
320,192,71991,1,0,0:0:0:0:
64,192,72122,1,0,0:0:0:0:
448,192,72254,1,0,0:0:0:0:
64,192,72385,1,0,0:0:0:0:
320,192,72517,1,0,0:0:0:0:
64,192,72648,1,0,0:0:0:0:
448,192,72780,1,0,0:0:0:0:
64,192,72912,1,0,0:0:0:0:
192,192,72912,1,0,0:0:0:0:
320,192,73438,1,0,0:0:0:0:
448,192,73438,1,0,0:0:0:0:
64,192,73438,1,0,0:0:0:0:
320,192,73701,1,0,0:0:0:0:
64,192,73964,1,0,0:0:0:0:
192,192,73964,1,0,0:0:0:0:
448,192,74096,1,0,0:0:0:0:
64,192,74227,1,0,0:0:0:0:
320,192,74227,1,0,0:0:0:0:
192,192,74359,1,0,0:0:0:0:
320,192,74491,1,0,0:0:0:0:
448,192,74491,1,0,0:0:0:0:
64,192,74491,1,0,0:0:0:0:
192,192,74622,1,0,0:0:0:0:
320,192,74754,1,0,0:0:0:0:
448,192,74754,1,0,0:0:0:0:
64,192,74885,1,0,0:0:0:0:
192,192,75017,1,0,0:0:0:0:
448,192,75017,1,0,0:0:0:0:
64,192,75543,1,0,0:0:0:0:
320,192,75543,1,0,0:0:0:0:
192,192,75543,1,0,0:0:0:0:
192,192,75806,1,0,0:0:0:0:
448,192,76069,1,0,0:0:0:0:
64,192,76069,1,0,0:0:0:0:
320,192,76201,1,0,0:0:0:0:
192,192,76333,1,0,0:0:0:0:
448,192,76333,1,0,0:0:0:0:
64,192,76464,1,0,0:0:0:0:
320,192,76596,1,0,0:0:0:0:
448,192,76596,1,0,0:0:0:0:
192,192,76596,1,0,0:0:0:0:
64,192,76727,1,0,0:0:0:0:
320,192,76859,1,0,0:0:0:0:
448,192,76859,1,0,0:0:0:0:
64,192,76991,1,0,0:0:0:0:
448,192,77122,1,0,0:0:0:0:
192,192,77122,1,0,0:0:0:0:
64,192,77648,1,0,0:0:0:0:
320,192,77648,1,0,0:0:0:0:
448,192,77648,1,0,0:0:0:0:
448,192,77912,1,0,0:0:0:0:
64,192,78175,1,0,0:0:0:0:
192,192,78175,1,0,0:0:0:0:
320,192,78306,1,0,0:0:0:0:
64,192,78438,1,0,0:0:0:0:
448,192,78438,1,0,0:0:0:0:
192,192,78569,1,0,0:0:0:0:
448,192,78701,1,0,0:0:0:0:
64,192,78701,1,0,0:0:0:0:
320,192,78701,1,0,0:0:0:0:
192,192,78833,1,0,0:0:0:0:
448,192,78964,1,0,0:0:0:0:
320,192,78964,1,0,0:0:0:0:
64,192,79096,1,0,0:0:0:0:
192,192,79227,1,0,0:0:0:0:
448,192,79227,1,0,0:0:0:0:
320,192,79491,1,0,0:0:0:0:
64,192,79754,1,0,0:0:0:0:
320,192,79754,1,0,0:0:0:0:
448,192,79754,1,0,0:0:0:0:
192,192,80017,1,0,0:0:0:0:
64,192,80280,1,0,0:0:0:0:
448,192,80280,1,0,0:0:0:0:
192,192,80412,1,0,0:0:0:0:
64,192,80543,1,0,0:0:0:0:
448,192,80543,1,0,0:0:0:0:
320,192,80675,1,0,0:0:0:0:
448,192,80806,1,0,0:0:0:0:
64,192,80806,1,0,0:0:0:0:
192,192,80806,1,0,0:0:0:0:
320,192,80938,1,0,0:0:0:0:
448,192,81069,1,0,0:0:0:0:
64,192,81069,1,0,0:0:0:0:
192,192,81201,1,0,0:0:0:0:
320,192,81333,1,0,0:0:0:0:
448,192,81333,1,0,0:0:0:0:
448,192,81859,1,0,0:0:0:0:
64,192,81859,1,0,0:0:0:0:
320,192,81859,1,0,0:0:0:0:
64,192,82122,1,0,0:0:0:0:
448,192,82385,1,0,0:0:0:0:
320,192,82385,1,0,0:0:0:0:
192,192,82517,1,0,0:0:0:0:
320,192,82648,1,0,0:0:0:0:
64,192,82648,1,0,0:0:0:0:
448,192,82780,1,0,0:0:0:0:
320,192,82912,1,0,0:0:0:0:
64,192,82912,1,0,0:0:0:0:
192,192,82912,1,0,0:0:0:0:
448,192,83043,1,0,0:0:0:0:
64,192,83175,1,0,0:0:0:0:
192,192,83175,1,0,0:0:0:0:
320,192,83306,1,0,0:0:0:0:
448,192,83438,1,0,0:0:0:0:
192,192,83438,1,0,0:0:0:0:
192,192,83964,1,0,0:0:0:0:
320,192,83964,1,0,0:0:0:0:
64,192,83964,1,0,0:0:0:0:
192,192,84227,1,0,0:0:0:0:
320,192,84491,1,0,0:0:0:0:
448,192,84491,1,0,0:0:0:0:
64,192,84622,1,0,0:0:0:0:
448,192,84754,1,0,0:0:0:0:
320,192,84754,1,0,0:0:0:0:
192,192,84885,1,0,0:0:0:0:
64,192,85017,1,0,0:0:0:0:
448,192,85017,1,0,0:0:0:0:
320,192,85017,1,0,0:0:0:0:
192,192,85148,1,0,0:0:0:0:
64,192,85280,1,0,0:0:0:0:
448,192,85280,1,0,0:0:0:0:
320,192,85412,1,0,0:0:0:0:
64,192,85543,1,0,0:0:0:0:
192,192,85543,1,0,0:0:0:0:
192,192,86069,1,0,0:0:0:0:
448,192,86069,1,0,0:0:0:0:
64,192,86069,1,0,0:0:0:0:
192,192,86333,1,0,0:0:0:0:
320,192,86596,1,0,0:0:0:0:
448,192,86596,1,0,0:0:0:0:
192,192,86727,1,0,0:0:0:0:
448,192,86859,1,0,0:0:0:0:
64,192,86859,1,0,0:0:0:0:
320,192,86991,1,0,0:0:0:0:
448,192,87122,1,0,0:0:0:0:
192,192,87122,1,0,0:0:0:0:
64,192,87122,1,0,0:0:0:0:
320,192,87254,1,0,0:0:0:0:
64,192,87385,1,0,0:0:0:0:
192,192,87385,1,0,0:0:0:0:
448,192,87517,1,0,0:0:0:0:
64,192,87648,1,0,0:0:0:0:
320,192,87648,1,0,0:0:0:0:
192,192,87912,1,0,0:0:0:0:
64,192,88175,1,0,0:0:0:0:
192,192,88175,1,0,0:0:0:0:
448,192,88175,1,0,0:0:0:0:
320,192,88438,1,0,0:0:0:0:
320,192,88701,1,0,0:0:0:0:
448,192,88701,1,0,0:0:0:0:
192,192,88964,1,0,0:0:0:0:
192,192,89227,1,0,0:0:0:0:
64,192,89227,1,0,0:0:0:0:
448,192,89227,1,0,0:0:0:0:
320,192,89491,1,0,0:0:0:0:
448,192,89491,1,0,0:0:0:0:
64,192,89754,1,0,0:0:0:0:
448,192,90017,1,0,0:0:0:0:
64,192,90280,1,0,0:0:0:0:
320,192,90280,1,0,0:0:0:0:
448,192,90280,1,0,0:0:0:0:
192,192,90543,1,0,0:0:0:0:
64,192,90806,1,0,0:0:0:0:
448,192,90806,1,0,0:0:0:0:
192,192,91069,1,0,0:0:0:0:
64,192,91333,1,0,0:0:0:0:
320,192,91333,1,0,0:0:0:0:
448,192,91333,1,0,0:0:0:0:
320,192,91596,1,0,0:0:0:0:
192,192,91596,1,0,0:0:0:0:
64,192,91859,1,0,0:0:0:0:
192,192,92122,1,0,0:0:0:0:
64,192,92385,1,0,0:0:0:0:
192,192,92385,1,0,0:0:0:0:
448,192,92385,1,0,0:0:0:0:
320,192,92648,1,0,0:0:0:0:
64,192,92912,1,0,0:0:0:0:
448,192,92912,1,0,0:0:0:0:
320,192,93175,1,0,0:0:0:0:
64,192,93438,1,0,0:0:0:0:
192,192,93438,1,0,0:0:0:0:
448,192,93438,1,0,0:0:0:0:
320,192,93701,1,0,0:0:0:0:
448,192,93701,1,0,0:0:0:0:
64,192,93964,1,0,0:0:0:0:
192,192,94227,1,0,0:0:0:0:
192,192,94491,1,0,0:0:0:0:
64,192,94491,1,0,0:0:0:0:
448,192,94491,1,0,0:0:0:0:
320,192,94622,1,0,0:0:0:0:
448,192,94754,1,0,0:0:0:0:
64,192,94754,1,0,0:0:0:0:
192,192,94885,1,0,0:0:0:0:
64,192,95017,1,0,0:0:0:0:
448,192,95017,1,0,0:0:0:0:
320,192,95148,1,0,0:0:0:0:
64,192,95280,1,0,0:0:0:0:
192,192,95280,1,0,0:0:0:0:
448,192,95412,1,0,0:0:0:0:
320,192,95543,1,0,0:0:0:0:
64,192,95543,1,0,0:0:0:0:
192,192,95543,1,0,0:0:0:0:
448,192,95675,1,0,0:0:0:0:
64,192,95806,1,0,0:0:0:0:
192,192,95806,1,0,0:0:0:0:
320,192,95938,1,0,0:0:0:0:
64,192,96069,1,0,0:0:0:0:
448,192,96069,1,0,0:0:0:0:
192,192,96333,1,0,0:0:0:0:
320,192,96596,1,0,0:0:0:0:
64,192,96596,1,0,0:0:0:0:
448,192,96596,1,0,0:0:0:0:
192,192,96727,1,0,0:0:0:0:
448,192,96859,1,0,0:0:0:0:
64,192,96991,1,0,0:0:0:0:
192,192,97254,1,0,0:0:0:0:
320,192,97517,1,0,0:0:0:0:
448,192,97780,1,0,0:0:0:0:
64,192,98043,1,0,0:0:0:0:
64,192,98701,1,0,0:0:0:0:
192,192,98833,1,0,0:0:0:0:
64,192,98964,1,0,0:0:0:0:
448,192,99096,1,0,0:0:0:0:
320,192,99359,1,0,0:0:0:0:
192,192,99622,1,0,0:0:0:0:
64,192,99885,1,0,0:0:0:0:
448,192,100148,1,0,0:0:0:0:
448,192,100806,1,0,0:0:0:0:
320,192,100938,1,0,0:0:0:0:
448,192,101069,1,0,0:0:0:0:
64,192,101201,1,0,0:0:0:0:
320,192,101464,1,0,0:0:0:0:
192,192,101727,1,0,0:0:0:0:
448,192,101991,1,0,0:0:0:0:
320,192,102254,1,0,0:0:0:0:
64,192,102517,1,0,0:0:0:0:
192,192,102780,1,0,0:0:0:0:
320,192,103043,1,0,0:0:0:0:
448,192,103306,1,0,0:0:0:0:
192,192,105017,1,0,0:0:0:0:
64,192,105148,1,0,0:0:0:0:
192,192,105280,1,0,0:0:0:0:
448,192,105412,1,0,0:0:0:0:
320,192,105675,1,0,0:0:0:0:
192,192,105938,1,0,0:0:0:0:
64,192,106201,1,0,0:0:0:0:
448,192,106464,1,0,0:0:0:0:
320,192,107122,1,0,0:0:0:0:
448,192,107254,1,0,0:0:0:0:
320,192,107385,1,0,0:0:0:0:
64,192,107517,1,0,0:0:0:0:
192,192,107780,1,0,0:0:0:0:
320,192,108043,1,0,0:0:0:0:
448,192,108306,1,0,0:0:0:0:
64,192,108569,1,0,0:0:0:0:
320,192,109227,1,0,0:0:0:0:
64,192,109359,1,0,0:0:0:0:
448,192,109491,1,0,0:0:0:0:
192,192,109622,1,0,0:0:0:0:
320,192,109885,1,0,0:0:0:0:
64,192,110148,1,0,0:0:0:0:
448,192,110412,1,0,0:0:0:0:
320,192,110675,1,0,0:0:0:0:
192,192,110938,1,0,0:0:0:0:
448,192,111201,1,0,0:0:0:0:
192,192,111464,1,0,0:0:0:0:
64,192,111727,1,0,0:0:0:0:
320,192,113701,1,0,0:0:0:0:
64,192,113964,1,0,0:0:0:0:
64,192,114359,1,0,0:0:0:0:
320,192,114754,1,0,0:0:0:0:
192,192,115017,1,0,0:0:0:0:
320,192,115412,1,0,0:0:0:0:
320,192,115806,1,0,0:0:0:0:
320,192,116069,1,0,0:0:0:0:
192,192,116464,1,0,0:0:0:0:
192,192,116859,1,0,0:0:0:0:
192,192,117122,1,0,0:0:0:0:
448,192,117517,1,0,0:0:0:0:
448,192,117912,1,0,0:0:0:0:
192,192,118175,1,0,0:0:0:0:
320,192,118569,1,0,0:0:0:0:
320,192,118964,1,0,0:0:0:0:
64,192,119227,1,0,0:0:0:0:
320,192,119622,1,0,0:0:0:0:
192,192,120017,1,0,0:0:0:0:
192,192,120280,1,0,0:0:0:0:
320,192,120675,1,0,0:0:0:0:
320,192,121069,1,0,0:0:0:0:
448,192,121333,1,0,0:0:0:0:
192,192,121596,1,0,0:0:0:0:
64,192,121596,1,0,0:0:0:0:
64,192,121859,1,0,0:0:0:0:
320,192,121859,1,0,0:0:0:0:
448,192,121859,1,0,0:0:0:0:
192,192,122122,1,0,0:0:0:0:
320,192,122122,1,0,0:0:0:0:
64,192,122385,1,0,0:0:0:0:
448,192,122385,1,0,0:0:0:0:
192,192,122517,1,0,0:0:0:0:
64,192,122648,1,0,0:0:0:0:
448,192,122648,1,0,0:0:0:0:
320,192,122780,1,0,0:0:0:0:
448,192,122912,1,0,0:0:0:0:
64,192,122912,1,0,0:0:0:0:
192,192,122912,1,0,0:0:0:0:
320,192,123043,1,0,0:0:0:0:
64,192,123175,1,0,0:0:0:0:
448,192,123175,1,0,0:0:0:0:
192,192,123306,1,0,0:0:0:0:
320,192,123438,1,0,0:0:0:0:
448,192,123438,1,0,0:0:0:0:
64,192,123964,1,0,0:0:0:0:
192,192,123964,1,0,0:0:0:0:
448,192,123964,1,0,0:0:0:0:
64,192,124227,1,0,0:0:0:0:
320,192,124491,1,0,0:0:0:0:
448,192,124491,1,0,0:0:0:0:
64,192,124622,1,0,0:0:0:0:
448,192,124754,1,0,0:0:0:0:
192,192,124754,1,0,0:0:0:0:
320,192,124885,1,0,0:0:0:0:
64,192,125017,1,0,0:0:0:0:
192,192,125017,1,0,0:0:0:0:
448,192,125017,1,0,0:0:0:0:
320,192,125148,1,0,0:0:0:0:
64,192,125280,1,0,0:0:0:0:
192,192,125280,1,0,0:0:0:0:
320,192,125412,1,0,0:0:0:0:
64,192,125543,1,0,0:0:0:0:
448,192,125543,1,0,0:0:0:0:
320,192,126069,1,0,0:0:0:0:
448,192,126069,1,0,0:0:0:0:
64,192,126069,1,0,0:0:0:0:
448,192,126333,1,0,0:0:0:0:
64,192,126596,1,0,0:0:0:0:
320,192,126596,1,0,0:0:0:0:
192,192,126727,1,0,0:0:0:0:
320,192,126859,1,0,0:0:0:0:
448,192,126859,1,0,0:0:0:0:
64,192,126991,1,0,0:0:0:0:
320,192,127122,1,0,0:0:0:0:
192,192,127122,1,0,0:0:0:0:
448,192,127122,1,0,0:0:0:0:
64,192,127254,1,0,0:0:0:0:
192,192,127385,1,0,0:0:0:0:
448,192,127385,1,0,0:0:0:0:
320,192,127517,1,0,0:0:0:0:
192,192,127648,1,0,0:0:0:0:
64,192,127648,1,0,0:0:0:0:
64,192,128175,1,0,0:0:0:0:
320,192,128175,1,0,0:0:0:0:
192,192,128175,1,0,0:0:0:0:
192,192,128438,1,0,0:0:0:0:
448,192,128701,1,0,0:0:0:0:
64,192,128701,1,0,0:0:0:0:
320,192,128833,1,0,0:0:0:0:
192,192,128964,1,0,0:0:0:0:
448,192,128964,1,0,0:0:0:0:
64,192,129096,1,0,0:0:0:0:
320,192,129227,1,0,0:0:0:0:
448,192,129227,1,0,0:0:0:0:
192,192,129227,1,0,0:0:0:0:
64,192,129359,1,0,0:0:0:0:
320,192,129491,1,0,0:0:0:0:
448,192,129491,1,0,0:0:0:0:
64,192,129622,1,0,0:0:0:0:
192,192,129754,1,0,0:0:0:0:
448,192,129754,1,0,0:0:0:0:
320,192,130017,1,0,0:0:0:0:
64,192,130280,1,0,0:0:0:0:
448,192,130280,1,0,0:0:0:0:
320,192,130280,1,0,0:0:0:0:
192,192,130543,1,0,0:0:0:0:
64,192,130806,1,0,0:0:0:0:
448,192,130806,1,0,0:0:0:0:
320,192,130938,1,0,0:0:0:0:
64,192,131069,1,0,0:0:0:0:
448,192,131069,1,0,0:0:0:0:
192,192,131201,1,0,0:0:0:0:
64,192,131333,1,0,0:0:0:0:
320,192,131333,1,0,0:0:0:0:
448,192,131333,1,0,0:0:0:0:
192,192,131464,1,0,0:0:0:0:
64,192,131596,1,0,0:0:0:0:
448,192,131596,1,0,0:0:0:0:
320,192,131727,1,0,0:0:0:0:
64,192,131859,1,0,0:0:0:0:
192,192,131859,1,0,0:0:0:0:
320,192,132385,1,0,0:0:0:0:
448,192,132385,1,0,0:0:0:0:
64,192,132385,1,0,0:0:0:0:
320,192,132648,1,0,0:0:0:0:
64,192,132912,1,0,0:0:0:0:
192,192,132912,1,0,0:0:0:0:
448,192,133043,1,0,0:0:0:0:
192,192,133175,1,0,0:0:0:0:
320,192,133175,1,0,0:0:0:0:
64,192,133306,1,0,0:0:0:0:
320,192,133438,1,0,0:0:0:0:
448,192,133438,1,0,0:0:0:0:
192,192,133438,1,0,0:0:0:0:
64,192,133569,1,0,0:0:0:0:
448,192,133701,1,0,0:0:0:0:
320,192,133701,1,0,0:0:0:0:
192,192,133833,1,0,0:0:0:0:
64,192,133964,1,0,0:0:0:0:
320,192,133964,1,0,0:0:0:0:
64,192,134491,1,0,0:0:0:0:
192,192,134491,1,0,0:0:0:0:
448,192,134491,1,0,0:0:0:0:
64,192,134754,1,0,0:0:0:0:
320,192,135017,1,0,0:0:0:0:
448,192,135017,1,0,0:0:0:0:
64,192,135148,1,0,0:0:0:0:
192,192,135280,1,0,0:0:0:0:
448,192,135280,1,0,0:0:0:0:
320,192,135412,1,0,0:0:0:0:
64,192,135543,1,0,0:0:0:0:
192,192,135543,1,0,0:0:0:0:
448,192,135543,1,0,0:0:0:0:
320,192,135675,1,0,0:0:0:0:
448,192,135806,1,0,0:0:0:0:
64,192,135806,1,0,0:0:0:0:
192,192,135938,1,0,0:0:0:0:
64,192,136069,1,0,0:0:0:0:
320,192,136069,1,0,0:0:0:0:
192,192,136596,1,0,0:0:0:0:
448,192,136596,1,0,0:0:0:0:
320,192,136596,1,0,0:0:0:0:
320,192,136859,1,0,0:0:0:0:
64,192,137122,1,0,0:0:0:0:
192,192,137122,1,0,0:0:0:0:
320,192,137254,1,0,0:0:0:0:
448,192,137385,1,0,0:0:0:0:
64,192,137385,1,0,0:0:0:0:
320,192,137517,1,0,0:0:0:0:
64,192,137648,1,0,0:0:0:0:
192,192,137648,1,0,0:0:0:0:
448,192,137648,1,0,0:0:0:0:
320,192,137780,1,0,0:0:0:0:
192,192,137912,1,0,0:0:0:0:
64,192,138175,1,0,0:0:0:0:
320,192,138175,1,0,0:0:0:0:
448,192,138306,1,0,0:0:0:0:
192,192,138438,1,0,0:0:0:0:
448,192,138701,1,0,0:0:0:0:
192,192,138701,1,0,0:0:0:0:
320,192,138701,1,0,0:0:0:0:
64,192,138833,1,0,0:0:0:0:
320,192,138964,1,0,0:0:0:0:
192,192,139096,1,0,0:0:0:0:
448,192,139227,1,0,0:0:0:0:
64,192,139227,1,0,0:0:0:0:
320,192,139359,1,0,0:0:0:0:
192,192,139491,1,0,0:0:0:0:
320,192,139622,1,0,0:0:0:0:
448,192,139754,1,0,0:0:0:0:
64,192,139754,1,0,0:0:0:0:
192,192,139754,1,0,0:0:0:0:
320,192,139885,1,0,0:0:0:0:
64,192,140017,1,0,0:0:0:0:
192,192,140148,1,0,0:0:0:0:
448,192,140280,1,0,0:0:0:0:
320,192,140280,1,0,0:0:0:0:
64,192,140806,1,0,0:0:0:0:
320,192,140806,1,0,0:0:0:0:
448,192,140806,1,0,0:0:0:0:
192,192,140938,1,0,0:0:0:0:
448,192,141069,1,0,0:0:0:0:
320,192,141201,1,0,0:0:0:0:
64,192,141333,1,0,0:0:0:0:
448,192,141333,1,0,0:0:0:0:
192,192,141464,1,0,0:0:0:0:
320,192,141596,1,0,0:0:0:0:
64,192,141727,1,0,0:0:0:0:
192,192,141859,1,0,0:0:0:0:
320,192,141859,1,0,0:0:0:0:
448,192,141859,1,0,0:0:0:0:
64,192,141991,1,0,0:0:0:0:
320,192,142122,1,0,0:0:0:0:
64,192,142385,1,0,0:0:0:0:
192,192,142385,1,0,0:0:0:0:
320,192,142648,1,0,0:0:0:0:
448,192,142648,1,0,0:0:0:0:
192,192,142912,1,0,0:0:0:0:
448,192,142912,1,0,0:0:0:0:
64,192,142912,1,0,0:0:0:0:
320,192,143175,1,0,0:0:0:0:
192,192,143175,1,0,0:0:0:0:
448,192,143438,1,0,0:0:0:0:
64,192,143438,1,0,0:0:0:0:
320,192,143569,1,0,0:0:0:0:
64,192,143701,1,0,0:0:0:0:
320,192,143833,1,0,0:0:0:0:
448,192,143964,1,0,0:0:0:0:
64,192,143964,1,0,0:0:0:0:
192,192,143964,1,0,0:0:0:0:
320,192,144096,1,0,0:0:0:0:
64,192,144227,1,0,0:0:0:0:
320,192,144359,1,0,0:0:0:0:
448,192,144491,1,0,0:0:0:0:
192,192,144491,1,0,0:0:0:0:
64,192,145017,1,0,0:0:0:0:
320,192,145017,1,0,0:0:0:0:
448,192,145017,1,0,0:0:0:0:
192,192,145280,1,0,0:0:0:0:
64,192,145543,1,0,0:0:0:0:
192,192,145543,1,0,0:0:0:0:
320,192,145543,1,0,0:0:0:0:
64,192,145806,1,0,0:0:0:0:
448,192,145806,1,0,0:0:0:0:
192,192,146069,1,0,0:0:0:0:
448,192,146069,1,0,0:0:0:0:
64,192,146069,1,0,0:0:0:0:
320,192,146201,1,0,0:0:0:0:
192,192,146333,1,0,0:0:0:0:
64,192,146596,1,0,0:0:0:0:
320,192,146596,1,0,0:0:0:0:
448,192,146727,1,0,0:0:0:0:
192,192,146859,1,0,0:0:0:0:
192,192,147122,1,0,0:0:0:0:
64,192,147122,1,0,0:0:0:0:
320,192,147122,1,0,0:0:0:0:
448,192,147254,1,0,0:0:0:0:
192,192,147385,1,0,0:0:0:0:
320,192,147517,1,0,0:0:0:0:
448,192,147648,1,0,0:0:0:0:
64,192,147648,1,0,0:0:0:0:
192,192,147780,1,0,0:0:0:0:
320,192,147912,1,0,0:0:0:0:
192,192,148043,1,0,0:0:0:0:
64,192,148175,1,0,0:0:0:0:
448,192,148175,1,0,0:0:0:0:
320,192,148175,1,0,0:0:0:0:
192,192,148306,1,0,0:0:0:0:
448,192,148438,1,0,0:0:0:0:
320,192,148569,1,0,0:0:0:0:
192,192,148701,1,0,0:0:0:0:
64,192,148701,1,0,0:0:0:0:
320,192,149227,1,0,0:0:0:0:
64,192,149227,1,0,0:0:0:0:
448,192,149227,1,0,0:0:0:0:
192,192,149359,1,0,0:0:0:0:
64,192,149491,1,0,0:0:0:0:
320,192,149622,1,0,0:0:0:0:
192,192,149754,1,0,0:0:0:0:
448,192,149754,1,0,0:0:0:0:
64,192,149885,1,0,0:0:0:0:
320,192,150017,1,0,0:0:0:0:
448,192,150148,1,0,0:0:0:0:
64,192,150280,1,0,0:0:0:0:
320,192,150280,1,0,0:0:0:0:
192,192,150280,1,0,0:0:0:0:
448,192,150412,1,0,0:0:0:0:
192,192,150543,1,0,0:0:0:0:
64,192,150806,1,0,0:0:0:0:
320,192,150806,1,0,0:0:0:0:
448,192,151069,1,0,0:0:0:0:
192,192,151069,1,0,0:0:0:0:
64,192,151333,1,0,0:0:0:0:
320,192,151333,1,0,0:0:0:0:
192,192,151333,1,0,0:0:0:0:
448,192,151596,1,0,0:0:0:0:
64,192,151596,1,0,0:0:0:0:
448,192,151859,1,0,0:0:0:0:
320,192,151859,1,0,0:0:0:0:
192,192,151991,1,0,0:0:0:0:
320,192,152122,1,0,0:0:0:0:
192,192,152254,1,0,0:0:0:0:
64,192,152385,1,0,0:0:0:0:
448,192,152385,1,0,0:0:0:0:
320,192,152385,1,0,0:0:0:0:
192,192,152517,1,0,0:0:0:0:
320,192,152648,1,0,0:0:0:0:
192,192,152780,1,0,0:0:0:0:
448,192,152912,1,0,0:0:0:0:
64,192,152912,1,0,0:0:0:0:
192,192,153438,1,0,0:0:0:0:
448,192,153438,1,0,0:0:0:0:
64,192,153438,1,0,0:0:0:0:
320,192,153569,1,0,0:0:0:0:
64,192,153701,1,0,0:0:0:0:
448,192,153701,1,0,0:0:0:0:
192,192,153833,1,0,0:0:0:0:
320,192,153964,1,0,0:0:0:0:
448,192,153964,1,0,0:0:0:0:
64,192,154096,1,0,0:0:0:0:
192,192,154227,1,0,0:0:0:0:
448,192,154227,1,0,0:0:0:0:
320,192,154359,1,0,0:0:0:0:
64,192,154491,1,0,0:0:0:0:
192,192,154491,1,0,0:0:0:0:
448,192,154491,1,0,0:0:0:0:
320,192,154622,1,0,0:0:0:0:
64,192,154754,1,0,0:0:0:0:
192,192,154754,1,0,0:0:0:0:
448,192,154885,1,0,0:0:0:0:
64,192,155017,1,0,0:0:0:0:
320,192,155017,1,0,0:0:0:0:
192,192,155280,1,0,0:0:0:0:
320,192,155543,1,0,0:0:0:0:
448,192,155543,1,0,0:0:0:0:
64,192,155543,1,0,0:0:0:0:
