osu file format v14

[General]
AudioFilename: audio.mp3
AudioLeadIn: 0
PreviewTime: 45871
Countdown: 0
SampleSet: Soft
StackLeniency: 0.3
Mode: 0
LetterboxInBreaks: 0
WidescreenStoryboard: 1

[Editor]
Bookmarks: 7951,23311,38671,54031,69391,77071,84751,100111,115471,130831,138511,146191,161551,169231,184591,192271
DistanceSpacing: 0.2
BeatDivisor: 6
GridSize: 16
TimelineZoom: 1.8

[Metadata]
Title:Believer
TitleUnicode:Believer
Artist:Imagine Dragons
ArtistUnicode:Imagine Dragons
Creator:Striderin
Version:Hyper
Source:
Tags:english alternative alt rock evolve piroshki bongo morrighan
BeatmapID:2324656
BeatmapSetID:1112670

[Difficulty]
HPDrainRate:5
CircleSize:5
OverallDifficulty:6
ApproachRate:8
SliderMultiplier:1
SliderTickRate:1

[Events]
//Background and Video events
0,0,"believer.jpg",0,0
//Break Periods
//Storyboard Layer 0 (Background)
//Storyboard Layer 1 (Fail)
//Storyboard Layer 2 (Pass)
//Storyboard Layer 3 (Foreground)
//Storyboard Layer 4 (Overlay)
//Storyboard Sound Samples

[TimingPoints]
271,480,4,2,2,80,1,0
751,-100,4,2,1,80,0,0
7951,-66.6666666666667,4,2,1,80,0,0
15631,-100,4,2,2,80,0,0
16111,-100,4,2,1,80,0,0
16591,-66.6666666666667,4,2,1,80,0,0
23311,-66.6666666666667,4,2,2,80,0,0
23791,-66.6666666666667,4,2,1,80,0,0
30991,-100,4,2,2,80,0,0
31471,-100,4,2,1,80,0,0
31951,-66.6666666666667,4,2,1,80,0,0
38671,-66.6666666666667,4,2,2,80,0,0
38991,-66.6666666666667,4,2,1,80,0,0
46351,-66.6666666666667,4,2,2,80,0,0
46671,-66.6666666666667,4,2,1,80,0,0
53071,-133.333333333333,4,2,1,80,0,0
53871,-133.333333333333,4,2,99,5,0,0
54031,-133.333333333333,4,2,2,80,0,0
54831,-133.333333333333,4,2,99,5,0,0
54991,-66.6666666666667,4,2,1,100,0,1
55951,-50,4,2,1,100,0,1
61711,-66.6666666666667,4,2,2,80,0,0
62671,-66.6666666666667,4,2,1,100,0,1
63631,-50,4,2,1,100,0,1
68431,-50,4,2,1,80,0,0
69391,-66.6666666666667,4,2,2,100,0,1
70351,-66.6666666666667,4,2,1,100,0,1
73231,-66.6666666666667,4,2,2,100,0,1
74191,-66.6666666666667,4,2,1,100,0,1
77071,-133.333333333333,4,2,2,80,0,0
77871,-133.333333333333,4,2,99,5,0,0
78031,-66.6666666666667,4,2,1,100,0,1
78991,-50,4,2,1,100,0,1
83791,-66.6666666666667,4,2,1,80,0,0
84751,-66.6666666666667,4,2,2,80,0,0
85231,-66.6666666666667,4,2,1,80,0,0
92431,-100,4,2,2,80,0,0
92911,-100,4,2,1,80,0,0
93391,-66.6666666666667,4,2,1,80,0,0
100111,-66.6666666666667,4,2,2,80,0,0
100431,-66.6666666666667,4,2,1,80,0,0
107791,-66.6666666666667,4,2,2,80,0,0
107951,-66.6666666666667,4,2,1,80,0,0
114511,-133.333333333333,4,2,1,80,0,0
115311,-133.333333333333,4,2,99,5,0,0
115471,-133.333333333333,4,2,2,80,0,0
116271,-133.333333333333,4,2,99,5,0,0
116431,-66.6666666666667,4,2,1,100,0,1
117391,-50,4,2,1,100,0,1
123151,-66.6666666666667,4,2,2,80,0,0
124111,-66.6666666666667,4,2,1,100,0,1
125071,-50,4,2,1,100,0,1
129871,-50,4,2,1,80,0,0
130831,-66.6666666666667,4,2,2,100,0,1
131791,-66.6666666666667,4,2,1,100,0,1
134671,-66.6666666666667,4,2,2,100,0,1
135631,-66.6666666666667,4,2,1,100,0,1
138511,-133.333333333333,4,2,2,80,0,0
139311,-133.333333333333,4,2,99,5,0,0
139471,-66.6666666666667,4,2,1,100,0,1
140431,-50,4,2,1,100,0,1
145231,-66.6666666666667,4,2,1,80,0,0
146191,-100,4,2,1,80,0,0
161551,-100,4,2,2,80,0,0
161711,-100,4,2,1,80,0,0
163471,-100,4,2,2,80,0,0
163631,-100,4,2,1,80,0,0
165391,-100,4,2,2,80,0,0
165551,-100,4,2,1,80,0,0
167311,-100,4,2,2,80,0,0
168111,-100,4,2,1,80,0,0
168271,-133.333333333333,4,2,1,80,0,0
169231,-100,4,2,2,30,0,0
169311,-100,4,2,1,35,0,0
169391,-100,4,2,1,40,0,0
169471,-100,4,2,1,45,0,0
169551,-100,4,2,1,50,0,0
169631,-100,4,2,1,55,0,0
169711,-100,4,2,1,60,0,0
169791,-100,4,2,1,65,0,0
169871,-100,4,2,1,70,0,0
169951,-100,4,2,1,75,0,0
170031,-100,4,2,1,80,0,0
170111,-100,4,2,1,85,0,0
170191,-66.6666666666667,4,2,1,100,0,1
171151,-50,4,2,1,100,0,1
176911,-66.6666666666667,4,2,2,80,0,0
177711,-66.6666666666667,4,2,1,80,0,0
177871,-66.6666666666667,4,2,1,100,0,1
178831,-50,4,2,1,100,0,1
183631,-50,4,2,1,80,0,0
184591,-66.6666666666667,4,2,2,100,0,1
185551,-66.6666666666667,4,2,1,100,0,1
188431,-66.6666666666667,4,2,2,100,0,1
189391,-66.6666666666667,4,2,1,100,0,1
192271,-66.6666666666667,4,2,1,80,0,0
193231,-66.6666666666667,4,2,1,100,0,1
194191,-50,4,2,1,100,0,1
198031,-66.6666666666667,4,2,1,80,0,0

[Colours]
Combo1 : 187,101,49
Combo2 : 125,89,77
Combo3 : 83,73,129

[HitObjects]
336,284,271,6,0,L|446:265,2,100,0|8|8,1:0|0:0|0:1,0:0:0:0:
145,190,1711,2,0,L|152:235,2,33.3333333333333,0|0|0,1:0|1:0|1:0,0:0:0:0:
198,129,2191,2,0,L|208:20,2,100,0|8|8,1:0|0:0|0:1,0:0:0:0:
336,284,3631,2,0,L|331:327,2,33.3333333333333,0|0|0,1:0|1:0|1:0,0:0:0:0:
292,219,4111,2,0,L|283:110,2,100,0|8|8,1:0|0:0|0:1,0:0:0:0:
140,330,5551,2,0,L|145:378,2,33.3333333333333,0|0|0,1:0|1:0|1:0,0:0:0:0:
190,270,6031,2,0,L|200:157,1,100,0|8,1:0|0:0,0:0:0:0:
266,357,6991,2,0,L|378:366,1,100,8|8,0:1|0:0,0:0:0:0:
190,270,7951,6,0,P|219:228|315:240,1,150.000005722046,0|8,1:0|0:0,0:0:0:0:
373,87,8911,2,0,L|364:234,1,100.000003814697,8|0,0:1|0:0,0:0:0:0:
346,297,9391,2,0,L|352:359,2,50.0000019073487,0|0|0,1:0|1:0|1:0,0:0:0:0:
501,242,9871,6,0,B|459:224|447:266|400:248,1,100.000003814697,0|0,1:0|0:0,0:0:0:0:
297,202,10351,2,0,P|233:184|184:192,1,100.000003814697,8|0,0:0|0:0,0:0:0:0:
177,254,10831,1,8,0:1:0:0:
70,106,11151,1,0,0:0:0:0:
121,160,11311,2,0,L|113:218,2,50.0000019073487,0|0|0,1:0|1:0|1:0,0:0:0:0:
25,264,11791,6,0,L|201:239,1,150.000005722046,0|8,1:0|0:0,0:0:0:0:
117,74,12751,2,0,P|180:105|200:150,1,100.000003814697,8|0,0:1|0:0,0:0:0:0:
278,198,13231,2,0,L|213:192,2,50.0000019073487,0|0|0,1:0|1:0|1:0,0:0:0:0:
324,59,13711,6,0,B|356:105|313:116|355:178,1,100.000003814697,0|0,1:0|0:0,0:0:0:0:
403,200,14191,2,0,L|389:326,1,100.000003814697,8|0,0:0|0:0,0:0:0:0:
447,354,14671,1,8,0:1:0:0:
276,368,14991,1,0,0:0:0:0:
320,308,15151,2,0,P|306:240|281:205,1,100.000003814697,8|0,0:0|0:0,0:0:0:0:
162,251,15631,6,0,L|271:259,1,100.000003814697,0|8,1:0|0:0,0:0:0:0:
88,157,16591,2,0,P|38:166|5:216,1,100.000003814697,8|0,0:1|0:0,0:0:0:0:
164,181,17071,2,0,L|221:173,2,50.0000019073487,0|0|0,1:0|1:0|1:0,0:0:0:0:
104,235,17551,6,0,L|92:384,1,150.000005722046,0|8,1:0|0:0,0:0:0:0:
254,258,18351,1,0,0:0:0:0:
306,306,18511,2,0,P|371:288|419:293,1,100.000003814697,8|0,0:1|0:0,0:0:0:0:
462,192,18991,2,0,L|457:249,2,50.0000019073487,0|0|0,1:0|1:0|1:0,0:0:0:0:
399,151,19471,6,0,L|382:-15,1,150.000005722046,0|8,1:0|0:0,0:0:0:0:
91,36,20431,2,0,P|163:65|169:119,1,100.000003814697,8|0,0:1|0:0,0:0:0:0:
92,162,20911,2,0,L|153:148,2,50.0000019073487,0|0|0,1:0|1:0|1:0,0:0:0:0:
203,200,21391,6,0,L|374:223,1,150.000005722046,0|8,1:0|0:0,0:0:0:0:
434,19,22351,2,0,L|415:170,1,150.000005722046,8|8,0:1|0:0,0:0:0:0:
506,342,23311,6,0,P|460:296|403:309,1,100.000003814697,0|0,1:0|0:0,0:0:0:0:
378,356,23791,1,8,0:0:0:0:
138,300,24271,2,0,P|180:254|235:263,1,100.000003814697,8|0,0:1|0:0,0:0:0:0:
291,164,24751,2,0,L|281:219,2,50.0000019073487,0|0|0,1:0|1:0|1:0,0:0:0:0:
202,175,25231,6,0,L|98:186,1,100.000003814697,0|0,1:0|0:0,0:0:0:0:
241,103,25711,2,0,L|340:92,1,100.000003814697,8|0,0:0|0:0,0:0:0:0:
187,43,26191,2,0,P|118:24|72:36,1,100.000003814697,8|0,0:1|0:0,0:0:0:0:
36,129,26671,2,0,L|28:65,2,50.0000019073487,0|0|0,1:0|1:0|1:0,0:0:0:0:
125,197,27151,6,0,P|133:269|81:320,1,150.000005722046,0|8,1:0|0:0,0:0:0:0:
109,121,27951,1,0,0:0:0:0:
48,209,28111,1,8,0:1:0:0:
285,155,28591,2,0,L|356:170,2,50.0000019073487,0|0|0,1:0|1:0|1:0,0:0:0:0:
386,103,29071,6,0,P|438:56|517:71,1,150.000005722046,0|8,1:0|0:0,0:0:0:0:
424,243,29871,1,0,0:0:0:0:
449,166,30031,2,0,L|315:183,1,100.000003814697,8|0,0:1|0:0,0:0:0:0:
209,233,30511,2,0,P|274:253|322:227,1,100.000003814697,8|0,0:0|0:0,0:0:0:0:
381,384,30991,6,0,L|363:262,1,100,0|8,1:0|0:0,0:0:0:0:
470,100,31951,2,0,P|477:155|460:199,1,100.000003814697,8|0,0:1|0:0,0:0:0:0:
385,212,32431,2,0,L|376:140,2,50.0000019073487,0|0|0,1:0|1:0|1:0,0:0:0:0:
494,272,32911,6,0,L|334:296,1,150.000005722046,0|8,1:0|0:0,0:0:0:0:
191,184,33711,1,0,0:0:0:0:
229,254,33871,2,0,P|217:307|221:363,1,100.000003814697,8|0,0:1|0:0,0:0:0:0:
297,212,34351,2,0,L|367:217,2,50.0000019073487,0|0|0,1:0|1:0|1:0,0:0:0:0:
230,116,34831,6,0,L|73:129,1,150.000005722046,0|8,1:0|0:0,0:0:0:0:
367,69,35791,2,0,P|323:47|274:50,1,100.000003814697,8|0,0:1|0:0,0:0:0:0:
340,187,36271,2,0,L|333:129,2,50.0000019073487,0|0|0,1:0|1:0|1:0,0:0:0:0:
433,103,36751,6,0,L|421:253,2,150.000005722046,0|8|8,1:0|0:0|0:1,0:0:0:0:
299,365,38351,5,0,0:0:0:0:
299,365,38511,1,0,0:0:0:0:
299,365,38671,2,0,L|310:245,2,100.000003814697,0|0|0,1:0|0:0|0:0,0:0:0:0:
219,314,39471,1,0,0:0:0:0:
219,314,39631,2,0,B|218:264|218:264|163:236,1,100.000003814697,8|0,0:1|0:0,0:0:0:0:
70,304,40111,2,0,L|121:295,2,50.0000019073487,0|0|0,1:0|1:0|1:0,0:0:0:0:
30,197,40591,6,0,L|157:178,2,100.000003814697,0|0|0,1:0|0:0|0:0,0:0:0:0:
78,106,41391,1,0,0:0:0:0:
78,106,41551,2,0,B|130:113|130:113|157:64,1,100.000003814697,8|0,0:1|0:0,0:0:0:0:
260,20,42031,2,0,L|198:26,2,50.0000019073487,0|0|0,1:0|1:0|1:0,0:0:0:0:
324,140,42511,6,0,L|309:246,2,100.000003814697,0|0|0,1:0|0:0|0:0,0:0:0:0:
404,103,43311,1,0,0:0:0:0:
404,103,43471,2,0,B|455:114|455:114|463:173,1,100.000003814697,8|0,0:1|0:0,0:0:0:0:
395,264,43951,2,0,L|402:201,2,50.0000019073487,0|0|0,1:0|1:0|1:0,0:0:0:0:
461,320,44431,5,0,1:0:0:0:
432,328,44591,1,0,0:0:0:0:
403,336,44751,1,0,0:0:0:0:
337,382,44911,1,8,0:0:0:0:
307,376,45071,1,0,0:0:0:0:
277,370,45231,1,0,0:0:0:0:
243,305,45391,2,0,L|252:241,2,50.0000019073487,8|0|0,0:1|0:0|0:0,0:0:0:0:
177,355,45871,2,0,L|115:366,2,50.0000019073487,8|0|0,0:0|0:0|0:0,0:0:0:0:
164,275,46351,6,0,L|41:264,2,100.000003814697,0|0|0,1:0|0:0|0:0,0:0:0:0:
216,214,47151,1,0,0:0:0:0:
216,214,47311,2,0,B|209:165|209:165|268:135,1,100.000003814697,8|0,0:1|0:0,0:0:0:0:
310,243,47791,2,0,L|315:178,2,50.0000019073487,0|0|0,1:0|1:0|1:0,0:0:0:0:
391,157,48271,6,0,L|383:58,2,100.000003814697,0|0|0,1:0|0:0|0:0,0:0:0:0:
475,205,49071,1,0,0:0:0:0:
475,205,49231,2,0,B|427:221|427:221|419:277,1,100.000003814697,8|0,0:1|0:0,0:0:0:0:
317,324,49711,2,0,L|377:330,2,50.0000019073487,0|0|0,1:0|1:0|1:0,0:0:0:0:
216,240,50191,6,0,L|93:254,2,100.000003814697,0|0|0,1:0|0:0|0:0,0:0:0:0:
266,173,50991,1,0,0:0:0:0:
266,173,51151,2,0,B|249:127|249:127|178:117,1,100.000003814697,8|0,0:1|0:0,0:0:0:0:
93,178,51631,2,0,L|159:171,2,50.0000019073487,0|0|0,1:0|1:0|1:0,0:0:0:0:
14,257,52111,6,0,L|0:366,2,100.000003814697,0|0|0,1:0|0:0|0:0,0:0:0:0:
83,304,52911,1,0,0:0:0:0:
83,304,53071,6,0,P|174:289|226:284,1,125.000004768372,8|0,0:1|0:0,0:0:0:0:
218,265,54031,6,0,P|143:273|74:286,1,125.000004768372,4|0,1:2|0:0,0:0:0:0:
83,304,54991,6,0,P|170:289|253:283,1,150.000005722046,8|0,0:1|1:0,0:0:0:0:
304,326,55631,1,0,1:0:0:0:
333,331,55791,1,0,1:0:0:0:
346,227,55951,6,0,P|415:245|460:292,1,133.333333333333,0|0,1:0|0:0,0:0:0:0:
312,153,56431,2,0,P|363:121|443:111,1,133.333333333333,8|0,0:0|0:0,0:0:0:0:
209,223,56911,2,0,P|142:237|88:274,1,133.333333333333,8|0,0:1|0:0,0:0:0:0:
240,152,57391,2,0,P|189:117|114:107,1,133.333333333333,0|0,1:0|1:0,0:0:0:0:
280,209,57871,6,0,L|273:353,1,133.333333333333,0|0,1:0|0:0,0:0:0:0:
176,383,58351,1,8,0:0:0:0:
24,178,58831,2,0,B|20:210|20:210|131:221,1,133.333333333333,8|0,0:1|0:0,0:0:0:0:
155,303,59311,1,0,1:0:0:0:
187,298,59471,1,0,1:0:0:0:
219,293,59631,1,0,1:0:0:0:
283,240,59791,6,0,L|424:251,1,133.333333333333,0|0,1:0|0:0,0:0:0:0:
460,338,60271,1,8,0:0:0:0:
489,95,60751,6,0,B|484:147|484:147|256:127|256:127|248:201,1,333.333333333333,8|0,0:1|0:0,0:0:0:0:
11,188,61711,6,0,P|44:105|204:143,1,250.000009536744,4|0,1:2|0:0,0:0:0:0:
408,135,62671,6,0,P|316:136|249:146,1,150.000005722046,8|0,0:1|1:0,0:0:0:0:
225,217,63311,1,0,1:0:0:0:
191,227,63471,1,0,1:0:0:0:
113,173,63631,6,0,P|59:210|22:282,1,133.333333333333,0|0,1:0|0:0,0:0:0:0:
129,86,64111,2,0,P|70:71|-10:85,1,133.333333333333,8|0,0:0|0:0,0:0:0:0:
248,153,64591,2,0,P|310:171|368:228,1,133.333333333333,8|0,0:1|0:0,0:0:0:0:
205,75,65071,2,0,P|256:42|336:31,1,133.333333333333,0|0,1:0|1:0,0:0:0:0:
192,215,65551,6,0,L|215:360,1,133.333333333333,0|0,1:0|0:0,0:0:0:0:
119,323,66031,1,8,0:0:0:0:
307,191,66511,2,0,B|299:227|299:227|422:256,1,133.333333333333,8|0,0:1|0:0,0:0:0:0:
450,310,66991,1,0,1:0:0:0:
463,279,67151,1,0,1:0:0:0:
476,248,67311,1,0,1:0:0:0:
474,163,67471,6,0,L|451:26,1,133.333333333333,0|0,1:0|0:0,0:0:0:0:
370,87,67951,2,0,P|323:66|237:76,1,133.333333333333,8|0,0:0|0:0,0:0:0:0:
392,179,68431,2,0,B|379:233|379:233|159:181|159:181|144:231,1,333.333333333333,8|0,0:1|0:0,0:0:0:0:
3,130,69391,6,0,B|74:106|146:155|147:260|73:299|73:299|57:266,1,300.000011444092,0|8,1:0|0:1,0:0:0:0:
323,226,70831,1,0,1:0:0:0:
329,260,70991,1,0,1:0:0:0:
335,294,71151,1,0,1:0:0:0:
417,317,71311,6,0,P|432:263|436:212,1,100.000003814697,0|0,1:0|0:0,0:0:0:0:
350,190,71791,2,0,P|337:123|336:80,1,100.000003814697,8|0,0:0|0:0,0:0:0:0:
512,153,72271,2,0,L|376:142,1,100.000003814697,8|0,0:1|1:0,0:0:0:0:
313,192,72751,1,0,1:0:0:0:
278,197,72911,1,0,1:0:0:0:
243,202,73071,1,0,1:0:0:0:
200,105,73231,6,0,B|129:81|57:130|56:235|130:274|130:274|145:241,1,300.000011444092,0|8,1:0|0:1,0:0:0:0:
346,109,74671,1,0,1:0:0:0:
340,74,74831,1,0,1:0:0:0:
334,39,74991,1,0,1:0:0:0:
244,18,75151,6,0,P|227:75|225:144,1,100.000003814697,0|0,1:0|0:0,0:0:0:0:
287,181,75631,2,0,P|299:243|301:300,1,100.000003814697,8|0,0:0|1:0,0:0:0:0:
197,197,76111,2,0,L|81:208,1,100.000003814697,8|0,1:0|1:0,0:0:0:0:
31,271,76591,1,0,1:0:0:0:
65,278,76751,1,0,0:0:0:0:
99,285,76911,1,0,1:0:0:0:
165,337,77071,6,0,P|238:324|304:318,1,125.000004768372,4|0,1:2|0:0,0:0:0:0:
305,335,78031,6,0,P|230:342|156:355,1,150.000005722046,8|0,0:1|1:0,0:0:0:0:
91,303,78671,1,0,1:0:0:0:
57,296,78831,1,0,1:0:0:0:
87,187,78991,6,0,P|48:120|-10:86,1,133.333333333333,0|0,1:0|0:0,0:0:0:0:
153,132,79471,2,0,P|148:55|123:-4,1,133.333333333333,8|0,0:0|0:0,0:0:0:0:
218,260,79951,2,0,P|288:271|352:247,1,133.333333333333,8|0,0:1|1:0,0:0:0:0:
229,174,80431,2,0,P|296:138|345:86,1,133.333333333333,0|0,1:0|1:0,0:0:0:0:
163,206,80911,6,0,L|99:346,1,133.333333333333,0|0,1:0|0:0,0:0:0:0:
197,378,81391,1,8,0:0:0:0:
454,225,81871,2,0,B|457:260|457:260|337:279,1,133.333333333333,8|0,0:1|0:0,0:0:0:0:
301,325,82351,1,0,1:0:0:0:
267,321,82511,1,0,1:0:0:0:
233,317,82671,1,0,1:0:0:0:
144,355,82831,6,0,L|1:373,1,133.333333333333,0|0,1:0|0:0,0:0:0:0:
106,282,83311,2,0,L|92:147,1,133.333333333333,8|0,0:0|0:0,0:0:0:0:
281,59,83791,6,0,B|273:103|273:103|435:135|435:135|427:182,1,250.000009536744,8|0,0:1|0:0,0:0:0:0:
482,277,84751,6,0,L|327:294,1,150.000005722046,0|8,1:0|0:0,0:0:0:0:
179,123,85711,2,0,P|250:131|280:159,1,100.000003814697,8|0,0:1|0:0,0:0:0:0:
293,220,86191,1,0,1:0:0:0:
287,254,86351,1,0,1:0:0:0:
282,288,86511,1,0,1:0:0:0:
344,360,86671,6,0,B|297:347|296:393|243:377,1,100.000003814697,0|0,1:0|0:0,0:0:0:0:
202,313,87151,2,0,L|195:202,1,100.000003814697,8|0,0:0|0:0,0:0:0:0:
126,347,87631,2,0,P|69:319|16:333,1,100.000003814697,8|0,0:1|0:0,0:0:0:0:
8,243,88111,1,0,1:0:0:0:
15,208,88271,1,0,1:0:0:0:
23,173,88431,1,0,1:0:0:0:
128,113,88591,6,0,L|244:107,1,100.000003814697,0|0,1:0|0:0,0:0:0:0:
283,57,89071,2,0,P|356:71|387:97,1,100.000003814697,8|0,0:0|0:0,0:0:0:0:
339,250,89551,2,0,L|327:142,1,100.000003814697,8|0,0:1|0:0,0:0:0:0:
443,124,90031,1,0,1:0:0:0:
438,158,90191,1,0,1:0:0:0:
433,192,90351,1,0,1:0:0:0:
498,273,90511,6,0,P|452:318|400:321,1,100.000003814697,0|0,1:0|0:0,0:0:0:0:
347,276,90991,2,0,L|329:399,1,100.000003814697,8|0,0:0|0:0,0:0:0:0:
297,211,91471,2,0,L|180:194,1,100.000003814697,8|0,0:1|0:0,0:0:0:0:
146,297,91951,2,0,P|202:301|246:282,1,100.000003814697,8|0,0:0|0:0,0:0:0:0:
322,147,92431,6,0,L|304:262,1,100,0|8,1:0|0:0,0:0:0:0:
236,22,93391,2,0,P|223:86|259:129,1,100.000003814697,8|0,0:1|0:0,0:0:0:0:
323,78,93871,1,0,1:0:0:0:
356,86,94031,1,0,1:0:0:0:
389,94,94191,1,0,1:0:0:0:
443,182,94351,6,0,L|276:199,1,150.000005722046,0|8,1:0|0:0,0:0:0:0:
109,316,95151,1,0,0:0:0:0:
162,250,95311,2,0,P|152:193|120:157,1,100.000003814697,8|0,0:1|0:0,0:0:0:0:
32,200,95791,1,0,1:0:0:0:
25,234,95951,1,0,1:0:0:0:
18,268,96111,1,0,1:0:0:0:
83,347,96271,6,0,L|239:326,1,150.000005722046,0|8,1:0|0:0,0:0:0:0:
304,126,97231,2,0,P|340:201|330:241,1,100.000003814697,8|0,0:1|0:0,0:0:0:0:
265,255,97711,1,0,1:0:0:0:
230,248,97871,1,0,1:0:0:0:
195,242,98031,1,0,1:0:0:0:
150,160,98191,6,0,L|-7:183,2,150.000005722046,0|8|8,1:0|0:0|0:1,0:0:0:0:
352,60,99791,5,0,0:0:0:0:
357,94,99951,1,0,0:0:0:0:
362,128,100111,2,0,L|469:142,2,100.000003814697,0|0|0,1:0|0:0|0:0,0:0:0:0:
304,207,100911,1,0,0:0:0:0:
338,213,101071,2,0,B|387:219|387:219|401:279,1,100.000003814697,8|0,0:1|0:0,0:0:0:0:
333,335,101551,1,0,1:0:0:0:
298,342,101711,1,0,1:0:0:0:
263,349,101871,1,0,1:0:0:0:
191,285,102031,6,0,L|61:276,2,100.000003814697,0|0|0,1:0|0:0|0:0,0:0:0:0:
241,201,102831,1,0,0:0:0:0:
206,197,102991,2,0,B|170:161|170:161|201:99,1,100.000003814697,8|0,0:1|0:0,0:0:0:0:
150,44,103471,1,0,1:0:0:0:
115,50,103631,1,0,1:0:0:0:
80,56,103791,1,0,1:0:0:0:
21,132,103951,6,0,L|6:242,2,100.000003814697,0|0|0,1:0|0:0|0:0,0:0:0:0:
102,155,104751,1,0,0:0:0:0:
97,189,104911,2,0,B|127:229|127:229|96:288,1,100.000003814697,8|0,0:1|0:0,0:0:0:0:
173,338,105391,1,0,1:0:0:0:
207,331,105551,1,0,1:0:0:0:
241,324,105711,1,0,1:0:0:0:
266,232,105871,6,0,L|401:250,2,100.000003814697,0|0|0,1:0|0:0|0:0,0:0:0:0:
239,150,106671,1,0,0:0:0:0:
204,146,106831,2,0,B|193:103|193:103|86:127,1,150.000005722046,8|0,0:1|0:0,0:0:0:0:
3,155,107471,1,0,0:0:0:0:
22,125,107631,1,0,0:0:0:0:
41,49,107791,5,0,1:0:0:0:
75,41,107951,1,0,0:0:0:0:
109,34,108111,1,0,0:0:0:0:
168,82,108271,1,8,0:0:0:0:
202,89,108431,1,0,0:0:0:0:
236,96,108591,1,0,0:0:0:0:
301,53,108751,6,0,L|367:45,2,50.0000019073487,8|0|0,0:1|0:0|0:0,0:0:0:0:
267,169,109231,2,0,L|275:235,2,50.0000019073487,0|0|0,1:0|1:0|1:0,0:0:0:0:
366,242,109711,5,0,1:0:0:0:
371,207,109871,1,0,0:0:0:0:
377,172,110031,1,0,0:0:0:0:
444,134,110191,1,8,0:0:0:0:
439,99,110351,1,0,0:0:0:0:
434,64,110511,1,0,0:0:0:0:
357,24,110671,6,0,L|278:34,2,50.0000019073487,8|0|0,0:1|0:0|0:0,0:0:0:0:
268,108,111151,2,0,L|279:177,2,50.0000019073487,0|0|0,1:0|1:0|1:0,0:0:0:0:
371,200,111631,6,0,P|364:264|324:295,1,100.000003814697,0|0,1:0|0:0,0:0:0:0:
256,266,112111,2,0,L|93:257,1,150.000005722046,8|8,0:0|0:1,0:0:0:0:
27,135,112911,1,0,0:0:0:0:
90,82,113071,1,0,1:0:0:0:
84,47,113231,1,0,1:0:0:0:
78,12,113391,1,0,1:0:0:0:
177,53,113551,6,0,L|164:157,1,100.000003814697,0|0,1:0|1:0,0:0:0:0:
228,216,114031,1,0,1:0:0:0:
311,203,114191,1,0,1:0:0:0:
348,133,114351,1,0,1:0:0:0:
311,46,114511,6,0,P|410:51|458:56,1,125.000004768372,8|0,0:1|0:0,0:0:0:0:
450,39,115471,6,0,P|376:31|308:28,1,125.000004768372,4|0,1:2|0:0,0:0:0:0:
311,46,116431,6,0,P|394:50|482:61,1,150.000005722046,8|0,0:1|1:0,0:0:0:0:
492,144,117071,1,0,1:0:0:0:
477,175,117231,1,0,1:0:0:0:
395,250,117391,6,0,P|416:317|468:359,1,133.333333333333,0|0,1:0|0:0,0:0:0:0:
309,234,117871,2,0,P|286:314|291:368,1,133.333333333333,8|0,0:0|0:0,0:0:0:0:
383,127,118351,2,0,P|383:55|422:2,1,133.333333333333,8|0,0:1|0:0,0:0:0:0:
303,165,118831,2,0,P|257:93|247:39,1,133.333333333333,0|0,1:0|1:0,0:0:0:0:
233,205,119311,6,0,L|99:220,1,133.333333333333,0|0,1:0|0:0,0:0:0:0:
227,289,119791,1,8,0:0:0:0:
58,73,120271,2,0,B|55:109|55:109|151:118,1,133.333333333333,8|0,0:1|0:0,0:0:0:0:
222,70,120751,1,0,1:0:0:0:
303,93,120911,1,0,1:0:0:0:
328,177,121071,1,0,1:0:0:0:
278,246,121231,6,0,L|263:388,1,133.333333333333,0|0,1:0|0:0,0:0:0:0:
167,303,121711,1,8,0:0:0:0:
426,106,122191,6,0,B|431:153|431:153|198:180|198:180|204:253,1,333.333333333333,8|0,0:1|0:0,0:0:0:0:
10,217,123151,6,0,P|14:281|179:287,1,250.000009536744,4|0,1:2|0:0,0:0:0:0:
401,296,124111,6,0,P|309:284|248:286,1,150.000005722046,8|0,0:1|1:0,0:0:0:0:
204,371,124751,1,0,1:0:0:0:
170,379,124911,1,0,1:0:0:0:
76,329,125071,6,0,P|52:272|-11:220,1,133.333333333333,0|0,1:0|0:0,0:0:0:0:
138,242,125551,2,0,P|132:181|92:108,1,133.333333333333,8|0,0:0|0:0,0:0:0:0:
170,379,126031,2,0,P|229:363|309:382,1,133.333333333333,8|0,0:1|0:0,0:0:0:0:
199,276,126511,2,0,P|251:244|333:232,1,133.333333333333,0|0,1:0|1:0,0:0:0:0:
207,181,126991,6,0,L|263:52,1,133.333333333333,0|0,1:0|0:0,0:0:0:0:
159,70,127471,1,8,0:0:0:0:
479,99,127951,2,0,B|485:138|485:138|363:159,1,133.333333333333,8|0,0:1|0:0,0:0:0:0:
333,91,128431,1,0,1:0:0:0:
246,109,128591,1,0,1:0:0:0:
226,192,128751,1,0,1:0:0:0:
294,252,128911,6,0,L|314:391,1,133.333333333333,0|0,1:0|0:0,0:0:0:0:
385,301,129391,1,8,0:0:0:0:
58,236,129871,6,0,B|65:288|65:288|294:251|294:251|302:307,1,333.333333333333,8|0,0:1|0:0,0:0:0:0:
446,317,130831,6,0,B|502:267|495:180|405:127|334:171|334:171|355:202,1,300.000011444092,0|8,1:0|0:1,0:0:0:0:
105,127,132271,1,0,1:0:0:0:
160,69,132431,1,0,1:0:0:0:
238,82,132591,1,0,1:0:0:0:
266,156,132751,6,0,P|243:223|238:256,1,100.000003814697,0|0,1:0|0:0,0:0:0:0:
344,359,133231,2,0,P|331:283|315:249,1,100.000003814697,8|0,0:0|0:0,0:0:0:0:
173,293,133711,2,0,L|50:280,1,100.000003814697,8|0,0:1|1:0,0:0:0:0:
25,219,134191,1,0,1:0:0:0:
47,142,134351,1,0,1:0:0:0:
124,124,134511,1,0,1:0:0:0:
185,174,134671,6,0,B|129:124|136:37|226:-16|297:28|297:28|276:59,1,300.000011444092,0|8,1:0|0:1,0:0:0:0:
422,300,136111,1,0,1:0:0:0:
342,292,136271,1,0,1:0:0:0:
305,220,136431,1,0,1:0:0:0:
341,148,136591,6,0,P|407:133|454:136,1,100.000003814697,0|0,1:0|0:0,0:0:0:0:
501,223,137071,2,0,P|425:215|382:196,1,100.000003814697,8|0,1:2|1:0,0:0:0:0:
257,142,137551,2,0,L|267:34,1,100.000003814697,8|0,1:0|1:0,0:0:0:0:
192,7,138031,1,0,1:0:0:0:
120,43,138191,1,0,1:0:0:0:
118,122,138351,1,0,1:0:0:0:
191,169,138511,6,0,P|265:161|333:158,1,125.000004768372,4|0,1:2|0:0,0:0:0:0:
330,176,139471,6,0,P|247:180|159:191,1,150.000005722046,8|0,0:1|1:0,0:0:0:0:
129,254,140111,1,0,1:0:0:0:
94,260,140271,1,0,1:0:0:0:
42,159,140431,6,0,P|43:83|9:11,1,133.333333333333,0|0,1:0|0:0,0:0:0:0:
134,133,140911,2,0,P|160:70|164:0,1,133.333333333333,8|0,0:0|0:0,0:0:0:0:
94,260,141391,2,0,P|119:321|167:367,1,133.333333333333,8|0,0:1|1:0,0:0:0:0:
162,195,141871,2,0,P|214:239|278:255,1,133.333333333333,0|0,1:0|1:0,0:0:0:0:
226,132,142351,6,0,L|371:65,1,133.333333333333,0|0,1:0|0:0,0:0:0:0:
464,121,142831,1,8,0:0:0:0:
259,214,143311,2,0,B|267:176|267:176|144:145,1,133.333333333333,8|0,0:1|0:0,0:0:0:0:
112,106,143791,1,0,1:0:0:0:
42,145,143951,1,0,1:0:0:0:
46,219,144111,1,0,1:0:0:0:
120,252,144271,6,0,L|105:393,1,133.333333333333,0|0,1:0|0:0,0:0:0:0:
194,292,144751,2,0,L|353:303,1,133.333333333333,8|0,0:0|0:0,0:0:0:0:
467,121,145231,6,0,B|470:162|470:162|302:176|302:176|305:227,1,250.000009536744,8|0,0:1|0:0,0:0:0:0:
226,104,146191,6,0,L|108:91,2,100.000003814697,2|0|0,1:2|0:0|0:0,0:0:0:0:
378,39,147631,2,0,L|460:32,1,66.6666666666667
491,98,148111,2,0,L|476:211,1,100,2|0,0:0|0:0,0:0:0:0:
396,273,148911,1,0,0:0:0:0:
396,273,149071,2,0,P|353:248|306:249,1,66.6666666666667
281,300,149551,2,0,P|237:312|212:330,1,66.6666666666667
153,282,150031,6,0,L|172:166,1,100,2|0,0:0|0:0,0:0:0:0:
115,83,150831,1,0,0:0:0:0:
115,83,150991,2,0,L|45:91,1,66.6666666666667
150,16,151471,2,0,L|228:25,1,66.6666666666667
271,104,151951,2,0,P|337:88|380:92,1,100,2|0,0:0|0:0,0:0:0:0:
451,183,152751,1,0,0:0:0:0:
451,183,152911,2,0,B|426:225|464:236|440:279,1,100
327,347,153711,1,0,0:0:0:0:
327,347,153871,6,0,L|315:235,1,100,2|0,0:0|0:0,0:0:0:0:
105,169,154831,2,0,P|189:128|245:216,1,200,2|2,0:0|0:0,0:0:0:0:
83,348,156591,1,0,0:0:0:0:
83,348,156751,2,0,B|58:306|96:295|72:252,1,100
164,181,157551,1,0,0:0:0:0:
164,181,157711,6,0,L|181:68,1,100,2|0,0:0|0:0,0:0:0:0:
399,104,158671,2,0,P|349:28|245:57,2,200,2|2|2,0:0|0:0|0:0,0:0:0:0:
322,259,161231,5,0,0:0:0:0:
322,259,161391,1,0,0:0:0:0:
322,259,161551,2,0,L|332:305,2,33.3333333333333,0|0|0,1:0|0:0|0:0,0:0:0:0:
165,316,162031,2,0,L|158:355,2,33.3333333333333
263,221,162511,2,0,L|270:165,2,33.3333333333333
190,243,162991,1,0,1:0:0:0:
190,243,163151,1,0,1:0:0:0:
190,243,163311,1,0,1:0:0:0:
116,295,163471,6,0,L|60:304,2,33.3333333333333,0|0|0,1:0|0:0|0:0,0:0:0:0:
266,259,163951,2,0,L|329:263,2,33.3333333333333
174,351,164431,2,0,L|168:405,2,33.3333333333333
255,336,164911,1,0,1:0:0:0:
255,336,165071,1,0,1:0:0:0:
255,336,165231,1,0,1:0:0:0:
318,279,165391,6,0,L|372:274,1,33.3333333333333,0|0,1:0|0:0,0:0:0:0:
391,348,165711,2,0,L|190:366,1,200
135,274,166831,2,0,L|140:338,2,33.3333333333333,0|0|0,1:0|1:0|1:0,0:0:0:0:
207,177,167311,6,0,P|169:154|82:226,1,166.666666666667,0|0,1:0|0:0,0:0:0:0:
135,274,168271,2,0,B|197:240|191:311|272:265,1,125.000004768372
296,189,169231,6,0,L|310:211,11,16.6666666666667,6|2|2|2|2|2|2|2|2|2|2|2,1:2|1:2|1:2|1:2|1:2|1:2|1:2|1:2|1:2|1:2|1:2|1:2,0:0:0:0:
291,147,170191,6,0,P|212:138|138:137,1,150.000005722046,8|0,0:1|1:0,0:0:0:0:
67,210,170831,1,0,1:0:0:0:
87,238,170991,1,0,1:0:0:0:
121,341,171151,6,0,P|175:307|256:291,1,133.333333333333,0|0,1:0|0:0,0:0:0:0:
143,182,171631,2,0,P|228:189|284:225,1,133.333333333333,8|0,0:0|0:0,0:0:0:0:
477,369,172111,2,0,P|428:326|351:298,1,133.333333333333,8|0,0:1|1:0,0:0:0:0:
480,208,172591,2,0,P|394:201|334:228,1,133.333333333333,8|0,1:2|1:0,0:0:0:0:
325,16,173071,6,0,L|315:153,1,133.333333333333,0|0,1:0|0:0,0:0:0:0:
249,283,173551,2,0,L|257:362,2,66.6666666666667,8|0|0,0:0|0:0|1:0,0:0:0:0:
117,155,174031,2,0,B|110:195|110:195|239:218,1,133.333333333333,8|0,0:1|0:0,0:0:0:0:
267,151,174511,1,8,1:2:0:0:
347,167,174671,1,0,1:0:0:0:
371,245,174831,1,0,1:0:0:0:
324,312,174991,6,0,L|313:169,1,133.333333333333,0|0,1:0|0:0,0:0:0:0:
451,106,175471,2,0,P|422:42|345:42,1,133.333333333333,8|0,0:0|0:0,0:0:0:0:
115,63,175951,6,0,B|126:117|126:117|348:64|348:64|360:114,1,333.333333333333,8|0,0:1|0:0,0:0:0:0:
462,248,176911,6,0,P|409:157|268:191,1,250.000009536744,4|0,1:2|1:0,0:0:0:0:
57,203,177871,6,0,P|148:192|221:195,1,150.000005722046,8|0,0:1|1:0,0:0:0:0:
283,264,178511,1,0,1:0:0:0:
316,272,178671,1,0,1:0:0:0:
427,216,178831,6,0,P|371:154|307:132,1,133.333333333333,0|0,1:0|0:0,0:0:0:0:
458,34,179311,2,0,P|371:36|307:59,1,133.333333333333,8|0,0:0|0:0,0:0:0:0:
185,281,179791,2,0,P|201:199|244:147,1,133.333333333333,8|0,0:1|1:0,0:0:0:0:
64,140,180271,2,0,P|139:96|206:83,1,133.333333333333,8|0,1:2|1:0,0:0:0:0:
301,227,180751,6,0,L|333:365,1,133.333333333333,0|0,1:0|0:0,0:0:0:0:
361,164,181231,2,0,L|436:149,2,66.6666666666667,8|0|0,0:0|0:0|1:0,0:0:0:0:
211,80,181711,2,0,B|206:122|206:122|115:109,1,133.333333333333,8|0,0:1|0:0,0:0:0:0:
34,123,182191,1,8,1:2:0:0:
3,199,182351,1,0,1:0:0:0:
54,264,182511,1,0,1:0:0:0:
138,248,182671,6,0,L|119:379,1,133.333333333333,0|0,1:0|0:0,0:0:0:0:
290,262,183151,2,0,P|248:194|186:200,1,133.333333333333,8|0,0:0|0:0,0:0:0:0:
342,60,183631,6,0,B|345:109|345:109|109:123|109:123|111:181,1,333.333333333333,8|0,0:1|0:0,0:0:0:0:
6,305,184591,6,0,B|51:258|109:265|147:331|173:378|237:384|237:384|245:334,1,300.000011444092,0|8,1:0|0:1,0:0:0:0:
302,305,185711,1,0,0:0:0:0:
336,309,185871,1,0,0:0:0:0:
407,346,186031,1,0,1:0:0:0:
474,299,186191,1,0,1:0:0:0:
471,215,186351,1,0,1:0:0:0:
390,175,186511,6,0,P|329:196|272:195,1,100.000003814697,0|0,1:0|0:0,0:0:0:0:
255,115,186991,2,0,P|203:89|141:89,1,100.000003814697,8|0,0:0|0:0,0:0:0:0:
339,13,187471,2,0,L|328:130,1,100.000003814697,8|0,0:1|1:0,0:0:0:0:
398,161,187951,1,0,1:0:0:0:
401,239,188111,1,0,1:0:0:0:
329,288,188271,1,0,1:0:0:0:
255,249,188431,6,0,B|209:202|151:209|113:275|87:322|23:328|23:328|15:278,1,300.000011444092,0|8,1:0|0:1,0:0:0:0:
53,221,189551,1,0,0:0:0:0:
59,186,189711,1,0,0:0:0:0:
27,111,189871,1,0,1:0:0:0:
76,44,190031,1,0,1:0:0:0:
160,44,190191,1,0,1:0:0:0:
211,125,190351,2,0,L|147:152,2,50.0000019073487,0|0|0,1:0|1:0|1:0,0:0:0:0:
334,69,190831,2,0,L|342:0,2,50.0000019073487,8|0|0,1:2|1:0|1:0,0:0:0:0:
321,205,191311,2,0,L|376:246,2,50.0000019073487,8|0|0,1:1|1:0|1:0,0:0:0:0:
290,136,191791,1,0,1:0:0:0:
290,136,191951,1,0,1:0:0:0:
290,136,192111,1,0,1:0:0:0:
290,136,193231,6,0,P|209:118|139:110,1,150.000005722046,8|0,0:1|1:0,0:0:0:0:
100,194,193871,1,0,1:0:0:0:
115,225,194031,1,0,1:0:0:0:
105,344,194191,6,0,P|169:334|231:357,1,133.333333333333,0|0,1:0|0:0,0:0:0:0:
166,173,194671,2,0,P|217:213|248:271,1,133.333333333333,8|0,0:0|0:0,0:0:0:0:
463,348,195151,2,0,P|400:368|335:357,1,133.333333333333,8|0,0:1|1:0,0:0:0:0:
412,182,195631,2,0,P|381:239|325:274,1,133.333333333333,8|0,1:2|1:0,0:0:0:0:
306,65,196111,6,0,L|294:207,1,133.333333333333,0|0,1:0|0:0,0:0:0:0:
226,254,196591,2,0,L|218:341,2,66.6666666666667,8|0|0,0:0|0:0|1:0,0:0:0:0:
160,104,197071,2,0,B|163:140|163:140|260:133,1,133.333333333333,8|0,0:1|0:0,0:0:0:0:
306,65,197551,1,8,1:2:0:0:
389,78,197711,1,0,1:0:0:0:
414,156,197871,1,0,1:0:0:0:
360,220,198031,6,0,L|371:378,2,150.000005722046,0|0|0,1:0|0:0|0:0,0:0:0:0:
