osu file format v14

[General]
AudioFilename: audio.mp3
AudioLeadIn: 0
PreviewTime: 45871
Countdown: 0
SampleSet: Soft
StackLeniency: 0.3
Mode: 0
LetterboxInBreaks: 0
WidescreenStoryboard: 1

[Editor]
Bookmarks: 7951,23311,38671,54031,69391,77071,84751,100111,115471,130831,138511,146191,161551,169231,184591,192271
DistanceSpacing: 0.6
BeatDivisor: 3
GridSize: 32
TimelineZoom: 2.899999

[Metadata]
Title:Believer
TitleUnicode:Believer
Artist:Imagine Dragons
ArtistUnicode:Imagine Dragons
Creator:Striderin
Version:Embrace
Source:
Tags:english alternative alt rock evolve piroshki bongo morrighan
BeatmapID:2324581
BeatmapSetID:1112670

[Difficulty]
HPDrainRate:6
CircleSize:5.3
OverallDifficulty:8
ApproachRate:9.4
SliderMultiplier:1
SliderTickRate:1

[Events]
//Background and Video events
0,0,"believer.jpg",0,0
//Break Periods
//Storyboard Layer 0 (Background)
//Storyboard Layer 1 (Fail)
//Storyboard Layer 2 (Pass)
//Storyboard Layer 3 (Foreground)
//Storyboard Layer 4 (Overlay)
//Storyboard Sound Samples

[TimingPoints]
271,480,4,2,1,80,1,0
271,-133.333333333333,4,2,2,80,0,0
1231,-133.333333333333,4,2,1,80,0,0
7951,-80,4,2,1,80,0,0
15631,-100,4,2,2,80,0,0
15951,-100,4,2,1,80,0,0
16591,-66.6666666666667,4,2,1,80,0,0
17551,-80,4,2,1,80,0,0
20431,-66.6666666666667,4,2,1,80,0,0
21391,-80,4,2,1,80,0,0
23311,-100,4,2,2,80,0,0
23791,-80,4,2,1,80,0,0
30991,-100,4,2,2,80,0,0
31311,-100,4,2,1,80,0,0
31951,-66.6666666666667,4,2,1,80,0,0
32911,-80,4,2,1,80,0,0
35791,-66.6666666666667,4,2,1,80,0,0
36751,-100,4,2,1,80,0,0
38671,-100,4,2,2,80,0,0
38991,-100,4,2,1,80,0,0
42511,-66.6666666666667,4,2,1,80,0,0
46351,-100,4,2,2,80,0,0
46671,-100,4,2,1,80,0,0
50191,-66.6666666666667,4,2,1,80,0,0
52111,-80,4,2,1,80,0,0
54031,-100,4,2,2,80,0,0
54991,-25,4,2,1,100,0,1
55951,-50,4,2,1,100,0,1
60751,-66.6666666666667,4,2,1,100,0,1
61711,-133.333333333333,4,2,2,80,0,0
62671,-25,4,2,1,100,0,1
63631,-50,4,2,1,100,0,1
68431,-50,4,2,1,80,0,0
69391,-50,4,2,2,100,0,1
69551,-50,4,2,1,100,0,1
73231,-50,4,2,2,100,0,1
73391,-50,4,2,1,100,0,1
77071,-100,4,2,2,80,0,0
78031,-25,4,2,1,100,0,1
78991,-50,4,2,1,100,0,1
83791,-66.6666666666667,4,2,1,80,0,0
84751,-66.6666666666667,4,2,2,80,0,0
84911,-66.6666666666667,4,2,1,80,0,0
92431,-100,4,2,2,80,0,0
92911,-66.6666666666667,4,2,1,80,0,0
93391,-50,4,2,1,80,0,0
94351,-66.6666666666667,4,2,1,80,0,0
97231,-50,4,2,1,80,0,0
98191,-66.6666666666667,4,2,1,80,0,0
100111,-66.6666666666667,4,2,2,80,0,0
100431,-66.6666666666667,4,2,1,80,0,0
103951,-50,4,2,1,80,0,0
105871,-57.1428571428571,4,2,1,80,0,0
107791,-66.6666666666667,4,2,2,80,0,0
107951,-66.6666666666667,4,2,1,80,0,0
115471,-100,4,2,2,80,0,0
116431,-25,4,2,1,100,0,1
117391,-50,4,2,1,100,0,1
122191,-66.6666666666667,4,2,1,100,0,1
123151,-133.333333333333,4,2,2,80,0,0
124111,-25,4,2,1,100,0,1
125071,-50,4,2,1,100,0,1
129871,-50,4,2,1,80,0,0
130831,-50,4,2,2,100,0,1
130991,-50,4,2,1,100,0,1
134671,-50,4,2,2,100,0,1
134831,-50,4,2,1,100,0,1
138511,-100,4,2,2,80,0,0
139471,-25,4,2,1,100,0,1
140431,-50,4,2,1,100,0,1
145231,-66.6666666666667,4,2,1,80,0,0
146191,-100,4,2,1,80,0,0
161551,-100,4,2,2,80,0,0
161711,-100,4,2,1,80,0,0
163471,-100,4,2,2,80,0,0
163631,-100,4,2,1,80,0,0
165391,-100,4,2,2,80,0,0
165551,-100,4,2,1,80,0,0
167311,-100,4,2,2,80,0,0
167471,-100,4,2,1,80,0,0
168271,-133.333333333333,4,2,1,80,0,0
169231,-133.333333333333,4,2,2,30,0,0
169311,-133.333333333333,4,2,1,35,0,0
169391,-133.333333333333,4,2,1,40,0,0
169471,-133.333333333333,4,2,1,45,0,0
169551,-133.333333333333,4,2,1,50,0,0
169631,-133.333333333333,4,2,1,55,0,0
169711,-133.333333333333,4,2,1,60,0,0
169791,-133.333333333333,4,2,1,65,0,0
169871,-133.333333333333,4,2,1,70,0,0
169951,-133.333333333333,4,2,1,75,0,0
170031,-133.333333333333,4,2,1,80,0,0
170111,-133.333333333333,4,2,1,85,0,0
170191,-25,4,2,1,100,0,1
171151,-40,4,2,1,100,0,1
176911,-133.333333333333,4,2,2,80,0,0
177071,-133.333333333333,4,2,1,80,0,0
177871,-25,4,2,1,100,0,1
178831,-40,4,2,1,100,0,1
183631,-40,4,2,1,80,0,0
184591,-40,4,2,2,100,0,1
184751,-40,4,2,1,100,0,1
188431,-40,4,2,2,100,0,1
188591,-40,4,2,1,100,0,1
192271,-40,4,2,1,80,0,0
193231,-25,4,2,1,100,0,1
194191,-40,4,2,1,100,0,1
198031,-40,4,2,1,80,0,0
198511,-59.8802395209581,4,2,1,80,0,0

[Colours]
Combo1 : 187,101,49
Combo2 : 125,89,77
Combo3 : 83,73,129

[HitObjects]
108,157,271,6,0,P|117:229|124:308,1,150.000005722046,0|8,1:0|0:1,0:0:0:0:
127,132,1711,2,0,L|169:126,2,25.0000009536744,0|0|0,1:0|1:0|1:0,0:0:0:0:
215,187,2191,1,0,1:0:0:0:
301,145,2671,1,8,0:0:0:0:
381,197,3151,1,8,0:1:0:0:
462,136,3631,2,0,L|437:139,2,25.0000009536744,0|0|0,1:0|1:0|1:0,0:0:0:0:
381,197,4111,1,0,1:0:0:0:
301,145,4591,1,8,0:0:0:0:
215,187,5071,1,8,0:1:0:0:
127,132,5551,2,0,L|169:126,2,25.0000009536744,0|0|0,1:0|1:0|1:0,0:0:0:0:
215,187,6031,1,0,1:0:0:0:
301,145,6511,1,8,0:0:0:0:
381,197,6991,1,8,0:1:0:0:
462,136,7471,1,8,0:0:0:0:
289,224,7951,6,0,P|283:273|279:321,1,83.3333333333333,0|0,1:0|0:0,0:0:0:0:
207,206,8431,2,0,P|201:148|196:117,1,83.3333333333333,8|0,0:0|0:0,0:0:0:0:
134,257,8911,1,8,0:1:0:0:
376,280,9391,5,0,1:0:0:0:
376,280,9551,1,0,1:0:0:0:
376,280,9711,1,0,1:0:0:0:
276,163,9871,6,0,P|350:156|382:200,1,125,0|8,1:0|0:0,0:0:0:0:
173,359,10671,1,0,0:0:0:0:
118,298,10831,2,0,P|74:303|26:311,1,83.3333333333333,8|0,0:1|0:0,0:0:0:0:
151,177,11311,5,0,1:0:0:0:
151,177,11471,1,0,1:0:0:0:
151,177,11631,1,0,1:0:0:0:
239,266,11791,6,0,P|305:267|340:273,1,83.3333333333333,0|0,1:0|0:0,0:0:0:0:
372,171,12271,1,8,0:0:0:0:
468,373,12751,2,0,P|480:302|482:264,1,83.3333333333333,8|0,0:1|0:0,0:0:0:0:
376,349,13231,5,0,1:0:0:0:
376,349,13391,1,0,1:0:0:0:
376,349,13551,1,0,1:0:0:0:
294,238,13711,6,0,P|231:237|191:293,1,125,0|8,1:0|0:0,0:0:0:0:
66,120,14511,1,0,0:0:0:0:
128,166,14671,2,0,P|207:155|235:154,1,83.3333333333333,8|0,0:1|0:0,0:0:0:0:
364,113,15151,2,0,P|285:102|266:102,1,83.3333333333333,8|0,0:0|0:0,0:0:0:0:
213,4,15631,6,0,L|218:85,1,66.6666666666667,0|0,1:0|0:0,0:0:0:0:
270,182,16111,1,8,0:0:0:0:
390,79,16591,2,0,P|456:91|475:121,1,100.000003814697,8|0,0:1|0:0,0:0:0:0:
418,232,17071,5,0,1:0:0:0:
418,232,17231,1,0,1:0:0:0:
418,232,17391,1,0,1:0:0:0:
456,310,17551,6,0,L|315:322,1,125,0|8,1:0|0:0,0:0:0:0:
105,164,18351,1,0,0:0:0:0:
168,211,18511,2,0,P|165:272|162:300,1,83.3333333333333,8|0,0:1|0:0,0:0:0:0:
264,146,18991,5,0,1:0:0:0:
264,146,19151,1,0,1:0:0:0:
264,146,19311,1,0,1:0:0:0:
189,56,19471,6,0,P|147:57|102:62,1,83.3333333333333,0|0,1:0|0:0,0:0:0:0:
18,30,19951,1,8,0:0:0:0:
275,11,20431,2,0,P|343:19|372:45,1,100.000003814697,8|0,0:1|0:0,0:0:0:0:
221,143,20911,5,0,1:0:0:0:
221,143,21071,1,0,1:0:0:0:
221,143,21231,1,0,1:0:0:0:
292,201,21391,6,0,P|297:260|300:334,2,125,0|8|8,1:0|0:0|0:1,0:0:0:0:
78,275,23311,6,0,L|74:349,1,66.6666666666667,0|0,1:0|0:0,0:0:0:0:
147,234,23791,1,8,0:0:0:0:
291,278,24271,2,0,L|357:270,1,41.6666666666667,8|0,0:1|0:0,0:0:0:0:
402,311,24591,1,0,0:0:0:0:
462,238,24751,5,0,1:0:0:0:
462,238,24911,1,0,1:0:0:0:
462,238,25071,1,0,1:0:0:0:
375,137,25231,6,0,L|381:75,1,41.6666666666667,0|0,1:0|0:0,0:0:0:0:
340,42,25551,1,0,0:0:0:0:
301,186,25711,2,0,L|292:123,1,41.6666666666667,8|0,0:0|0:0,0:0:0:0:
246,102,26031,1,0,0:0:0:0:
161,248,26191,2,0,P|222:239|262:238,1,83.3333333333333,8|0,0:1|0:0,0:0:0:0:
149,338,26671,5,0,1:0:0:0:
149,338,26831,1,0,1:0:0:0:
149,338,26991,1,0,1:0:0:0:
68,209,27151,5,0,1:0:0:0:
193,70,27631,2,0,P|135:66|102:68,1,83.3333333333333,8|0,0:0|0:0,0:0:0:0:
226,149,28111,1,8,0:1:0:0:
107,302,28591,5,0,1:0:0:0:
107,302,28751,1,0,1:0:0:0:
107,302,28911,1,0,1:0:0:0:
218,337,29071,6,0,P|262:301|343:319,1,125,0|8,1:0|0:0,0:0:0:0:
450,125,29871,1,0,0:0:0:0:
509,208,30031,2,0,L|499:275,1,41.6666666666667,8|0,0:1|0:0,0:0:0:0:
429,193,30351,1,0,0:0:0:0:
393,252,30511,2,0,L|401:304,1,41.6666666666667,8|0,0:0|0:0,0:0:0:0:
261,311,30831,1,0,0:0:0:0:
320,237,30991,6,0,P|326:177|326:148,1,66.6666666666667,0|0,1:0|0:0,0:0:0:0:
292,46,31471,1,8,0:0:0:0:
94,174,31951,2,0,P|134:213|186:211,1,100.000003814697,8|0,0:1|0:0,0:0:0:0:
247,100,32431,5,0,1:0:0:0:
247,100,32591,1,0,1:0:0:0:
247,100,32751,1,0,1:0:0:0:
268,256,32911,6,0,P|263:304|262:390,1,125,0|8,1:0|0:0,0:0:0:0:
61,277,33711,1,0,0:0:0:0:
17,376,33871,2,0,L|73:360,1,41.6666666666667,8|0,0:1|0:0,0:0:0:0:
152,381,34191,1,0,0:0:0:0:
191,283,34351,5,0,1:0:0:0:
191,283,34511,1,0,1:0:0:0:
191,283,34671,1,0,1:0:0:0:
92,198,34831,6,0,P|87:137|92:96,1,83.3333333333333,0|0,1:0|0:0,0:0:0:0:
145,12,35311,1,8,0:0:0:0:
374,164,35791,2,0,P|310:171|274:224,1,100.000003814697,8|0,0:1|0:0,0:0:0:0:
352,327,36271,5,0,1:0:0:0:
305,278,36431,1,0,1:0:0:0:
261,380,36591,1,0,1:0:0:0:
171,346,36751,6,0,L|42:337,2,100,0|8|8,1:0|0:0|0:1,0:0:0:0:
247,176,38351,5,0,0:0:0:0:
241,210,38511,1,0,0:0:0:0:
192,266,38671,2,0,P|199:327|200:348,2,66.6666666666667,0|0|0,1:0|0:0|0:0,0:0:0:0:
136,221,39471,1,0,0:0:0:0:
266,290,39631,2,0,P|310:287|344:281,1,66.6666666666667,8|0,0:1|0:0,0:0:0:0:
416,210,40111,5,0,1:0:0:0:
401,305,40271,1,0,1:0:0:0:
305,221,40431,1,0,1:0:0:0:
455,150,40591,6,0,P|445:106|433:77,2,66.6666666666667,0|0|0,1:0|0:0|0:0,0:0:0:0:
500,201,41391,1,0,0:0:0:0:
376,158,41551,2,0,P|338:151|304:148,1,66.6666666666667,8|0,0:1|0:0,0:0:0:0:
216,240,42031,5,0,1:0:0:0:
153,126,42191,1,0,1:0:0:0:
243,166,42351,1,0,1:0:0:0:
78,148,42511,6,0,P|71:108|71:40,2,100.000003814697,0|0|0,1:0|0:0|0:0,0:0:0:0:
137,202,43311,1,0,0:0:0:0:
158,78,43471,2,0,P|207:67|262:59,1,100.000003814697,8|0,0:1|0:0,0:0:0:0:
361,111,43951,5,0,1:0:0:0:
306,169,44111,1,0,1:0:0:0:
321,50,44271,1,0,1:0:0:0:
435,148,44431,5,0,1:0:0:0:
390,206,44591,1,0,0:0:0:0:
417,273,44751,1,0,0:0:0:0:
298,220,44911,1,8,0:0:0:0:
343,276,45071,1,0,0:0:0:0:
314,346,45231,1,0,0:0:0:0:
433,306,45391,1,8,0:1:0:0:
400,318,45551,1,0,0:0:0:0:
382,348,45711,1,0,0:0:0:0:
257,276,45871,1,8,0:0:0:0:
284,297,46031,1,0,0:0:0:0:
294,330,46191,1,0,0:0:0:0:
161,328,46351,6,0,P|123:320|91:318,2,66.6666666666667,0|0|0,1:0|0:0|0:0,0:0:0:0:
207,383,47151,1,0,0:0:0:0:
172,256,47311,2,0,P|167:212|171:171,1,66.6666666666667,8|0,0:1|0:0,0:0:0:0:
247,117,47791,5,0,1:0:0:0:
237,206,47951,1,0,1:0:0:0:
95,152,48111,1,0,1:0:0:0:
180,42,48271,6,0,P|224:46|262:59,2,66.6666666666667,0|0|0,1:0|0:0|0:0,0:0:0:0:
121,4,49071,1,0,0:0:0:0:
160,115,49231,2,0,P|181:152|198:177,1,66.6666666666667,8|0,0:1|0:0,0:0:0:0:
314,177,49711,5,0,1:0:0:0:
269,243,49871,1,0,1:0:0:0:
278,91,50031,1,0,1:0:0:0:
426,80,50191,6,0,P|422:144|409:205,2,100.000003814697,0|0|0,1:0|0:0|0:0,0:0:0:0:
361,35,50991,1,0,0:0:0:0:
488,164,51151,2,0,P|497:238|497:287,1,100.000003814697,8|0,0:1|0:0,0:0:0:0:
434,348,51631,5,0,1:0:0:0:
412,237,51791,1,0,1:0:0:0:
506,331,51951,1,0,1:0:0:0:
331,281,52111,6,0,P|286:287|230:302,2,83.3333333333333,0|0|0,1:0|0:0|0:0,0:0:0:0:
321,348,52911,1,0,0:0:0:0:
256,192,53071,12,0,53871,0:0:0:0:
188,257,54031,6,0,B|193:284|193:284|244:126,1,166.666666666667,4|0,1:2|0:0,0:0:0:0:
319,0,54991,6,0,L|193:388,1,400,8|0,0:1|1:0,0:0:0:0:
183,124,55631,1,0,1:0:0:0:
313,298,55791,1,0,1:0:0:0:
337,163,55951,6,0,L|316:227,1,66.6666666666667,0|0,1:0|0:0,0:0:0:0:
505,114,56271,1,0,0:0:0:0:
428,161,56431,2,0,L|384:287,1,133.333333333333,8|0,0:0|0:0,0:0:0:0:
238,81,56911,6,0,L|259:144,1,66.6666666666667,8|0,0:1|0:0,0:0:0:0:
69,29,57231,1,0,0:0:0:0:
168,141,57391,2,0,L|147:78,2,66.6666666666667,0|0|0,1:0|1:0|1:0,0:0:0:0:
61,224,57871,6,0,L|100:362,1,133.333333333333,0|0,1:0|0:0,0:0:0:0:
81,190,58351,2,0,L|226:143,1,133.333333333333,8|0,0:0|0:0,0:0:0:0:
422,206,58831,1,8,0:1:0:0:
422,206,59311,5,0,1:0:0:0:
390,110,59471,1,0,1:0:0:0:
290,278,59631,1,0,1:0:0:0:
207,148,59791,6,0,L|81:190,1,133.333333333333,0|0,1:0|0:0,0:0:0:0:
97,352,60271,2,0,L|61:224,1,133.333333333333,8|0,0:0|0:0,0:0:0:0:
388,141,60751,6,0,B|421:155|421:155|218:227,1,250.000009536744,8|0,0:1|0:0,0:0:0:0:
62,297,61711,6,0,B|38:287|38:287|137:253,1,125.000004768372,4|0,1:2|0:0,0:0:0:0:
193,0,62671,6,0,L|319:388,1,400,8|0,0:1|1:0,0:0:0:0:
327,139,63311,1,0,1:0:0:0:
196,259,63471,1,0,1:0:0:0:
165,126,63631,6,0,L|186:190,1,66.6666666666667,0|0,1:0|0:0,0:0:0:0:
192,35,63951,1,0,0:0:0:0:
70,120,64111,2,0,L|114:246,1,133.333333333333,8|0,0:0|0:0,0:0:0:0:
322,122,64591,6,0,L|301:186,1,66.6666666666667,8|0,0:1|0:0,0:0:0:0:
296,34,64911,1,0,0:0:0:0:
394,174,65071,2,0,L|415:110,2,66.6666666666667,0|0|0,1:0|1:0|1:0,0:0:0:0:
411,359,65551,6,0,L|282:313,1,133.333333333333,0|0,1:0|0:0,0:0:0:0:
446,342,66031,2,0,L|485:213,1,133.333333333333,8|0,0:0|0:0,0:0:0:0:
391,9,66511,1,8,0:1:0:0:
391,9,66991,5,0,1:0:0:0:
460,74,67151,1,0,1:0:0:0:
310,159,67311,1,0,1:0:0:0:
484,214,67471,6,0,L|446:342,1,133.333333333333,0|0,1:0|0:0,0:0:0:0:
285,314,67951,2,0,L|411:359,1,133.333333333333,8|0,0:0|0:0,0:0:0:0:
241,213,68431,1,8,0:1:0:0:
241,213,69391,6,0,P|295:201|216:290,1,333.333333333333,0|0,1:0|1:0,0:0:0:0:
139,193,70351,2,0,P|11:212|119:282,1,333.333333333333,8|0,0:1|1:0,0:0:0:0:
249,148,71311,6,0,P|287:137|337:136,1,66.6666666666667,0|0,1:0|0:0,0:0:0:0:
336,200,71631,1,0,0:0:0:0:
166,130,71791,2,0,P|132:100|99:81,1,66.6666666666667,8|0,0:0|0:0,0:0:0:0:
55,133,72111,1,0,0:0:0:0:
289,61,72271,2,0,P|349:69|384:85,1,66.6666666666667,8|0,0:1|0:0,0:0:0:0:
383,138,72591,1,0,1:0:0:0:
173,32,72751,2,0,P|129:19|74:18,1,66.6666666666667,0|0,1:0|1:0,0:0:0:0:
48,59,73071,1,0,1:0:0:0:
332,208,73231,6,0,P|460:227|352:298,1,333.333333333333,0|0,1:0|1:0,0:0:0:0:
231,229,74191,2,0,P|123:299|251:319,1,333.333333333333,8|0,0:1|1:0,0:0:0:0:
308,182,75151,6,0,P|311:148|321:117,1,66.6666666666667,0|0,1:0|0:0,0:0:0:0:
378,217,75471,1,0,0:0:0:0:
245,196,75631,2,0,P|226:169|203:146,1,66.6666666666667,8|0,0:0|1:0,0:0:0:0:
212,264,75951,1,0,1:0:0:0:
389,149,76111,2,0,P|418:121|452:102,1,66.6666666666667,8|0,1:0|1:0,0:0:0:0:
430,270,76431,1,0,1:0:0:0:
160,216,76591,2,0,P|108:211|75:214,1,66.6666666666667,0|0,1:0|1:0,0:0:0:0:
202,336,76911,1,0,1:0:0:0:
265,80,77071,6,0,B|244:61|244:61|295:219,1,166.666666666667,4|0,1:2|0:0,0:0:0:0:
316,380,78031,6,0,L|193:0,1,400,8|0,0:1|1:0,0:0:0:0:
168,192,78671,1,0,1:0:0:0:
281,34,78831,1,0,1:0:0:0:
371,122,78991,6,0,L|345:48,1,66.6666666666667,0|0,1:0|0:0,0:0:0:0:
333,195,79311,1,0,0:0:0:0:
456,132,79471,2,0,L|409:-4,1,133.333333333333,8|0,0:0|0:0,0:0:0:0:
291,268,79951,6,0,L|265:342,1,66.6666666666667,8|0,0:1|0:0,0:0:0:0:
374,258,80271,1,0,1:0:0:0:
199,271,80431,2,0,L|223:209,2,66.6666666666667,0|0|0,1:0|1:0|1:0,0:0:0:0:
40,168,80911,6,0,L|-6:25,1,133.333333333333,0|0,1:0|1:0,0:0:0:0:
76,184,81391,2,0,L|219:138,1,133.333333333333,8|0,0:0|1:0,0:0:0:0:
406,35,81871,1,8,0:1:0:0:
406,35,82351,5,0,1:0:0:0:
451,146,82511,1,0,1:0:0:0:
278,39,82671,1,0,1:0:0:0:
202,143,82831,6,0,L|76:184,1,133.333333333333,0|0,1:0|0:0,0:0:0:0:
0,41,83311,2,0,L|41:168,1,133.333333333333,8|0,0:0|0:0,0:0:0:0:
322,307,83791,2,0,L|431:348,1,100.000003814697,8|0,0:1|1:0,0:0:0:0:
482,230,84271,2,0,L|447:335,1,100.000003814697,8|0,0:0|0:0,0:0:0:0:
255,205,84751,6,0,L|272:282,2,50.0000019073487,0|0|0,1:0|0:0|0:0,0:0:0:0:
351,120,85231,2,0,P|339:172|331:231,1,100.000003814697,8|0,0:0|0:0,0:0:0:0:
191,155,85711,2,0,L|126:167,2,50.0000019073487,8|0|0,0:1|0:0|0:0,0:0:0:0:
317,71,86191,5,0,1:0:0:0:
263,141,86351,1,0,1:0:0:0:
171,91,86511,1,0,1:0:0:0:
70,235,86671,6,0,P|134:243|181:287,1,100.000003814697,0|0,1:0|0:0,0:0:0:0:
280,221,87151,2,0,L|356:203,1,50.0000019073487,8|0,0:0|0:0,0:0:0:0:
391,253,87471,1,0,0:0:0:0:
355,135,87631,2,0,P|407:146|476:151,1,100.000003814697,8|0,0:1|0:0,0:0:0:0:
493,308,88111,5,0,1:0:0:0:
419,258,88271,1,0,1:0:0:0:
350,330,88431,1,0,1:0:0:0:
257,235,88591,6,0,L|195:229,2,50.0000019073487,0|0|0,1:0|0:0|0:0,0:0:0:0:
143,330,89071,2,0,P|211:313|263:310,1,100.000003814697,8|0,0:0|0:0,0:0:0:0:
121,178,89551,2,0,L|196:164,2,50.0000019073487,8|0|0,0:1|0:0|0:0,0:0:0:0:
75,319,90031,5,0,1:0:0:0:
127,246,90191,1,0,1:0:0:0:
215,288,90351,1,0,1:0:0:0:
308,191,90511,6,0,L|313:136,1,50.0000019073487,0|0,1:0|0:0,0:0:0:0:
237,126,90831,1,0,0:0:0:0:
344,50,90991,2,0,P|396:54|460:64,1,100.000003814697,8|0,0:0|0:0,0:0:0:0:
396,264,91471,2,0,L|392:215,1,50.0000019073487,8|0,0:1|0:0,0:0:0:0:
450,166,91791,1,0,0:0:0:0:
512,288,91951,2,0,L|454:294,1,50.0000019073487,8|0,0:0|0:0,0:0:0:0:
321,253,92271,1,0,0:0:0:0:
191,347,92431,6,0,L|103:357,1,66.6666666666667,0|0,1:0|0:0,0:0:0:0:
12,227,92911,2,0,L|75:234,2,50.0000019073487,8|0|0,0:0|0:0|0:0,0:0:0:0:
228,130,93391,2,0,P|160:123|121:194,1,133.333333333333,8|0,0:1|0:0,0:0:0:0:
308,229,93871,5,0,1:0:0:0:
227,198,94031,1,0,1:0:0:0:
163,277,94191,1,0,1:0:0:0:
35,148,94351,6,0,P|97:145|129:190,1,100.000003814697,0|0,1:0|0:0,0:0:0:0:
139,59,94831,2,0,L|70:67,1,50.0000019073487,8|0,0:0|0:0,0:0:0:0:
211,125,95151,1,0,0:0:0:0:
255,25,95311,2,0,P|307:30|381:43,1,100.000003814697,8|0,0:1|0:0,0:0:0:0:
484,120,95791,5,0,1:0:0:0:
423,52,95951,1,0,1:0:0:0:
332,103,96111,1,0,1:0:0:0:
193,12,96271,6,0,P|177:83|170:125,1,100.000003814697,0|0,1:0|0:0,0:0:0:0:
249,229,96751,2,0,L|240:167,2,50.0000019073487,8|0|0,0:0|0:0|0:0,0:0:0:0:
446,282,97231,2,0,P|403:211|344:217,1,133.333333333333,8|0,0:1|0:0,0:0:0:0:
219,321,97711,5,0,1:0:0:0:
269,246,97871,1,0,1:0:0:0:
369,296,98031,1,0,1:0:0:0:
409,131,98191,6,0,P|365:173|363:224,1,100.000003814697,0|0,1:0|0:0,0:0:0:0:
280,134,98671,2,0,L|211:127,2,50.0000019073487,8|0|0,0:0|0:0|0:0,0:0:0:0:
72,248,99151,2,0,L|193:227,1,100.000003814697,8|0,0:1|0:0,0:0:0:0:
229,295,99631,1,8,0:0:0:0:
332,129,99791,5,0,0:0:0:0:
326,202,99951,1,0,0:0:0:0:
418,72,100111,2,0,P|428:150|430:207,2,100.000003814697,0|0|0,1:0|0:0|0:0,0:0:0:0:
506,219,100911,1,0,0:0:0:0:
332,129,101071,2,0,P|282:120|232:120,1,100.000003814697,8|0,0:1|0:0,0:0:0:0:
122,231,101551,5,0,1:0:0:0:
174,84,101711,1,0,1:0:0:0:
203,270,101871,1,0,1:0:0:0:
81,117,102031,6,0,P|74:48|75:4,2,100.000003814697,0|0|0,1:0|0:0|0:0,0:0:0:0:
146,33,102831,1,0,0:0:0:0:
27,184,102991,2,0,P|16:261|15:292,1,100.000003814697,8|0,0:1|0:0,0:0:0:0:
211,330,103471,5,0,1:0:0:0:
80,366,103631,1,0,1:0:0:0:
179,223,103791,1,0,1:0:0:0:
319,322,103951,6,0,P|407:301|459:283,2,133.333333333333,0|0|0,1:0|0:0|0:0,0:0:0:0:
477,362,104751,1,0,0:0:0:0:
341,228,104911,2,0,P|351:144|363:89,1,133.333333333333,8|0,0:1|0:0,0:0:0:0:
468,159,105391,5,0,1:0:0:0:
399,29,105551,1,0,1:0:0:0:
283,132,105711,1,0,1:0:0:0:
147,76,105871,6,0,P|73:88|30:101,2,116.666667779287,0|0|0,1:0|0:0|0:0,0:0:0:0:
206,5,106671,1,0,0:0:0:0:
145,165,106831,2,0,P|135:243|136:295,1,116.666667779287,8|0,0:1|0:0,0:0:0:0:
86,346,107311,1,0,0:0:0:0:
363,212,107471,1,0,0:0:0:0:
281,204,107631,1,0,0:0:0:0:
256,63,107791,5,0,1:0:0:0:
312,128,107951,1,0,0:0:0:0:
296,210,108111,1,0,0:0:0:0:
421,133,108271,1,8,0:0:0:0:
364,186,108431,1,0,0:0:0:0:
368,265,108591,1,0,0:0:0:0:
204,109,108751,1,8,0:1:0:0:
233,128,108911,1,0,0:0:0:0:
244,161,109071,1,0,0:0:0:0:
468,183,109231,1,0,1:0:0:0:
439,202,109391,1,0,1:0:0:0:
427,235,109551,1,0,1:0:0:0:
204,315,109711,5,0,1:0:0:0:
277,241,109871,1,0,0:0:0:0:
371,266,110031,1,0,0:0:0:0:
512,213,110191,1,8,0:0:0:0:
413,179,110351,1,0,0:0:0:0:
342,257,110511,1,0,0:0:0:0:
204,160,110671,1,8,0:1:0:0:
238,158,110831,1,0,0:0:0:0:
267,176,110991,1,0,0:0:0:0:
422,334,111151,1,0,1:0:0:0:
387,329,111311,1,0,1:0:0:0:
356,345,111471,1,0,1:0:0:0:
196,384,111631,6,0,L|204:318,1,50.0000019073487,0|0,1:0|0:0,0:0:0:0:
153,273,111951,1,0,0:0:0:0:
287,348,112111,2,0,L|283:299,2,50.0000019073487,8|0|0,0:0|0:0|0:0,0:0:0:0:
98,353,112591,2,0,L|-28:371,1,100.000003814697,8|0,0:1|0:0,0:0:0:0:
79,197,113071,5,0,1:0:0:0:
128,266,113231,1,0,1:0:0:0:
206,132,113391,1,0,1:0:0:0:
342,266,113551,2,0,P|283:231|236:238,1,100.000003814697,0|0,1:0|1:0,0:0:0:0:
378,204,114031,5,0,1:0:0:0:
298,341,114191,1,0,1:0:0:0:
203,157,114351,1,0,1:0:0:0:
256,192,114511,12,0,115311,0:0:0:0:
325,296,115471,6,0,B|356:282|356:282|221:241,1,166.666666666667,4|0,1:2|0:0,0:0:0:0:
44,152,116431,6,0,L|443:272,1,400,8|0,0:1|1:0,0:0:0:0:
270,88,117071,1,0,1:0:0:0:
323,262,117231,1,0,1:0:0:0:
396,170,117391,6,0,L|313:146,1,66.6666666666667,0|0,1:0|0:0,0:0:0:0:
474,133,117711,1,0,0:0:0:0:
394,253,117871,2,0,L|256:211,1,133.333333333333,8|0,0:0|0:0,0:0:0:0:
85,300,118351,6,0,L|168:276,1,66.6666666666667,8|0,0:1|0:0,0:0:0:0:
8,263,118671,1,0,0:0:0:0:
151,363,118831,2,0,L|88:383,2,66.6666666666667,0|0|0,1:0|1:0|1:0,0:0:0:0:
339,370,119311,6,0,L|477:328,1,133.333333333333,0|0,1:0|0:0,0:0:0:0:
303,354,119791,2,0,L|261:216,1,133.333333333333,8|0,0:0|0:0,0:0:0:0:
452,59,120271,1,8,0:1:0:0:
452,59,120751,5,0,1:0:0:0:
315,27,120911,1,0,1:0:0:0:
434,162,121071,1,0,1:0:0:0:
264,226,121231,6,0,L|303:354,1,133.333333333333,0|0,1:0|0:0,0:0:0:0:
466,331,121711,2,0,L|339:370,1,133.333333333333,8|0,0:0|0:0,0:0:0:0:
312,48,122191,6,0,B|278:21|278:21|335:227,1,250.000009536744,8|0,0:1|0:0,0:0:0:0:
356,360,123151,6,0,B|379:380|379:380|352:285,1,125.000004768372,4|0,1:2|0:0,0:0:0:0:
435,97,124111,6,0,L|36:217,1,400,8|0,0:1|1:0,0:0:0:0:
212,52,124751,1,0,1:0:0:0:
166,277,124911,1,0,1:0:0:0:
302,264,125071,6,0,L|237:282,1,66.6666666666667,0|0,1:0|0:0,0:0:0:0:
368,384,125391,1,0,0:0:0:0:
291,348,125551,2,0,L|151:387,1,133.333333333333,8|0,0:0|0:0,0:0:0:0:
429,151,126031,6,0,L|493:169,1,66.6666666666667,8|0,0:1|0:0,0:0:0:0:
363,271,126351,1,0,0:0:0:0:
504,252,126511,2,0,L|440:235,2,66.6666666666667,0|0|0,1:0|1:0|1:0,0:0:0:0:
487,57,126991,6,0,L|323:18,1,133.333333333333,0|0,1:0|0:0,0:0:0:0:
505,87,127471,2,0,L|474:216,1,133.333333333333,8|0,0:0|0:0,0:0:0:0:
194,112,127951,1,8,0:1:0:0:
194,112,128431,5,0,1:0:0:0:
259,208,128591,1,0,1:0:0:0:
366,54,128751,1,0,1:0:0:0:
474,216,128911,6,0,L|505:87,1,133.333333333333,0|0,1:0|0:0,0:0:0:0:
357,26,129391,2,0,L|487:57,1,133.333333333333,8|0,0:0|0:0,0:0:0:0:
363,289,129871,5,8,0:1:0:0:
363,289,130831,6,0,P|495:275|418:384,1,333.333333333333,0|0,1:0|1:0,0:0:0:0:
277,263,131791,2,0,P|166:189|182:321,1,333.333333333333,8|0,0:1|1:0,0:0:0:0:
408,186,132751,6,0,P|452:176|488:174,1,66.6666666666667,0|0,1:0|0:0,0:0:0:0:
471,252,133071,1,0,0:0:0:0:
328,159,133231,2,0,P|297:116|262:85,1,66.6666666666667,8|0,0:0|0:0,0:0:0:0:
228,170,133551,1,0,0:0:0:0:
455,106,133711,2,0,P|489:67|511:48,1,66.6666666666667,8|0,0:1|0:0,0:0:0:0:
507,186,134031,1,0,1:0:0:0:
348,72,134191,2,0,P|345:26|340:-4,1,66.6666666666667,0|0,1:0|1:0,0:0:0:0:
252,98,134511,1,0,1:0:0:0:
355,321,134671,6,0,P|371:189|261:263,1,333.333333333333,0|0,1:0|1:0,0:0:0:0:
118,384,135631,2,0,P|40:275|173:286,1,333.333333333333,8|0,0:1|1:0,0:0:0:0:
146,168,136591,6,0,P|106:189|75:221,1,66.6666666666667,0|0,1:0|0:0,0:0:0:0:
89,284,136911,1,0,0:0:0:0:
234,143,137071,2,0,P|282:137|334:150,1,66.6666666666667,8|0,1:2|1:0,0:0:0:0:
352,207,137391,1,0,1:0:0:0:
71,97,137551,2,0,P|39:144|33:177,1,66.6666666666667,8|0,1:0|1:0,0:0:0:0:
58,223,137871,1,0,1:0:0:0:
247,40,138031,2,0,P|310:65|338:89,1,66.6666666666667,0|0,1:0|1:0,0:0:0:0:
346,132,138351,1,0,1:0:0:0:
136,42,138511,6,0,B|141:1|141:1|190:144,1,166.666666666667,4|0,1:2|0:0,0:0:0:0:
423,80,139471,6,0,L|24:200,1,400,8|0,0:1|1:0,0:0:0:0:
283,241,140111,1,0,1:0:0:0:
141,136,140271,1,0,1:0:0:0:
110,283,140431,6,0,L|189:259,1,66.6666666666667,0|0,1:0|0:0,0:0:0:0:
55,346,140751,1,0,0:0:0:0:
140,192,140911,2,0,L|274:152,1,133.333333333333,8|0,0:0|0:0,0:0:0:0:
425,283,141391,6,0,L|346:259,1,66.6666666666667,8|0,0:1|0:0,0:0:0:0:
480,346,141711,1,0,1:0:0:0:
331,173,141871,2,0,L|395:192,2,66.6666666666667,0|0|0,1:0|1:0|1:0,0:0:0:0:
166,38,142351,6,0,L|300:-2,1,133.333333333333,0|0,1:0|1:0,0:0:0:0:
147,73,142831,2,0,L|187:207,1,133.333333333333,8|0,0:0|1:0,0:0:0:0:
28,384,143311,1,8,0:1:0:0:
28,384,143791,5,0,1:0:0:0:
82,256,143951,1,0,1:0:0:0:
285,301,144111,1,0,1:0:0:0:
185,200,144271,6,0,L|147:73,1,133.333333333333,0|0,1:0|0:0,0:0:0:0:
293,0,144751,2,0,L|166:38,1,133.333333333333,8|0,0:0|0:0,0:0:0:0:
485,170,145231,2,0,L|453:264,1,100.000003814697,8|0,0:1|1:0,0:0:0:0:
325,247,145711,2,0,L|418:282,1,100.000003814697
218,286,146191,6,0,P|211:326|201:398,2,100,2|0|0,1:2|0:0|0:0,0:0:0:0:
89,189,147631,2,0,P|96:251|97:268,1,66.6666666666667
165,154,148111,1,2,0:0:0:0:
312,227,148591,2,0,P|370:214|406:211,1,66.6666666666667
493,278,149071,2,0,P|435:263|402:261,1,66.6666666666667
329,340,149551,1,0,0:0:0:0:
454,173,149871,1,0,0:0:0:0:
393,115,150031,5,2,0:0:0:0:
181,185,150511,2,0,P|170:131|167:112,1,66.6666666666667
226,46,150991,1,0,0:0:0:0:
102,225,151471,2,0,P|96:266|93:301,1,66.6666666666667
184,374,151951,2,0,P|173:289|169:243,1,100,2|0,0:0|0:0,0:0:0:0:
317,158,152751,1,0,0:0:0:0:
275,231,152911,2,0,P|272:274|272:306,1,66.6666666666667
333,353,153391,2,0,P|381:348|419:348,1,66.6666666666667
498,280,153871,6,0,P|425:267|374:267,1,100,2|0,0:0|0:0,0:0:0:0:
85,234,154831,2,0,P|176:219|267:216,1,166.666666666667,2|0,0:0|0:0,0:0:0:0:
341,139,155791,2,0,P|338:196|341:247,1,100,2|0,0:0|0:0,0:0:0:0:
205,128,156591,1,0,0:0:0:0:
135,172,156751,2,0,P|78:181|49:191,1,66.6666666666667
12,132,157231,1,0,0:0:0:0:
133,275,157551,1,0,0:0:0:0:
214,233,157711,6,0,P|220:295|222:343,1,100,2|0,0:0|0:0,0:0:0:0:
347,64,158671,2,0,P|344:144|332:270,2,200,2|2|2,0:0|0:0|0:0,0:0:0:0:
138,150,161231,5,0,0:0:0:0:
138,150,161391,1,0,0:0:0:0:
202,182,161551,1,0,1:0:0:0:
199,205,161711,1,0,0:0:0:0:
194,227,161871,1,0,0:0:0:0:
266,232,162031,1,0,0:0:0:0:
258,254,162191,1,0,0:0:0:0:
248,275,162351,1,0,0:0:0:0:
123,260,162511,1,0,0:0:0:0:
123,260,162671,1,0,0:0:0:0:
123,260,162831,1,0,0:0:0:0:
287,150,162991,1,0,1:0:0:0:
241,206,163151,1,0,1:0:0:0:
310,220,163311,1,0,1:0:0:0:
226,54,163471,5,0,1:0:0:0:
224,77,163631,1,0,0:0:0:0:
226,100,163791,1,0,0:0:0:0:
151,108,163951,1,0,0:0:0:0:
160,129,164111,1,0,0:0:0:0:
173,148,164271,1,0,0:0:0:0:
324,113,164431,1,0,0:0:0:0:
324,113,164591,1,0,0:0:0:0:
324,113,164751,1,0,0:0:0:0:
384,257,164911,1,0,1:0:0:0:
323,222,165071,1,0,1:0:0:0:
322,291,165231,1,0,1:0:0:0:
448,195,165391,6,0,L|442:148,1,33.3333333333333,0|0,1:0|0:0,0:0:0:0:
509,223,165711,2,0,B|489:278|419:291|367:236|359:174,1,200
363,334,166831,1,0,1:0:0:0:
363,334,166991,1,0,1:0:0:0:
363,334,167151,1,0,1:0:0:0:
266,291,167311,6,0,P|205:298|141:320,1,100,0|0,1:0|0:0,0:0:0:0:
113,361,167951,1,0,0:0:0:0:
113,361,168111,1,0,0:0:0:0:
39,264,168271,2,0,P|73:233|158:244,1,125.000004768372
219,257,169231,5,6,1:2:0:0:
225,255,169311,1,2,1:2:0:0:
234,251,169391,1,2,1:2:0:0:
243,245,169471,1,2,1:2:0:0:
253,234,169551,1,2,1:2:0:0:
263,222,169631,1,2,1:2:0:0:
273,204,169711,1,2,1:2:0:0:
284,183,169791,1,2,1:2:0:0:
295,158,169871,1,2,1:2:0:0:
306,129,169951,1,2,1:2:0:0:
314,94,170031,1,2,1:2:0:0:
319,53,170111,1,2,1:2:0:0:
320,4,170191,6,0,L|194:392,1,400,8|0,0:1|1:0,0:0:0:0:
158,127,170831,1,0,1:0:0:0:
303,270,170991,1,0,1:0:0:0:
123,243,171151,6,0,L|92:335,1,83.3333333333333,0|0,1:0|0:0,0:0:0:0:
92,166,171471,1,0,0:0:0:0:
214,225,171631,2,0,L|162:383,1,166.666666666667,8|0,0:0|0:0,0:0:0:0:
366,104,172111,6,0,L|397:196,1,83.3333333333333,8|0,0:1|0:0,0:0:0:0:
390,19,172431,1,0,1:0:0:0:
315,206,172591,2,0,L|290:127,2,83.3333333333333,8|0|0,1:2|1:0|1:0,0:0:0:0:
165,377,173071,6,0,L|323:325,1,166.666666666667,0|0,1:0|1:0,0:0:0:0:
128,358,173551,2,0,L|76:199,1,166.666666666667,8|0,0:0|1:0,0:0:0:0:
281,50,174031,1,8,0:1:0:0:
281,50,174191,1,0,0:0:0:0:
281,50,174351,1,0,0:0:0:0:
402,150,174511,5,8,1:2:0:0:
304,123,174671,1,0,1:0:0:0:
222,232,174831,1,0,1:0:0:0:
76,199,174991,6,0,L|128:358,1,166.666666666667,0|0,1:0|0:0,0:0:0:0:
323,325,175471,2,0,L|165:377,1,166.666666666667,8|0,0:0|0:0,0:0:0:0:
337,208,175951,5,8,0:1:0:0:
413,240,176111,1,0,0:0:0:0:
490,271,176271,1,0,1:0:0:0:
322,362,176431,5,8,0:0:0:0:
348,239,176591,1,0,0:0:0:0:
375,117,176751,1,0,0:0:0:0:
165,238,176911,6,0,B|153:266|153:266|249:232,1,125.000004768372,4|0,1:2|1:0,0:0:0:0:
192,4,177871,6,0,L|318:392,1,400,8|0,0:1|1:0,0:0:0:0:
356,159,178511,1,0,1:0:0:0:
201,295,178671,1,0,1:0:0:0:
112,220,178831,6,0,L|70:93,1,83.3333333333333,0|0,1:0|0:0,0:0:0:0:
86,300,179151,1,0,0:0:0:0:
188,186,179311,2,0,L|131:23,1,166.666666666667,8|0,0:0|0:0,0:0:0:0:
394,200,179791,6,0,L|367:279,1,83.3333333333333,8|0,0:1|0:0,0:0:0:0:
464,144,180111,1,0,1:0:0:0:
303,213,180271,2,0,L|354:66,2,83.3333333333333,8|0|0,1:2|1:0|1:0,0:0:0:0:
98,42,180751,6,0,L|42:199,1,166.666666666667,0|0,1:0|1:0,0:0:0:0:
136,29,181231,2,0,L|293:84,1,166.666666666667,8|0,0:0|1:0,0:0:0:0:
381,293,181711,1,8,0:1:0:0:
381,293,181871,1,0,0:0:0:0:
381,293,182031,1,0,0:0:0:0:
258,351,182191,5,8,1:2:0:0:
191,253,182351,1,0,1:0:0:0:
346,202,182511,1,0,1:0:0:0:
293,84,182671,6,0,L|136:29,1,166.666666666667,0|0,1:0|0:0,0:0:0:0:
42,199,183151,2,0,L|98:42,1,166.666666666667,8|0,0:0|0:0,0:0:0:0:
146,289,183631,5,8,0:1:0:0:
146,289,183791,1,0,0:0:0:0:
146,289,183951,1,0,1:0:0:0:
348,327,184111,5,8,0:0:0:0:
348,327,184271,1,0,0:0:0:0:
348,327,184431,1,0,0:0:0:0:
382,225,184591,6,0,P|508:318|346:325,1,416.666666666667,0|0,1:0|1:0,0:0:0:0:
228,202,185551,2,0,P|86:276|243:307,1,416.666666666667,8|0,0:1|1:0,0:0:0:0:
359,166,186511,6,0,P|405:151|445:148,1,83.3333333333333,0|0,1:0|0:0,0:0:0:0:
494,209,186831,1,0,0:0:0:0:
272,154,186991,2,0,P|221:122|176:111,1,83.3333333333333,8|0,0:0|0:0,0:0:0:0:
130,157,187311,1,0,0:0:0:0:
417,88,187471,2,0,P|462:48|497:32,1,83.3333333333333,8|0,0:1|0:0,0:0:0:0:
500,149,187791,1,0,1:0:0:0:
238,67,187951,2,0,P|210:22|168:-21,1,83.3333333333333,0|0,1:0|1:0,0:0:0:0:
139,97,188271,1,0,1:0:0:0:
308,207,188431,6,0,P|450:280|294:312,1,416.666666666667,0|0,1:0|1:0,0:0:0:0:
154,229,189391,2,0,P|30:329|190:331,1,416.666666666667,8|0,0:1|1:0,0:0:0:0:
276,132,190351,5,0,1:0:0:0:
356,136,190511,1,0,1:0:0:0:
396,197,190671,1,0,1:0:0:0:
157,155,190831,1,8,1:2:0:0:
77,174,190991,1,0,1:0:0:0:
57,253,191151,1,0,1:0:0:0:
241,64,191311,1,8,1:1:0:0:
306,16,191471,1,0,1:0:0:0:
382,44,191631,1,0,1:0:0:0:
163,84,191791,1,0,1:0:0:0:
88,55,191951,1,0,1:0:0:0:
27,108,192111,1,0,1:0:0:0:
256,192,192271,12,0,193071,0:0:0:0:
192,380,193231,6,0,L|315:0,1,400,8|0,0:1|1:0,0:0:0:0:
164,169,193871,1,0,1:0:0:0:
366,114,194031,1,0,1:0:0:0:
351,263,194191,6,0,L|324:342,1,83.3333333333333,0|0,1:0|0:0,0:0:0:0:
426,242,194511,1,0,0:0:0:0:
279,228,194671,2,0,L|218:398,1,166.666666666667,8|0,0:0|0:0,0:0:0:0:
102,121,195151,6,0,L|129:200,1,83.3333333333333,8|0,0:1|0:0,0:0:0:0:
27,100,195471,1,0,1:0:0:0:
205,171,195631,2,0,L|178:93,2,83.3333333333333,8|0|0,1:2|1:0|1:0,0:0:0:0:
90,375,196111,6,0,L|246:318,1,166.666666666667,0|0,1:0|1:0,0:0:0:0:
56,357,196591,2,0,L|0:200,1,166.666666666667,8|0,0:0|1:0,0:0:0:0:
228,103,197071,1,8,0:1:0:0:
228,103,197231,1,0,0:0:0:0:
228,103,197391,1,0,0:0:0:0:
156,19,197551,5,8,1:2:0:0:
288,60,197711,1,0,1:0:0:0:
171,211,197871,1,0,1:0:0:0:
0,200,198031,6,0,L|56:357,1,166.666666666667,0|0,1:0|0:0,0:0:0:0:
246,318,198511,2,0,L|90:376,1,166.999994776154
