osu file format v14

[General]
AudioFilename: audio.mp3
AudioLeadIn: 0
PreviewTime: 45871
Countdown: 0
SampleSet: Soft
StackLeniency: 0.9
Mode: 0
LetterboxInBreaks: 0
WidescreenStoryboard: 1

[Editor]
Bookmarks: 7951,23311,38671,54031,69391,77071,84751,100111,115471,130831,138511,146191,161551,169231,184591,192271
DistanceSpacing: 1
BeatDivisor: 3
GridSize: 16
TimelineZoom: 1.3

[Metadata]
Title:Believer
TitleUnicode:Believer
Artist:Imagine Dragons
ArtistUnicode:Imagine Dragons
Creator:Striderin
Version:Easy
Source:
Tags:english alternative alt rock evolve piroshki bongo morrighan
BeatmapID:2497726
BeatmapSetID:1112670

[Difficulty]
HPDrainRate:3
CircleSize:3.5
OverallDifficulty:3
ApproachRate:4
SliderMultiplier:1
SliderTickRate:1

[Events]
//Background and Video events
0,0,"believer.jpg",0,0
//Break Periods
2,146391,160231
//Storyboard Layer 0 (Background)
//Storyboard Layer 1 (Fail)
//Storyboard Layer 2 (Pass)
//Storyboard Layer 3 (Foreground)
//Storyboard Layer 4 (Overlay)
//Storyboard Sound Samples

[TimingPoints]
271,480,4,2,2,80,1,0
751,-100,4,2,1,80,0,0
15631,-100,4,2,2,80,0,0
16111,-100,4,2,1,80,0,0
23311,-100,4,2,2,80,0,0
23791,-100,4,2,1,80,0,0
30991,-100,4,2,2,80,0,0
31471,-100,4,2,1,80,0,0
38671,-100,4,2,2,80,0,0
38991,-100,4,2,1,80,0,0
46351,-100,4,2,2,80,0,0
46671,-100,4,2,1,80,0,0
54031,-100,4,2,2,80,0,0
54991,-100,4,2,1,100,0,1
61711,-100,4,2,2,80,0,0
62671,-100,4,2,1,100,0,1
68431,-100,4,2,1,80,0,0
69391,-100,4,2,2,100,0,1
70351,-100,4,2,1,100,0,1
73231,-100,4,2,2,100,0,1
74191,-100,4,2,1,100,0,1
77071,-100,4,2,2,80,0,0
78031,-100,4,2,1,100,0,1
83791,-100,4,2,1,80,0,0
84751,-100,4,2,2,80,0,0
85231,-100,4,2,1,80,0,0
92431,-100,4,2,2,80,0,0
92911,-100,4,2,1,80,0,0
100111,-100,4,2,2,80,0,0
100431,-100,4,2,1,80,0,0
107791,-100,4,2,2,80,0,0
107951,-100,4,2,1,80,0,0
115471,-100,4,2,2,80,0,0
116431,-100,4,2,1,100,0,1
123151,-100,4,2,2,80,0,0
124111,-100,4,2,1,100,0,1
129871,-100,4,2,1,80,0,0
130831,-100,4,2,2,100,0,1
131791,-100,4,2,1,100,0,1
134671,-100,4,2,2,100,0,1
135631,-100,4,2,1,100,0,1
138511,-100,4,2,2,80,0,0
139471,-100,4,2,1,100,0,1
146191,-100,4,2,1,80,0,0
161551,-100,4,2,2,80,0,0
161711,-100,4,2,1,80,0,0
163471,-100,4,2,2,80,0,0
163631,-100,4,2,1,80,0,0
165391,-100,4,2,2,80,0,0
165551,-100,4,2,1,80,0,0
165711,-100,4,2,1,80,0,0
167311,-100,4,2,2,80,0,0
168111,-100,4,2,1,80,0,0
168271,-100,4,2,1,80,0,0
169231,-100,4,2,2,5,0,0
169311,-100,4,2,1,10,0,0
169391,-100,4,2,1,15,0,0
169471,-100,4,2,1,20,0,0
169551,-100,4,2,1,25,0,0
169631,-100,4,2,1,30,0,0
169711,-100,4,2,1,35,0,0
169791,-100,4,2,1,40,0,0
169871,-100,4,2,1,45,0,0
169951,-100,4,2,1,50,0,0
170031,-100,4,2,1,55,0,0
170111,-100,4,2,1,60,0,0
170191,-100,4,2,1,100,0,1
176911,-100,4,2,2,80,0,0
177711,-100,4,2,1,80,0,0
177871,-100,4,2,1,100,0,1
183631,-100,4,2,1,80,0,0
184591,-100,4,2,2,100,0,1
185551,-100,4,2,1,100,0,1
188431,-100,4,2,2,100,0,1
189391,-100,4,2,1,100,0,1
192111,-100,4,2,1,80,0,0
193231,-100,4,2,1,100,0,1
198031,-100,4,2,1,80,0,0

[Colours]
Combo1 : 187,101,49
Combo2 : 125,89,77
Combo3 : 83,73,129

[HitObjects]
170,311,271,6,0,P|256:266|342:318,1,200,0|8,1:0|0:1,0:0:0:0:
415,213,1711,1,0,1:0:0:0:
415,213,2191,1,0,1:0:0:0:
97,213,3631,1,0,1:0:0:0:
97,213,4111,1,0,1:0:0:0:
259,25,5551,1,0,1:0:0:0:
259,25,6031,1,0,1:0:0:0:
256,192,7951,5,0,1:0:0:0:
316,112,8431,1,8,0:0:0:0:
407,151,8911,1,8,0:1:0:0:
407,151,9871,1,0,1:0:0:0:
407,151,10831,1,8,0:1:0:0:
256,192,11791,5,0,1:0:0:0:
196,112,12271,1,8,0:0:0:0:
105,151,12751,1,8,0:1:0:0:
105,151,13711,1,0,1:0:0:0:
105,151,14671,1,8,0:1:0:0:
256,192,15631,5,0,1:0:0:0:
256,192,16591,2,0,P|277:287|244:400,2,200,8|0|8,0:1|1:0|0:1,0:0:0:0:
256,0,19471,1,0,1:0:0:0:
256,0,20431,2,0,P|235:95|268:208,2,200,8|0|8,0:1|1:0|0:1,0:0:0:0:
432,93,23311,5,0,1:0:0:0:
355,157,23791,1,8,0:0:0:0:
347,263,24271,1,8,0:1:0:0:
347,263,25231,1,0,1:0:0:0:
257,84,26191,1,8,0:1:0:0:
165,263,27151,5,0,1:0:0:0:
157,157,27631,1,8,0:0:0:0:
80,93,28111,1,8,0:1:0:0:
80,93,29071,1,0,1:0:0:0:
256,0,30031,1,8,0:1:0:0:
256,192,30991,5,0,1:0:0:0:
256,192,31951,2,0,P|283:152|440:92,2,200,8|0|8,0:1|1:0|0:1,0:0:0:0:
256,384,34831,1,0,1:0:0:0:
256,384,35791,2,0,P|229:344|72:284,2,200,8|0|8,0:1|1:0|0:1,0:0:0:0:
222,192,38671,6,0,L|288:192,1,66.6666666666667,0|0,1:0|0:0,0:0:0:0:
422,193,39631,1,8,0:1:0:0:
356,117,40111,1,0,1:0:0:0:
290,192,40591,6,0,L|223:192,1,66.6666666666667,0|0,1:0|0:0,0:0:0:0:
90,193,41551,1,8,0:1:0:0:
156,117,42031,1,0,1:0:0:0:
223,192,42511,6,0,L|223:258,1,66.6666666666667,0|0,1:0|0:0,0:0:0:0:
188,382,43471,1,8,0:1:0:0:
279,341,43951,1,0,1:0:0:0:
369,383,44431,1,0,1:0:0:0:
369,383,45391,1,8,0:1:0:0:
360,183,46351,6,0,L|279:183,1,66.6666666666667,0|0,1:0|0:0,0:0:0:0:
159,183,47311,1,8,0:1:0:0:
86,114,47791,1,0,1:0:0:0:
158,45,48271,6,0,L|239:45,1,66.6666666666667,0|0,1:0|0:0,0:0:0:0:
359,45,49231,1,8,0:1:0:0:
432,114,49711,1,0,1:0:0:0:
360,183,50191,6,0,L|360:264,1,66.6666666666667,0|0,1:0|0:0,0:0:0:0:
409,373,51151,1,8,0:1:0:0:
316,333,51631,1,0,1:0:0:0:
222,368,52111,1,0,1:0:0:0:
222,368,53071,1,8,0:1:0:0:
167,109,54991,6,0,P|256:150|345:108,1,200,8|0,0:1|1:0,0:0:0:0:
454,276,56911,1,8,0:1:0:0:
355,259,57391,1,0,1:0:0:0:
256,245,57871,1,0,1:0:0:0:
256,245,58831,1,8,0:1:0:0:
58,276,59791,1,0,1:0:0:0:
58,276,60751,2,0,L|283:240,1,200,8|4,0:1|1:2,0:0:0:0:
344,62,62671,6,0,P|255:23|168:64,1,200,8|0,0:1|1:0,0:0:0:0:
57,230,64591,1,8,0:1:0:0:
156,213,65071,1,0,1:0:0:0:
255,199,65551,1,0,1:0:0:0:
255,199,66511,1,8,0:1:0:0:
455,230,67471,1,0,1:0:0:0:
455,230,68431,1,8,0:1:0:0:
490,33,69391,6,0,P|465:86|333:127,1,200,0|8,1:0|0:1,0:0:0:0:
152,54,71311,2,0,L|33:78,1,100,0|8,1:0|0:0,0:0:0:0:
78,170,72271,2,0,L|176:150,1,100,8|0,0:1|1:0,0:0:0:0:
192,248,73231,6,0,P|95:263|40:343,1,200,0|8,1:0|0:1,0:0:0:0:
237,380,75151,1,0,1:0:0:0:
335,365,75631,1,8,0:0:0:0:
385,278,76111,1,8,1:0:0:0:
344,186,76591,1,0,1:0:0:0:
345,5,78031,6,0,P|256:44|169:3,1,200,8|0,0:1|1:0,0:0:0:0:
91,66,79471,1,8,0:0:0:0:
159,139,79951,1,8,0:1:0:0:
255,165,80431,1,0,1:0:0:0:
353,139,80911,1,0,1:0:0:0:
421,66,81391,1,8,0:0:0:0:
508,113,81871,5,8,0:1:0:0:
364,252,82831,1,0,1:0:0:0:
148,252,83791,1,8,0:1:0:0:
4,113,84751,5,0,1:0:0:0:
91,66,85231,1,8,0:0:0:0:
167,146,85711,1,8,0:1:0:0:
167,146,86671,1,0,1:0:0:0:
167,146,87631,1,8,0:1:0:0:
345,137,88591,5,0,1:0:0:0:
413,64,89071,1,8,0:0:0:0:
508,113,89551,1,8,0:1:0:0:
508,113,90511,1,0,1:0:0:0:
508,113,91471,1,8,0:1:0:0:
423,294,92431,5,0,1:0:0:0:
423,294,93391,2,0,P|368:233|228:210,2,200,8|0|8,0:1|1:0|0:1,0:0:0:0:
256,384,96271,1,0,1:0:0:0:
256,384,97231,2,0,P|159:364|89:294,2,200,8|0|8,0:1|1:0|0:1,0:0:0:0:
256,184,100111,6,0,L|256:107,1,66.6666666666667,0|0,1:0|0:0,0:0:0:0:
138,53,101071,1,8,0:1:0:0:
231,18,101551,1,0,1:0:0:0:
256,117,102031,6,0,L|256:184,1,66.6666666666667,0|0,1:0|0:0,0:0:0:0:
370,253,102991,1,8,0:1:0:0:
277,288,103471,1,0,1:0:0:0:
256,184,103951,6,0,L|189:184,1,66.6666666666667,0|0,1:0|0:0,0:0:0:0:
74,251,104911,1,8,0:1:0:0:
99,154,105391,1,0,1:0:0:0:
57,68,105871,1,0,1:0:0:0:
57,68,106831,1,8,0:1:0:0:
255,69,107791,5,0,1:0:0:0:
255,168,108271,1,8,0:0:0:0:
256,269,108751,1,8,0:1:0:0:
355,269,109231,1,0,1:0:0:0:
454,267,109711,1,0,1:0:0:0:
454,167,110191,1,8,0:0:0:0:
454,68,110671,1,8,0:1:0:0:
355,69,111151,1,0,1:0:0:0:
256,70,111631,1,0,1:0:0:0:
256,70,112591,5,8,0:1:0:0:
256,269,113551,2,0,P|176:271|108:172,1,200,0|8,1:0|0:1,0:0:0:0:
344,12,116431,6,0,P|255:51|167:10,1,200,8|0,0:1|1:0,0:0:0:0:
60,179,118351,1,8,0:1:0:0:
158,159,118831,1,0,1:0:0:0:
256,139,119311,1,0,1:0:0:0:
256,139,120271,1,8,0:1:0:0:
452,179,121231,1,0,1:0:0:0:
452,179,122191,2,0,L|252:138,1,200,8|4,0:1|1:2,0:0:0:0:
167,319,124111,6,0,P|256:358|344:318,1,200,8|0,0:1|1:0,0:0:0:0:
453,150,126031,1,8,0:1:0:0:
355,170,126511,1,0,1:0:0:0:
257,190,126991,1,0,1:0:0:0:
257,190,127951,1,8,0:1:0:0:
61,150,128911,1,0,1:0:0:0:
61,150,129871,1,8,0:1:0:0:
25,346,130831,6,0,P|80:266|176:251,1,200,0|8,1:0|0:1,0:0:0:0:
360,330,132751,2,0,L|479:306,1,100,0|8,1:0|0:0,0:0:0:0:
434,214,133711,2,0,L|336:234,1,100,8|0,0:1|1:0,0:0:0:0:
320,136,134671,6,0,P|417:121|472:41,1,200,0|8,1:0|0:1,0:0:0:0:
275,4,136591,1,0,1:0:0:0:
177,19,137071,1,8,1:2:0:0:
127,106,137551,1,8,1:0:0:0:
168,198,138031,1,0,1:0:0:0:
168,383,139471,6,0,P|256:343|344:384,1,200,8|0,0:1|1:0,0:0:0:0:
414,313,140911,1,8,0:0:0:0:
351,235,141391,1,8,0:1:0:0:
256,266,141871,1,0,1:0:0:0:
161,235,142351,1,0,1:0:0:0:
98,313,142831,1,8,0:0:0:0:
6,272,143311,5,8,0:1:0:0:
157,139,144271,1,0,1:0:0:0:
256,141,144751,1,8,0:0:0:0:
355,142,145231,1,8,0:1:0:0:
506,272,146191,5,0,1:0:0:0:
357,52,161551,6,0,L|357:175,1,100,0|0,1:0|0:0,0:0:0:0:
257,152,162511,1,0,0:0:0:0:
157,152,162991,1,0,1:0:0:0:
159,251,163471,6,0,L|159:374,1,100,0|0,1:0|0:0,0:0:0:0:
259,351,164431,1,0,0:0:0:0:
359,351,164911,1,0,1:0:0:0:
359,251,165391,5,0,1:0:0:0:
153,251,167311,5,0,1:0:0:0:
255,79,168271,1,0,0:0:0:0:
306,384,170191,6,0,P|273:317|208:388,1,200,8|0,0:1|1:0,0:0:0:0:
125,324,171631,1,8,0:0:0:0:
158,229,172111,2,0,L|276:198,1,100,8|8,0:1|1:2,0:0:0:0:
351,227,173071,1,0,1:0:0:0:
407,144,173551,1,8,0:0:0:0:
353,59,174031,2,0,L|256:33,1,100,8|8,0:1|1:2,0:0:0:0:
160,62,174991,1,0,1:0:0:0:
105,144,175471,1,8,0:0:0:0:
161,227,175951,1,8,0:1:0:0:
305,88,176911,1,4,1:2:0:0:
305,88,177871,6,0,P|255:18|205:88,1,200,8|0,0:1|1:0,0:0:0:0:
113,127,179311,1,8,0:0:0:0:
93,225,179791,2,0,L|128:339,1,100,8|8,0:1|1:2,0:0:0:0:
206,375,180751,1,0,1:0:0:0:
305,373,181231,1,8,0:0:0:0:
389,320,181711,2,0,L|419:225,1,100,8|8,0:1|1:2,0:0:0:0:
399,127,182671,1,0,1:0:0:0:
305,88,183151,1,8,0:0:0:0:
256,175,183631,1,8,0:1:0:0:
437,258,184591,6,0,P|341:285|324:383,1,200,0|8,1:0|0:1,0:0:0:0:
224,346,186031,1,0,0:0:0:0:
128,319,186511,2,0,L|29:344,1,100,0|8,1:0|0:0,0:0:0:0:
2,247,187471,2,0,L|98:222,1,100,8|0,0:1|1:0,0:0:0:0:
75,126,188431,6,0,P|171:99|188:1,1,200,0|8,1:0|0:1,0:0:0:0:
283,50,189871,1,0,0:0:0:0:
375,87,190351,1,0,1:0:0:0:
339,180,190831,1,8,1:2:0:0:
408,251,191311,1,8,1:1:0:0:
506,233,191791,1,0,1:0:0:0:
206,313,193231,6,0,P|255:382|305:312,1,200,8|0,0:1|1:0,0:0:0:0:
403,293,194671,1,8,0:0:0:0:
393,193,195151,1,8,0:1:0:0:
307,141,195631,1,8,1:2:0:0:
207,143,196111,1,0,1:0:0:0:
119,193,196591,1,8,0:0:0:0:
109,293,197071,1,8,0:1:0:0:
256,158,198031,6,0,L|256:277,1,100,0|0,1:0|0:0,0:0:0:0:
