osu file format v14

[General]
AudioFilename: audio-1.mp3
AudioLeadIn: 0
PreviewTime: -1
Countdown: 1
SampleSet: Normal
StackLeniency: 0.7
Mode: 0
LetterboxInBreaks: 0
WidescreenStoryboard: 0

[Editor]
Bookmarks: 15791,23471,31151,38831,46511,61871,77231,84911,92591,100271,107951,161231
DistanceSpacing: 6
BeatDivisor: 3
GridSize: 32
TimelineZoom: 1.1

[Metadata]
Title:Believer
TitleUnicode:Believer
Artist:Imagine Dragons
ArtistUnicode:Imagine Dragons
Creator:SawySavvy
Version:Faith
Source:
Tags:
BeatmapID:1430577
BeatmapSetID:676376

[Difficulty]
HPDrainRate:6
CircleSize:3
OverallDifficulty:8.5
ApproachRate:9
SliderMultiplier:0.7
SliderTickRate:1

[Events]
//Background and Video events
0,0,"BackgroundBelive.jpeg",0,0
//Break Periods
//Storyboard Layer 0 (Background)
//Storyboard Layer 1 (Fail)
//Storyboard Layer 2 (Pass)
//Storyboard Layer 3 (Foreground)
//Storyboard Sound Samples

[TimingPoints]
431,480,4,1,0,45,1,0
431,-200,4,1,0,45,0,0
1391,-100,4,1,0,45,0,0
15791,-200,4,1,0,45,0,0
16271,-100,4,1,0,45,0,0
23471,-200,4,1,0,45,0,0
23951,-100,4,1,0,45,0,0
31151,-200,4,1,0,45,0,0
31631,-100,4,1,0,45,0,0
38831,-200,4,1,0,45,0,0
39311,-66.6666666666667,4,1,0,45,0,0
46511,-200,4,1,0,45,0,0
46991,-66.6666666666667,4,1,0,45,0,0
54191,-200,4,1,0,45,0,1
54671,-50,4,1,0,45,0,1
61871,-200,4,1,0,45,0,1
62351,-50,4,1,0,45,0,1
69551,-200,4,1,0,45,0,0
70511,-100,4,1,0,45,0,0
73391,-50,4,1,0,45,0,0
77231,-200,4,1,0,45,0,0
78191,-50,4,1,0,45,0,1
84911,-200,4,1,0,45,0,0
85871,-50,4,1,0,45,0,0
92591,-200,4,1,0,45,0,0
93551,-50,4,1,0,45,0,0
100271,-200,4,1,0,45,0,0
100591,-100,4,1,0,45,0,0
115151,-50,4,1,0,45,0,0
115631,-200,4,1,0,45,0,1
116591,-50,4,1,0,45,0,1
123311,-200,4,1,0,45,0,1
124271,-50,4,1,0,45,0,1
130991,-200,4,1,0,45,0,0
134831,-50,4,1,0,45,0,0
138671,-200,4,1,0,45,0,1
139631,-50,4,1,0,45,0,1
146351,-200,4,1,0,45,0,0
147311,-50,4,1,0,45,0,0
170351,-50,4,1,0,45,0,1
184751,-200,4,1,0,45,0,0
188591,-66.6666666666667,4,1,0,45,0,0
193391,-50,4,1,0,45,0,1
198191,-200,4,1,0,45,0,1

[HitObjects]
64,192,431,6,0,L|136:192,1,70
224,192,1871,5,0,0:0:0:0:
352,256,2031,1,4,0:0:0:0:
192,128,2191,1,0,0:0:0:0:
416,224,2351,1,0,0:0:0:0:
192,128,2831,5,4,0:0:0:0:
416,224,3311,5,0,0:0:0:0:
352,320,3791,5,0,0:0:0:0:
224,224,3951,1,4,0:0:0:0:
96,320,4111,1,0,0:0:0:0:
352,320,4271,1,0,0:0:0:0:
416,224,4751,6,4,L|465:172,1,70
320,320,5711,5,0,0:0:0:0:
288,128,5871,1,4,0:0:0:0:
448,256,6031,1,0,0:0:0:0:
256,64,6191,1,0,0:0:0:0:
96,96,6671,5,0,0:0:0:0:
256,192,7151,5,0,0:0:0:0:
416,320,7631,5,0,0:0:0:0:
416,320,8111,6,8,L|416:241,2,70
416,32,9551,5,0,0:0:0:0:
288,96,9711,1,4,0:0:0:0:
416,192,9871,1,0,0:0:0:0:
192,192,10031,2,0,L|277:213,1,70
128,96,10831,1,0,0:0:0:0:
128,96,10991,5,0,0:0:0:0:
128,96,11311,1,0,0:0:0:0:
128,96,11471,5,0,0:0:0:0:
256,32,11631,1,4,0:0:0:0:
384,96,11791,1,0,0:0:0:0:
128,96,11951,1,0,0:0:0:0:
128,96,12431,5,0,0:0:0:0:
256,32,12911,5,0,0:0:0:0:
288,192,13391,5,0,0:0:0:0:
448,128,13551,1,4,0:0:0:0:
384,288,13711,1,0,0:0:0:0:
224,128,13871,2,0,L|163:67,1,70
416,192,14671,5,0,0:0:0:0:
416,192,14831,1,0,0:0:0:0:
96,192,15151,5,0,0:0:0:0:
96,192,15311,1,0,0:0:0:0:
416,192,15631,5,0,0:0:0:0:
416,192,15791,6,8,B|448:208|448:208|488:192,1,70
128,288,17231,5,0,0:0:0:0:
224,192,17391,1,4,0:0:0:0:
96,320,17551,1,0,0:0:0:0:
256,160,17711,1,0,0:0:0:0:
128,96,18191,5,0,0:0:0:0:
320,96,18671,1,0,0:0:0:0:
512,96,19151,5,0,0:0:0:0:
480,224,19311,1,4,0:0:0:0:
448,64,19471,1,0,0:0:0:0:
384,256,19631,2,8,B|308:227,1,70
384,256,20591,5,4,0:0:0:0:
384,256,21071,5,0,0:0:0:0:
256,320,21231,1,4,0:0:0:0:
160,224,21391,1,0,0:0:0:0:
448,288,21551,1,0,0:0:0:0:
256,32,22031,5,0,0:0:0:0:
96,192,22351,1,0,0:0:0:0:
96,192,22511,5,0,0:0:0:0:
256,352,22831,1,0,0:0:0:0:
256,352,22991,5,0,0:0:0:0:
448,192,23471,6,8,L|405:192,2,35
352,128,24911,1,0,0:0:0:0:
224,32,25071,1,4,0:0:0:0:
96,128,25231,1,0,0:0:0:0:
352,128,25391,6,0,L|433:120,1,70
256,128,26351,5,0,0:0:0:0:
256,128,26831,5,0,0:0:0:0:
192,32,26991,1,4,0:0:0:0:
128,160,27151,1,0,0:0:0:0:
288,32,27311,1,0,0:0:0:0:
384,192,27791,5,0,0:0:0:0:
192,32,28111,1,0,0:0:0:0:
192,32,28271,1,4,0:0:0:0:
192,32,28751,5,0,0:0:0:0:
64,128,28911,1,4,0:0:0:0:
256,32,29071,1,0,0:0:0:0:
32,192,29231,2,8,L|107:177,1,70
256,64,30031,5,0,0:0:0:0:
256,64,30191,1,0,0:0:0:0:
256,192,30511,5,0,0:0:0:0:
256,192,30671,1,0,0:0:0:0:
256,352,30991,5,0,0:0:0:0:
256,352,31151,6,8,B|262:316|262:316|256:274,1,70
384,192,32591,1,0,0:0:0:0:
320,352,32751,1,4,0:0:0:0:
256,192,32911,1,0,0:0:0:0:
448,320,33071,1,0,0:0:0:0:
128,192,33551,5,4,0:0:0:0:
256,288,34031,1,0,0:0:0:0:
384,192,34511,5,0,0:0:0:0:
320,32,34671,1,4,0:0:0:0:
480,96,34831,1,0,0:0:0:0:
255,96,34991,2,8,B|175:84,1,70
160,352,35951,5,0,0:0:0:0:
160,352,36431,1,0,0:0:0:0:
288,320,36591,1,4,0:0:0:0:
96,256,36751,1,0,0:0:0:0:
352,224,36911,1,0,0:0:0:0:
224,128,37391,5,0,0:0:0:0:
337,30,37711,1,0,0:0:0:0:
337,30,37871,5,4,0:0:0:0:
448,128,38351,5,0,0:0:0:0:
384,256,38511,1,4,0:0:0:0:
320,128,38671,1,0,0:0:0:0:
256,256,38831,2,8,B|228:256,1,23.3333333333333
160,160,39311,5,0,0:0:0:0:
256,96,39471,1,4,0:0:0:0:
96,192,39631,1,0,0:0:0:0:
256,96,39791,2,0,L|320:141,1,70.0000026702882
352,288,40271,5,4,0:0:0:0:
256,224,40431,1,0,0:0:0:0:
352,288,40591,1,4,0:0:0:0:
384,192,40751,2,8,B|410:119,1,70.0000026702882
352,64,41231,5,0,0:0:0:0:
256,128,41391,1,0,0:0:0:0:
448,192,41551,1,4,0:0:0:0:
256,256,41711,5,0,0:0:0:0:
128,96,41871,1,0,0:0:0:0:
160,320,42031,1,4,0:0:0:0:
256,224,42191,5,0,0:0:0:0:
64,224,42351,1,0,0:0:0:0:
160,320,42511,1,0,0:0:0:0:
256,224,42671,2,4,L|320:160,1,70.0000026702882
256,128,43151,5,0,0:0:0:0:
160,64,43311,1,0,0:0:0:0:
352,96,43471,1,4,0:0:0:0:
160,128,43631,2,0,L|224:192,1,70.0000026702882
96,320,44111,5,4,0:0:0:0:
0,160,44271,1,0,0:0:0:0:
96,320,44431,5,4,0:0:0:0:
32,96,44591,1,0,0:0:0:0:
96,320,44751,5,4,0:0:0:0:
192,192,44911,1,0,0:0:0:0:
96,320,45071,5,4,0:0:0:0:
224,128,45231,1,0,0:0:0:0:
96,320,45391,5,4,0:0:0:0:
96,128,45551,1,0,0:0:0:0:
96,320,45711,5,4,0:0:0:0:
160,64,45871,1,0,0:0:0:0:
96,320,46031,5,4,0:0:0:0:
32,160,46191,1,2,0:0:0:0:
96,320,46351,5,4,0:0:0:0:
224,320,46511,2,8,L|256:320,1,23.3333333333333
320,128,46991,1,0,0:0:0:0:
192,192,47151,1,4,0:0:0:0:
320,64,47311,1,0,0:0:0:0:
128,160,47471,6,8,L|186:106,1,70.0000026702882
320,192,47951,1,0,0:0:0:0:
384,64,48111,1,4,0:0:0:0:
192,224,48271,1,0,0:0:0:0:
256,64,48431,6,8,L|313:123,1,70.0000026702882
424,228,48911,1,0,0:0:0:0:
352,320,49071,1,4,0:0:0:0:
320,128,49231,1,0,0:0:0:0:
224,256,49391,6,8,L|320:288,1,70.0000026702882
256,96,49871,1,0,0:0:0:0:
416,160,50031,1,4,0:0:0:0:
192,192,50191,1,0,0:0:0:0:
416,224,50351,6,8,L|323:213,1,70.0000026702882
160,224,50831,1,0,0:0:0:0:
96,128,50991,1,4,0:0:0:0:
320,192,51151,1,0,0:0:0:0:
192,64,51311,6,8,L|253:109,1,70.0000026702882
384,192,51791,1,0,0:0:0:0:
256,256,51951,1,4,0:0:0:0:
448,288,52111,1,0,0:0:0:0:
192,192,52271,6,8,L|261:202,1,70.0000026702882
384,224,52751,5,0,0:0:0:0:
416,64,52911,1,4,0:0:0:0:
448,288,53071,1,0,0:0:0:0:
487,45,53231,1,4,0:0:0:0:
160,128,53711,6,0,L|96:192,1,70.0000026702882
185,229,54191,6,0,L|226:186,1,58.3333333333333
191,117,55151,6,0,P|288:136|290:230,1,186.666666666667
244,300,55951,5,8,0:0:0:0:
244,300,56111,2,0,L|210:248,1,46.6666666666667
96,64,56431,1,8,0:0:0:0:
128,256,56591,1,4,0:0:0:0:
320,64,56751,1,0,0:0:0:0:
128,192,56911,5,8,0:0:0:0:
352,128,57071,1,4,0:0:0:0:
192,320,57231,1,0,0:0:0:0:
416,160,57391,1,8,0:0:0:0:
228,160,57551,5,4,0:0:0:0:
320,288,57711,1,4,0:0:0:0:
416,160,57871,1,8,0:0:0:0:
320,32,58031,2,0,P|248:25|176:29,1,140,4|0,0:0|0:0,0:0:0:0:
416,192,58991,1,0,0:0:0:0:
96,192,59471,5,4,0:0:0:0:
256,160,59631,1,0,0:0:0:0:
32,224,59791,1,0,0:0:0:0:
352,160,59951,2,0,P|423:132|480:96,1,140
311,97,60911,6,0,B|281:111|281:111|258:74|258:74|238:110|238:110|218:74|218:74|203:106|203:106|177:72|177:72|162:111|162:111,1,233.333333333333
64,96,61871,6,0,L|83:153,1,58.3333333333333
20,207,62831,6,0,P|106:228|163:160,1,186.666666666667
203,43,63631,5,8,0:0:0:0:
203,43,63791,2,0,L|190:111,1,46.6666666666667
160,288,64111,1,8,0:0:0:0:
128,64,64271,1,4,0:0:0:0:
256,256,64431,1,0,0:0:0:0:
64,96,64591,5,8,0:0:0:0:
288,160,64751,1,4,0:0:0:0:
64,224,64911,1,0,0:0:0:0:
320,288,65071,1,8,0:0:0:0:
96,320,65231,5,4,0:0:0:0:
192,192,65391,1,0,0:0:0:0:
288,320,65551,1,12,0:0:0:0:
384,192,65711,2,0,P|416:128|384:49,1,140,4|0,0:0|0:0,0:0:0:0:
64,160,66671,1,0,0:0:0:0:
64,160,67151,5,0,0:0:0:0:
192,64,67311,1,4,0:0:0:0:
32,224,67471,1,0,0:0:0:0:
256,192,67631,2,0,P|288:128|288:32,1,140
64,160,68591,5,0,0:0:0:0:
192,64,69071,1,0,0:0:0:0:
128,192,69551,6,0,L|172:192,2,35
32,64,70991,5,0,0:0:0:0:
32,128,71151,1,4,0:0:0:0:
32,192,71311,1,0,0:0:0:0:
96,192,71471,6,0,L|101:126,1,46.6666666666667
448,192,71951,6,0,L|444:255,1,46.6666666666667
160,192,72431,6,0,L|167:129,1,46.6666666666667
512,192,72911,6,0,L|507:257,1,46.6666666666667
384,320,73391,2,0,B|319:269|248:277|248:277|234:318|192:352|192:352|148:336|120:315,1,280
256,192,74831,5,0,0:0:0:0:
256,128,74991,1,4,0:0:0:0:
256,64,75151,1,0,0:0:0:0:
256,0,75311,2,0,L|157:5,1,93.3333333333333
256,287,75791,6,0,L|349:280,1,93.3333333333333
256,64,76271,6,0,L|158:72,1,93.3333333333333
256,352,76751,6,0,L|349:345,1,93.3333333333333
256,192,77231,2,0,L|256:126,1,58.3333333333333
329,103,78191,2,0,P|260:51|182:108,1,186.666666666667
252,293,78991,5,8,0:0:0:0:
252,293,79151,2,0,L|297:226,1,46.6666666666667
413,64,79471,1,8,0:0:0:0:
179,61,79631,1,0,0:0:0:0:
384,160,79791,1,0,0:0:0:0:
111,224,79951,5,8,0:0:0:0:
335,159,80111,1,4,0:0:0:0:
143,292,80271,1,0,0:0:0:0:
288,109,80431,1,8,0:0:0:0:
224,320,80591,5,4,0:0:0:0:
288,224,80751,1,4,0:0:0:0:
352,320,80911,1,8,0:0:0:0:
428,225,81071,2,0,P|460:161|438:75,1,140,4|0,0:0|0:0,0:0:0:0:
64,192,82031,1,0,0:0:0:0:
480,192,82511,5,0,0:0:0:0:
416,320,82671,1,4,0:0:0:0:
352,192,82831,1,0,0:0:0:0:
260,327,82991,2,0,P|182:340|109:327,1,140
64,192,83951,5,0,0:0:0:0:
160,96,84431,1,0,0:0:0:0:
256,192,84911,6,2,L|297:192,2,35
261,364,86351,5,0,0:0:0:0:
165,238,86511,1,4,0:0:0:0:
261,364,86671,1,0,0:0:0:0:
352,192,86831,2,0,L|424:44,1,140
256,178,87791,5,0,0:0:0:0:
261,183,88271,5,0,0:0:0:0:
141,132,88431,1,4,0:0:0:0:
261,183,88591,1,0,0:0:0:0:
64,224,88751,1,0,0:0:0:0:
442,212,89231,5,0,0:0:0:0:
266,97,89711,1,0,0:0:0:0:
111,220,90191,5,0,0:0:0:0:
111,220,90351,1,4,0:0:0:0:
111,220,90511,1,0,0:0:0:0:
111,220,90671,2,0,L|239:299,1,140
311,172,91471,5,0,0:0:0:0:
311,172,91631,1,0,0:0:0:0:
311,172,91951,5,0,0:0:0:0:
311,172,92111,1,0,0:0:0:0:
311,172,92431,5,0,0:0:0:0:
311,172,92591,2,0,L|245:132,1,70
64,32,94031,5,0,0:0:0:0:
224,64,94191,1,4,0:0:0:0:
32,96,94351,1,0,0:0:0:0:
256,128,94511,2,0,L|423:153,1,140
256,288,95471,5,0,0:0:0:0:
256,288,95951,5,0,0:0:0:0:
288,128,96111,1,4,0:0:0:0:
320,320,96271,1,0,0:0:0:0:
352,96,96431,1,0,0:0:0:0:
160,96,96911,5,0,0:0:0:0:
288,96,97391,5,0,0:0:0:0:
416,96,97871,5,0,0:0:0:0:
288,224,98031,1,4,0:0:0:0:
352,64,98191,1,0,0:0:0:0:
160,256,98351,2,0,L|51:396,1,140
416,320,99311,5,0,0:0:0:0:
416,320,99791,5,0,0:0:0:0:
320,192,99951,1,4,0:0:0:0:
416,320,100111,1,0,0:0:0:0:
320,192,100271,2,0,L|290:192,1,23.3333333333333
224,320,100751,5,0,0:0:0:0:
416,256,100911,1,4,0:0:0:0:
224,224,101071,1,0,0:0:0:0:
416,160,101231,2,0,L|479:140,1,46.6666666666667
320,96,101711,5,0,0:0:0:0:
128,160,101871,1,4,0:0:0:0:
320,192,102031,1,0,0:0:0:0:
192,64,102191,2,0,L|141:23,1,46.6666666666667
64,160,102671,5,0,0:0:0:0:
96,288,102831,1,4,0:0:0:0:
192,64,102991,1,0,0:0:0:0:
192,255,103151,5,0,0:0:0:0:
192,64,103311,1,4,0:0:0:0:
96,224,103471,1,0,0:0:0:0:
192,64,103631,5,0,0:0:0:0:
160,288,103791,1,4,0:0:0:0:
320,192,103951,1,0,0:0:0:0:
166,132,104111,2,0,L|105:107,1,46.6666666666667
352,64,104591,5,0,0:0:0:0:
352,64,104751,1,4,0:0:0:0:
352,64,104911,1,0,0:0:0:0:
352,64,105071,2,0,L|352:128,1,46.6666666666667
352,256,105551,5,0,0:0:0:0:
256,192,105711,1,4,0:0:0:0:
160,128,105871,1,0,0:0:0:0:
258,255,106031,2,0,L|297:298,1,46.6666666666667
160,128,106511,5,0,0:0:0:0:
192,288,106671,1,4,0:0:0:0:
224,128,106831,1,0,0:0:0:0:
192,288,106991,2,0,L|192:352,1,46.6666666666667
352,288,107471,5,0,0:0:0:0:
416,160,107631,1,4,0:0:0:0:
352,288,107791,1,0,0:0:0:0:
288,160,107951,5,4,0:0:0:0:
128,224,108111,1,0,0:0:0:0:
288,160,108271,5,4,0:0:0:0:
90,294,108431,1,0,0:0:0:0:
288,160,108591,5,4,0:0:0:0:
214,319,108751,1,0,0:0:0:0:
288,160,108911,5,4,0:0:0:0:
145,350,109071,1,0,0:0:0:0:
288,160,109231,5,4,0:0:0:0:
129,194,109391,5,8,0:0:0:0:
129,194,109551,1,8,0:0:0:0:
129,194,109711,1,8,0:0:0:0:
224,64,109871,5,4,0:0:0:0:
288,192,110031,1,0,0:0:0:0:
224,64,110191,5,4,0:0:0:0:
167,238,110351,1,0,0:0:0:0:
224,64,110511,5,4,0:0:0:0:
235,274,110671,1,0,0:0:0:0:
224,64,110831,5,4,0:0:0:0:
151,257,110991,1,0,0:0:0:0:
224,64,111151,5,4,0:0:0:0:
288,256,111311,5,8,0:0:0:0:
320,288,111471,1,8,0:0:0:0:
352,320,111631,1,8,0:0:0:0:
384,352,111791,2,0,B|419:308|419:308|419:276,1,70
384,96,112751,5,0,0:0:0:0:
160,160,113231,5,0,0:0:0:0:
128,224,113391,1,4,0:0:0:0:
160,288,113551,1,0,0:0:0:0:
224,288,113711,2,0,L|288:288,1,46.6666666666667
320,224,114191,5,0,0:0:0:0:
256,224,114351,1,0,0:0:0:0:
192,224,114511,1,0,0:0:0:0:
128,224,114671,1,4,0:0:0:0:
128,160,115151,6,0,L|238:160,1,93.3333333333333
224,96,115631,6,0,L|160:96,1,58.3333333333333
140,22,116591,6,0,P|83:97|144:170,1,186.666666666667
367,241,117391,5,8,0:0:0:0:
367,241,117551,2,0,L|318:209,1,46.6666666666667
129,92,117871,1,0,0:0:0:0:
185,318,118031,1,0,0:0:0:0:
248,93,118191,1,0,0:0:0:0:
104,276,118351,5,8,0:0:0:0:
200,63,118511,1,4,0:0:0:0:
279,282,118671,1,0,0:0:0:0:
137,96,118831,1,0,0:0:0:0:
185,324,118991,5,8,0:0:0:0:
257,178,119151,1,4,0:0:0:0:
123,224,119311,1,8,0:0:0:0:
279,282,119471,2,4,P|360:272|424:229,1,140
257,178,120431,5,0,0:0:0:0:
288,32,120911,5,0,0:0:0:0:
192,96,121071,1,4,0:0:0:0:
352,160,121231,1,0,0:0:0:0:
160,224,121391,2,0,P|102:251|23:262,1,140
64,64,122351,5,0,0:0:0:0:
160,64,122831,1,0,0:0:0:0:
256,64,123311,6,0,L|256:128,1,58.3333333333333
182,152,124271,6,0,P|267:202|333:133,1,186.666666666667
448,96,125071,5,8,0:0:0:0:
448,96,125231,2,0,L|380:141,1,46.6666666666667
212,246,125551,1,0,0:0:0:0:
443,271,125711,1,0,0:0:0:0:
234,166,125871,1,0,0:0:0:0:
394,335,126031,5,4,0:0:0:0:
337,107,126191,1,8,0:0:0:0:
281,334,126351,1,0,0:0:0:0:
227,106,126511,1,0,0:0:0:0:
128,288,126671,5,8,0:0:0:0:
160,128,126831,1,4,0:0:0:0:
192,320,126991,1,8,0:0:0:0:
224,32,127151,2,0,P|294:25|384:32,1,140
192,96,128111,5,0,0:0:0:0:
96,288,128591,5,0,0:0:0:0:
192,96,128751,1,4,0:0:0:0:
288,288,128911,1,0,0:0:0:0:
192,96,129071,2,0,B|193:145|193:145|189:196|189:196|192:256,1,140
192,96,130031,5,0,0:0:0:0:
288,96,130511,1,0,0:0:0:0:
64,96,130991,6,0,L|64:141,2,35
64,320,132431,5,0,0:0:0:0:
128,288,132591,1,4,0:0:0:0:
192,256,132751,1,0,0:0:0:0:
192,160,132911,6,0,L|167:169,1,23.3333333333333
192,320,133391,6,0,L|219:313,1,23.3333333333333
192,96,133871,6,0,L|168:109,1,23.3333333333333
192,383,134351,6,0,L|213:371,1,23.3333333333333
312,256,134831,6,0,B|224:224|224:224|160:288|160:288|32:256,1,280
256,64,136271,5,0,0:0:0:0:
256,128,136431,1,4,0:0:0:0:
256,192,136591,1,0,0:0:0:0:
256,256,136751,2,0,L|192:192,2,46.6666666666667
256,256,137231,6,0,L|320:192,2,46.6666666666667
256,256,137711,6,0,L|192:320,2,46.6666666666667
256,256,138191,6,0,L|320:320,2,46.6666666666667
256,256,138671,6,0,L|256:192,1,58.3333333333333
330,168,139631,6,0,P|241:117|180:185,1,186.666666666667
64,160,140431,5,8,0:0:0:0:
64,160,140591,2,0,L|132:206,1,46.6666666666667
302,306,140911,1,0,0:0:0:0:
157,122,141071,1,0,0:0:0:0:
199,351,141231,1,0,0:0:0:0:
233,120,141391,5,8,0:0:0:0:
43,256,141551,1,4,0:0:0:0:
274,226,141711,1,0,0:0:0:0:
83,91,141871,1,0,0:0:0:0:
192,288,142031,5,8,0:0:0:0:
274,226,142191,1,4,0:0:0:0:
352,288,142351,1,8,0:0:0:0:
225,173,142511,2,0,P|175:109|154:36,1,140
288,224,143471,5,0,0:0:0:0:
64,224,143951,5,0,0:0:0:0:
64,224,144111,1,4,0:0:0:0:
64,224,144271,1,0,0:0:0:0:
64,224,144431,2,0,P|139:226|217:200,1,140
352,224,145391,5,0,0:0:0:0:
64,224,145871,5,0,0:0:0:0:
208,99,146351,2,0,L|250:99,2,35
225,220,147791,5,0,0:0:0:0:
225,220,147951,1,0,0:0:0:0:
225,220,148111,1,0,0:0:0:0:
225,220,148271,6,0,P|231:273|225:316,1,93.3333333333333
150,273,148751,6,0,P|144:326|150:369,1,93.3333333333333
225,312,149231,6,0,P|230:265|224:219,1,93.3333333333333
150,273,149711,6,0,P|144:226|150:180,1,93.3333333333333
169,98,150191,6,0,P|215:92|261:98,1,93.3333333333333
221,174,150671,6,0,P|267:179|313:173,1,93.3333333333333
262,98,151151,6,0,P|215:91|169:97,1,93.3333333333333
221,174,151631,6,0,P|174:179|128:173,1,93.3333333333333
48,165,152111,6,0,P|42:211|48:257,1,93.3333333333333
126,217,152591,6,0,P|155:253|191:281,1,93.3333333333333
217,198,153071,6,0,P|263:203|309:197,1,93.3333333333333
264,124,153551,6,0,P|300:94|328:58,1,93.3333333333333
180,180,154031,6,0,L|188:64,1,93.3333333333333
264,124,154511,2,0,L|360:137,1,93.3333333333333
321,213,154991,2,0,L|315:317,1,93.3333333333333
238,282,155471,2,0,L|141:274,1,93.3333333333333
111,175,155951,6,0,L|210:184,1,93.3333333333333
187,100,156431,2,0,L|192:1,1,93.3333333333333
107,30,156911,2,0,L|10:26,1,93.3333333333333
44,109,157391,2,0,L|43:207,1,93.3333333333333
123,306,157871,6,0,L|124:195,1,93.3333333333333
123,306,158351,2,0,L|223:278,1,93.3333333333333
123,306,158831,2,0,L|124:195,1,93.3333333333333
123,306,159311,2,0,L|223:278,1,93.3333333333333
364,152,159791,6,0,L|257:179,1,93.3333333333333
364,152,160271,2,0,L|361:255,1,93.3333333333333
364,152,160751,2,0,L|257:179,1,93.3333333333333
89,229,161231,1,0,0:0:0:0:
263,108,161391,1,0,0:0:0:0:
59,114,161551,1,0,0:0:0:0:
192,224,161711,5,0,0:0:0:0:
128,64,161871,1,0,0:0:0:0:
192,224,162031,5,0,0:0:0:0:
256,96,162191,1,0,0:0:0:0:
192,224,162351,5,0,0:0:0:0:
128,128,162511,1,0,0:0:0:0:
192,224,162671,5,0,0:0:0:0:
96,32,162831,1,0,0:0:0:0:
192,224,162991,1,0,0:0:0:0:
256,32,163151,5,0,0:0:0:0:
288,32,163311,1,4,0:0:0:0:
320,32,163471,1,0,0:0:0:0:
361,47,163631,5,0,0:0:0:0:
288,192,163791,1,0,0:0:0:0:
361,47,163951,5,0,0:0:0:0:
352,224,164111,1,0,0:0:0:0:
361,47,164271,5,0,0:0:0:0:
288,256,164431,1,0,0:0:0:0:
361,47,164591,5,0,0:0:0:0:
224,256,164751,1,0,0:0:0:0:
361,47,164911,5,0,0:0:0:0:
397,47,165071,5,0,0:0:0:0:
429,47,165231,1,4,0:0:0:0:
461,47,165391,1,0,0:0:0:0:
480,224,165551,6,0,L|416:256,1,46.6666666666667
378,186,165871,2,0,B|443:152|443:152|364:38,1,186.666666666667
256,32,166991,1,0,0:0:0:0:
256,96,167151,1,4,0:0:0:0:
256,160,167311,1,0,0:0:0:0:
256,352,167471,6,0,L|256:192,1,140
271,31,168431,6,0,B|261:93|261:93|290:188|290:188|271:287,1,233.333333333333
256,352,169391,5,12,0:0:0:0:
221,352,169471,1,0,0:0:0:0:
186,344,169551,1,0,0:0:0:0:
157,323,169631,1,0,0:0:0:0:
134,296,169711,1,0,0:0:0:0:
118,264,169791,1,0,0:0:0:0:
117,229,169871,5,12,0:0:0:0:
121,194,169951,1,0,0:0:0:0:
131,160,170031,1,0,0:0:0:0:
148,129,170111,1,0,0:0:0:0:
170,102,170191,1,0,0:0:0:0:
195,78,170271,1,0,0:0:0:0:
223,57,170351,2,0,P|314:29|417:80,1,186.666666666667,12|0,0:0|0:0,0:0:0:0:
305,276,171151,5,8,0:0:0:0:
305,276,171311,2,0,L|252:225,1,46.6666666666667
103,82,171631,1,0,0:0:0:0:
48,308,171791,1,0,0:0:0:0:
211,141,171951,1,0,0:0:0:0:
120,356,172111,1,8,0:0:0:0:
120,356,172271,2,0,L|182:345,1,46.6666666666667
398,316,172591,1,8,0:0:0:0:
178,201,172751,5,0,0:0:0:0:
396,316,172911,1,4,0:0:0:0:
165,291,173071,1,0,0:0:0:0:
165,291,173231,2,0,P|95:231|99:149,1,140
103,35,173871,5,0,0:0:0:0:
19,273,174031,1,0,0:0:0:0:
161,86,174191,1,0,0:0:0:0:
65,335,174351,1,0,0:0:0:0:
218,133,174511,1,0,0:0:0:0:
272,132,174671,5,0,0:0:0:0:
322,130,174831,1,4,0:0:0:0:
370,130,174991,1,0,0:0:0:0:
424,128,175151,2,0,P|467:201|451:270,1,140
64,192,176111,5,0,0:0:0:0:
64,192,176271,1,0,0:0:0:0:
64,192,176431,1,0,0:0:0:0:
64,320,176591,5,0,0:0:0:0:
64,320,176751,1,0,0:0:0:0:
64,320,176911,1,0,0:0:0:0:
256,192,177071,12,0,178031,0:0:0:0:
128,96,178831,5,8,0:0:0:0:
128,96,178991,2,0,L|160:160,1,46.6666666666667
256,352,179311,1,0,0:0:0:0:
382,142,179471,1,0,0:0:0:0:
128,224,179631,1,0,0:0:0:0:
352,256,179791,1,8,0:0:0:0:
352,256,179951,2,0,L|407:241,1,46.6666666666667
366,70,180271,1,0,0:0:0:0:
128,96,180431,5,4,0:0:0:0:
382,142,180591,1,0,0:0:0:0:
128,224,180751,1,0,0:0:0:0:
128,224,180911,2,0,B|69:281|69:281|69:355,1,140
160,320,181551,5,0,0:0:0:0:
384,288,181711,1,0,0:0:0:0:
128,256,181871,1,0,0:0:0:0:
416,224,182031,1,0,0:0:0:0:
96,192,182191,1,0,0:0:0:0:
448,160,182351,5,0,0:0:0:0:
416,128,182511,1,4,0:0:0:0:
384,96,182671,1,0,0:0:0:0:
352,64,182831,2,0,P|288:64|192:96,1,140
250,160,183791,5,0,0:0:0:0:
250,160,183951,1,0,0:0:0:0:
250,160,184111,1,0,0:0:0:0:
253,34,184271,5,0,0:0:0:0:
253,34,184431,1,0,0:0:0:0:
253,34,184591,1,0,0:0:0:0:
256,288,184751,2,0,L|256:244,2,35
256,128,186191,5,0,0:0:0:0:
256,128,186351,1,0,0:0:0:0:
256,128,186511,1,0,0:0:0:0:
256,128,186671,6,0,L|233:149,1,23.3333333333333
256,320,187151,6,0,L|279:299,1,23.3333333333333
256,64,187631,6,0,L|233:85,1,23.3333333333333
256,352,188111,6,0,L|273:336,1,23.3333333333333
416,192,188591,2,0,B|451:112|451:112|400:44|323:71,1,210.000008010865
128,192,190031,5,0,0:0:0:0:
128,192,190191,1,0,0:0:0:0:
128,192,190351,1,0,0:0:0:0:
128,192,190511,6,0,L|103:167,2,35.0000013351441
384,192,190991,6,0,L|408:167,2,35.0000013351441
32,192,191471,6,0,L|7:167,2,35.0000013351441
480,192,191951,6,0,L|504:167,2,35.0000013351441
288,320,192431,5,12,0:0:0:0:
270,315,192511,1,0,0:0:0:0:
253,308,192591,1,0,0:0:0:0:
238,298,192671,1,0,0:0:0:0:
224,286,192751,1,0,0:0:0:0:
210,274,192831,1,0,0:0:0:0:
201,258,192911,5,12,0:0:0:0:
183,227,192991,1,0,0:0:0:0:
174,193,193071,1,0,0:0:0:0:
170,158,193151,1,0,0:0:0:0:
174,114,193231,1,0,0:0:0:0:
195,75,193311,1,0,0:0:0:0:
235,32,193391,2,0,P|296:20|379:43,1,140,12|0,0:0|0:0,0:0:0:0:
459,188,194191,5,10,0:0:0:0:
459,188,194351,2,0,L|405:218,1,46.6666666666667
162,329,194671,1,0,0:0:0:0:
236,59,194831,1,0,0:0:0:0:
282,335,194991,1,0,0:0:0:0:
238,58,195151,5,8,0:0:0:0:
162,327,195311,1,0,0:0:0:0:
386,159,195471,1,0,0:0:0:0:
110,211,195631,1,0,0:0:0:0:
382,268,195791,5,0,0:0:0:0:
37,189,195951,1,4,0:0:0:0:
448,288,196111,1,0,0:0:0:0:
37,189,196271,2,0,B|54:241|54:241|26:290|26:290|34:332,2,140
258,40,198031,5,4,0:0:0:0:
256,276,198191,2,0,L|256:318,2,35,0|0|4,0:0|0:0|0:0,0:0:0:0:
