osu file format v14

[General]
AudioFilename: audio.mp3
AudioLeadIn: 0
PreviewTime: 117576
Countdown: 1
SampleSet: Normal
StackLeniency: 0.7
Mode: 0
LetterboxInBreaks: 0
WidescreenStoryboard: 0

[Editor]
Bookmarks: 36971,53291,83771,115151,145451,170291
DistanceSpacing: 0.8
BeatDivisor: 12
GridSize: 4
TimelineZoom: 3.199999

[Metadata]
Title:Believer
TitleUnicode:Believer
Artist:Imagine Dragons
ArtistUnicode:Imagine Dragons
Creator:Builderman_13
Version:Hard
Source:
Tags:believer imagine dragons evolve
BeatmapID:1235113
BeatmapSetID:583690

[Difficulty]
HPDrainRate:5
CircleSize:5
OverallDifficulty:4
ApproachRate:9
SliderMultiplier:1.49999990463257
SliderTickRate:1

[Events]
//Background and Video events
0,0,"Believer.jpg",0,0
//Break Periods
//Storyboard Layer 0 (Background)
//Storyboard Layer 1 (Fail)
//Storyboard Layer 2 (Pass)
//Storyboard Layer 3 (Foreground)
//Storyboard Sound Samples

[TimingPoints]
255.025295831961,480,4,1,0,100,1,0
54015,-100,4,1,0,100,0,1
62655,-100,4,1,0,100,0,0
115455,-100,4,1,0,100,0,1
124575,-100,4,1,0,100,0,0
170175,-100,4,1,0,100,0,1
177855,-100,4,1,0,100,0,0

[Colours]
Combo1 : 31,0,62
Combo2 : 0,255,64
Combo3 : 128,255,255
Combo4 : 255,128,0

[HitObjects]
136,120,255,6,0,P|176:236|332:220,1,299.999980926514
420,200,1691,1,0,0:0:0:0:
420,200,1851,1,0,0:0:0:0:
420,200,2011,1,0,0:0:0:0:
420,200,2171,1,0,0:0:0:0:
416,120,3131,1,0,0:0:0:0:
348,88,3611,1,0,0:0:0:0:
348,88,3771,1,0,0:0:0:0:
348,88,3931,1,0,0:0:0:0:
348,88,4091,1,0,0:0:0:0:
248,72,5055,1,0,0:0:0:0:
164,80,5535,1,0,0:0:0:0:
164,80,5695,1,0,0:0:0:0:
164,80,5855,1,0,0:0:0:0:
164,80,6015,1,0,0:0:0:0:
88,108,6975,1,0,0:0:0:0:
92,192,7935,5,0,0:0:0:0:
88,264,8415,1,0,0:0:0:0:
136,324,8895,1,0,0:0:0:0:
220,340,9375,1,0,0:0:0:0:
288,324,9695,2,0,L|348:320,1,49.9999968210856
396,304,10335,1,0,0:0:0:0:
424,236,10655,2,0,L|436:180,1,49.9999968210857
460,104,11135,2,0,L|444:48,1,49.9999968210856
364,16,11615,2,0,L|308:32,1,49.9999968210857
256,32,12255,5,0,0:0:0:0:
176,44,12735,1,0,0:0:0:0:
116,80,13215,1,0,0:0:0:0:
64,120,13535,2,0,L|64:176,1,49.9999968210856
96,260,14175,1,0,0:0:0:0:
144,316,14495,1,0,0:0:0:0:
188,320,14655,2,0,L|276:312,1,87.4999944368999
304,264,15135,2,0,L|304:176,1,87.4999944368999
300,144,15615,1,0,0:0:0:0:
252,64,16095,1,0,0:0:0:0:
104,36,16575,2,0,P|80:196|168:188,1,299.999980926514
160,96,18295,5,0,0:0:0:0:
140,116,18495,1,0,0:0:0:0:
104,156,18815,1,0,0:0:0:0:
88,172,18975,2,0,L|152:224,2,74.9999952316285
56,60,19935,1,0,0:0:0:0:
128,64,20415,2,0,P|228:24|384:116,1,299.999980926514
416,52,23295,5,0,0:0:0:0:
344,40,23575,2,0,L|280:40,1,62.4999960263571
216,64,24255,1,0,0:0:0:0:
144,80,24535,2,0,L|80:92,1,62.4999960263571
64,156,25015,1,0,0:0:0:0:
64,156,25215,1,0,0:0:0:0:
68,216,25495,1,0,0:0:0:0:
68,216,25695,1,0,0:0:0:0:
88,268,25975,1,0,0:0:0:0:
88,268,26175,1,0,0:0:0:0:
128,300,26455,1,0,0:0:0:0:
128,300,26655,1,0,0:0:0:0:
184,320,26935,1,0,0:0:0:0:
184,320,27135,1,0,0:0:0:0:
288,328,27615,5,0,0:0:0:0:
364,320,27895,1,0,0:0:0:0:
364,320,28095,1,0,0:0:0:0:
436,272,28575,1,0,0:0:0:0:
444,240,28855,2,0,L|440:176,1,62.4999960263571
440,104,29535,1,0,0:0:0:0:
408,32,29815,2,0,L|336:36,1,62.4999960263571
280,40,30295,2,0,L|216:52,1,62.4999960263571
156,56,30775,2,0,L|92:88,1,62.4999960263571
60,128,31455,1,0,0:0:0:0:
44,240,31935,2,0,P|116:348|272:312,1,299.999980926514
352,296,33655,1,0,0:0:0:0:
392,296,33855,2,0,L|424:192,1,99.9999936421713
432,144,34335,2,0,L|424:40,1,99.9999936421713
392,40,34815,1,0,0:0:0:0:
308,40,35295,1,0,0:0:0:0:
152,24,35775,2,0,B|44:32|8:60|8:136|28:204|84:208,1,299.999980926514
168,304,38335,5,0,0:0:0:0:
168,304,38495,1,0,0:0:0:0:
168,304,38655,1,0,0:0:0:0:
204,312,38975,1,0,0:0:0:0:
240,312,39295,1,0,0:0:0:0:
240,312,39455,1,0,0:0:0:0:
240,312,39615,1,0,0:0:0:0:
280,316,39895,1,0,0:0:0:0:
320,324,40095,1,0,0:0:0:0:
320,324,40255,1,0,0:0:0:0:
320,324,40415,1,0,0:0:0:0:
320,324,40575,1,0,0:0:0:0:
352,304,40895,1,0,0:0:0:0:
376,280,41215,1,0,0:0:0:0:
376,280,41375,1,0,0:0:0:0:
376,280,41535,1,0,0:0:0:0:
404,248,41815,1,0,0:0:0:0:
416,220,42015,1,0,0:0:0:0:
416,220,42175,1,0,0:0:0:0:
416,220,42335,1,0,0:0:0:0:
416,220,42495,5,0,0:0:0:0:
416,160,42815,1,0,0:0:0:0:
420,140,43135,1,0,0:0:0:0:
420,140,43295,1,0,0:0:0:0:
420,140,43455,1,0,0:0:0:0:
404,76,43735,1,0,0:0:0:0:
408,80,43935,1,0,0:0:0:0:
408,80,44095,1,0,0:0:0:0:
400,80,44255,1,0,0:0:0:0:
368,48,44415,5,0,0:0:0:0:
352,48,44575,1,0,0:0:0:0:
336,48,44735,1,0,0:0:0:0:
308,48,44895,1,0,0:0:0:0:
284,48,45055,1,0,0:0:0:0:
260,48,45215,1,0,0:0:0:0:
240,48,45375,1,0,0:0:0:0:
220,48,45535,1,0,0:0:0:0:
200,48,45695,1,0,0:0:0:0:
180,48,45855,1,0,0:0:0:0:
160,48,45975,1,0,0:0:0:0:
140,48,46135,1,0,0:0:0:0:
104,52,46335,6,0,B|48:140,1,99.9999936421713
44,212,46975,1,0,0:0:0:0:
44,232,47135,1,0,0:0:0:0:
44,252,47295,1,0,0:0:0:0:
64,356,47775,2,0,L|120:356,1,49.9999968210857
136,336,48055,2,0,L|184:296,1,62.4999960263571
276,288,48575,1,0,0:0:0:0:
392,316,48895,2,0,L|436:352,2,49.9999968210857
344,228,49695,1,0,0:0:0:0:
344,228,49855,1,0,0:0:0:0:
344,228,50015,1,0,0:0:0:0:
344,228,50175,6,0,L|400:160,1,87.4999944368999
332,112,50855,1,0,0:0:0:0:
332,112,50975,1,0,0:0:0:0:
324,108,51135,1,0,0:0:0:0:
288,72,51615,2,0,L|240:56,1,49.9999968210857
208,60,51935,1,0,0:0:0:0:
208,60,52095,1,0,0:0:0:0:
188,104,52375,1,0,0:0:0:0:
176,148,52735,1,0,0:0:0:0:
176,148,52895,1,0,0:0:0:0:
256,192,54015,12,0,54975,0:0:0:0:
300,168,55735,5,0,0:0:0:0:
300,168,55935,1,0,0:0:0:0:
304,132,56215,1,0,0:0:0:0:
304,132,56415,1,0,0:0:0:0:
296,96,56695,2,0,L|224:100,1,62.4999960263571
200,100,57175,2,0,L|132:84,1,62.4999960263571
76,96,57655,1,0,0:0:0:0:
76,112,57855,2,0,L|64:264,2,149.999990463257
116,312,59575,1,0,0:0:0:0:
136,312,59775,2,0,L|296:308,1,149.999990463257
360,304,60735,2,0,L|360:144,1,149.999990463257
360,304,61695,6,0,B|300:308|256:276|204:200|232:68,1,299.999980926514
296,68,63415,1,0,0:0:0:0:
296,68,63615,1,0,0:0:0:0:
340,68,63895,1,0,0:0:0:0:
340,68,64095,1,0,0:0:0:0:
368,92,64375,1,0,0:0:0:0:
368,92,64575,1,0,0:0:0:0:
384,128,64855,1,0,0:0:0:0:
384,128,65055,1,0,0:0:0:0:
404,164,65335,2,0,L|404:232,1,62.4999960263571
380,300,66015,1,0,0:0:0:0:
308,304,67255,2,0,L|240:296,1,62.4999960263571
204,232,67935,1,0,0:0:0:0:
48,144,69375,6,0,P|60:36|208:80,1,299.999980926514
324,200,71295,2,0,L|384:124,1,87.4999944368999
360,88,71775,2,0,L|264:68,1,87.4999944368999
216,76,72255,2,0,L|132:128,1,87.4999944368999
120,172,72735,2,0,L|88:264,1,87.4999944368999
60,304,73215,2,0,P|196:368|340:348,1,299.999980926514
392,224,74935,1,0,0:0:0:0:
392,224,75135,1,0,0:0:0:0:
416,196,75415,1,0,0:0:0:0:
416,196,75615,1,0,0:0:0:0:
436,148,75895,1,0,0:0:0:0:
436,148,76095,1,0,0:0:0:0:
440,100,76375,1,0,0:0:0:0:
440,100,76575,1,0,0:0:0:0:
396,68,76855,1,0,0:0:0:0:
112,24,78015,5,0,0:0:0:0:
208,56,78775,2,0,L|152:104,1,62.4999960263571
136,152,79255,1,0,0:0:0:0:
136,152,79455,1,0,0:0:0:0:
104,196,79735,2,0,L|112:264,1,62.4999960263571
152,300,80215,1,0,0:0:0:0:
152,300,80415,1,0,0:0:0:0:
240,308,80695,1,0,0:0:0:0:
240,308,80895,2,0,L|400:320,1,149.999990463257
452,240,82615,1,0,0:0:0:0:
452,240,82815,2,0,L|444:80,1,149.999990463257
420,44,84735,6,0,L|260:52,1,149.999990463257
216,48,85695,1,0,0:0:0:0:
168,48,86175,1,0,0:0:0:0:
128,52,86455,2,0,L|96:112,1,62.4999960263571
96,152,87135,1,0,0:0:0:0:
96,200,87415,1,0,0:0:0:0:
96,232,87615,2,0,P|36:248|88:284,1,149.999990463257
148,280,88415,1,0,0:0:0:0:
184,296,88575,1,0,0:0:0:0:
276,296,89055,1,0,0:0:0:0:
312,296,89335,2,0,L|372:312,1,62.4999960263571
424,328,90015,1,0,0:0:0:0:
456,308,90295,2,0,L|456:236,1,62.4999960263571
452,176,90775,1,0,0:0:0:0:
452,176,90975,1,0,0:0:0:0:
440,144,91255,1,0,0:0:0:0:
440,144,91455,1,0,0:0:0:0:
436,104,91735,1,0,0:0:0:0:
436,104,91935,1,0,0:0:0:0:
436,68,92215,1,0,0:0:0:0:
436,68,92415,1,0,0:0:0:0:
372,28,92895,1,0,0:0:0:0:
192,28,93375,2,0,P|88:68|200:140,1,299.999980926514
384,80,95095,5,0,0:0:0:0:
416,100,95295,2,0,L|416:196,1,87.4999944368999
412,216,95775,1,0,0:0:0:0:
412,256,96055,2,0,L|372:308,1,62.4999960263571
340,324,96735,1,0,0:0:0:0:
216,352,97215,2,0,B|108:348|52:312|4:236|20:172,1,299.999980926514
164,72,99775,1,0,0:0:0:0:
164,72,99935,1,0,0:0:0:0:
164,72,100095,1,0,0:0:0:0:
196,72,100415,1,0,0:0:0:0:
232,80,100735,1,0,0:0:0:0:
232,80,100895,1,0,0:0:0:0:
232,80,101055,1,0,0:0:0:0:
276,84,101535,1,0,0:0:0:0:
276,84,101695,1,0,0:0:0:0:
276,84,101855,1,0,0:0:0:0:
276,84,102015,1,0,0:0:0:0:
308,88,102335,1,0,0:0:0:0:
344,92,102655,1,0,0:0:0:0:
344,92,102815,1,0,0:0:0:0:
344,92,102975,1,0,0:0:0:0:
376,84,103455,1,0,0:0:0:0:
376,84,103615,1,0,0:0:0:0:
376,84,103775,1,0,0:0:0:0:
376,84,103935,6,0,L|436:168,1,99.9999936421713
436,192,104575,1,0,0:0:0:0:
436,192,104735,1,0,0:0:0:0:
436,192,104895,1,0,0:0:0:0:
432,228,105375,1,0,0:0:0:0:
432,228,105535,1,0,0:0:0:0:
432,228,105695,1,0,0:0:0:0:
432,228,105855,2,0,L|380:324,1,99.9999936421713
344,320,106495,2,0,L|288:320,1,49.9999968210857
264,320,106815,1,0,0:0:0:0:
204,304,107455,1,0,0:0:0:0:
204,304,107615,1,0,0:0:0:0:
204,308,107775,5,0,0:0:0:0:
184,296,107935,1,0,0:0:0:0:
168,284,108095,1,0,0:0:0:0:
152,276,108255,1,0,0:0:0:0:
136,268,108415,1,0,0:0:0:0:
120,256,108575,1,0,0:0:0:0:
104,248,108735,1,0,0:0:0:0:
92,236,108895,1,0,0:0:0:0:
80,220,109055,1,0,0:0:0:0:
72,204,109215,1,0,0:0:0:0:
68,188,109375,1,0,0:0:0:0:
68,172,109535,1,0,0:0:0:0:
68,152,109695,5,0,0:0:0:0:
68,136,109855,1,0,0:0:0:0:
68,120,110015,1,0,0:0:0:0:
72,100,110175,1,0,0:0:0:0:
80,80,110335,1,0,0:0:0:0:
92,64,110495,1,0,0:0:0:0:
104,48,110655,1,0,0:0:0:0:
124,40,110815,1,0,0:0:0:0:
140,36,110975,1,0,0:0:0:0:
156,36,111135,1,0,0:0:0:0:
168,36,111295,1,0,0:0:0:0:
184,36,111455,1,0,0:0:0:0:
200,40,111615,2,0,B|284:120|284:120|96:108,1,299.999980926514
96,172,112815,1,0,0:0:0:0:
92,224,113055,1,0,0:0:0:0:
88,320,113535,1,0,0:0:0:0:
256,196,114495,1,0,0:0:0:0:
256,192,115455,12,0,116415,0:0:0:0:
256,184,117175,5,0,0:0:0:0:
256,184,117375,1,0,0:0:0:0:
276,160,117655,1,0,0:0:0:0:
276,160,117855,1,0,0:0:0:0:
300,144,118135,2,0,L|360:124,1,62.4999960263571
392,96,118615,1,0,0:0:0:0:
380,80,118815,1,0,0:0:0:0:
304,52,119095,1,0,0:0:0:0:
268,56,119295,2,0,L|176:180,1,149.999990463257
76,236,121015,1,0,0:0:0:0:
92,264,121215,2,0,L|244:280,1,149.999990463257
256,192,122175,12,0,124095,0:0:0:0:
248,200,124855,6,0,L|176:204,1,62.4999960263571
188,264,125335,2,0,L|252:260,1,62.4999960263571
248,200,125815,2,0,L|176:204,1,62.4999960263571
188,264,126295,2,0,L|252:260,1,62.4999960263571
224,216,126775,2,0,L|220:152,1,62.4999960263571
64,56,127455,1,0,0:0:0:0:
436,312,128695,2,0,L|376:336,1,62.4999960263571
272,324,129375,1,0,0:0:0:0:
64,160,130815,6,0,L|148:36,2,149.999990463257
104,288,132735,1,0,0:0:0:0:
144,296,133015,1,0,0:0:0:0:
144,296,133215,1,0,0:0:0:0:
188,304,133495,1,0,0:0:0:0:
188,304,133695,1,0,0:0:0:0:
228,308,133975,1,0,0:0:0:0:
228,308,134175,1,0,0:0:0:0:
372,324,134455,1,0,0:0:0:0:
372,324,134655,2,0,P|516:208|492:180,1,299.999980926514
388,128,136375,1,0,0:0:0:0:
388,128,136575,1,0,0:0:0:0:
384,88,136855,1,0,0:0:0:0:
384,88,137055,1,0,0:0:0:0:
352,56,137335,1,0,0:0:0:0:
352,56,137535,1,0,0:0:0:0:
316,44,137815,1,0,0:0:0:0:
316,44,138015,1,0,0:0:0:0:
272,44,138295,1,0,0:0:0:0:
36,104,139455,5,0,0:0:0:0:
96,220,140215,1,0,0:0:0:0:
92,248,140415,2,0,L|84:340,1,87.4999944368999
112,352,140895,1,0,0:0:0:0:
176,352,141175,1,0,0:0:0:0:
204,352,141375,2,0,L|356:352,1,149.999990463257
384,336,142135,1,0,0:0:0:0:
384,336,142335,1,0,0:0:0:0:
416,272,142815,1,0,0:0:0:0:
416,208,144055,2,0,L|412:136,1,62.4999960263571
276,72,144735,5,0,0:0:0:0:
160,176,146175,6,0,L|76:304,2,149.999990463257
264,76,147615,1,0,0:0:0:0:
300,60,147895,2,0,L|360:80,1,62.4999960263571
400,104,148575,1,0,0:0:0:0:
432,132,148855,2,0,L|436:204,1,62.4999960263571
444,236,149335,2,0,L|448:300,1,62.4999960263571
444,336,149815,2,0,L|376:336,1,62.4999960263571
328,336,150495,1,0,0:0:0:0:
288,336,150775,1,0,0:0:0:0:
272,336,150975,1,0,0:0:0:0:
220,332,151455,1,0,0:0:0:0:
176,328,151735,1,0,0:0:0:0:
176,328,151935,1,0,0:0:0:0:
132,292,152415,1,0,0:0:0:0:
112,256,152695,1,0,0:0:0:0:
104,232,152895,1,0,0:0:0:0:
96,196,153375,1,0,0:0:0:0:
96,160,153655,2,0,L|96:96,1,62.4999960263571
112,76,154335,1,0,0:0:0:0:
152,72,154815,2,0,L|456:68,1,299.999980926514
456,68,156255,6,0,B|392:360|296:120|296:120,1,299.999980926514
440,264,157695,1,0,0:0:0:0:
448,176,158175,1,0,0:0:0:0:
440,104,158655,2,0,P|344:68|196:176,1,299.999980926514
231,23,160575,6,0,L|72:288,1,299.999980926514
228,152,162975,5,0,0:0:0:0:
264,152,163135,5,0,0:0:0:0:
264,192,163295,5,0,0:0:0:0:
228,192,163455,5,0,0:0:0:0:
232,156,164895,5,0,0:0:0:0:
268,156,165055,5,0,0:0:0:0:
268,196,165215,5,0,0:0:0:0:
232,196,165375,5,0,0:0:0:0:
232,160,166815,5,0,0:0:0:0:
268,160,166975,5,0,0:0:0:0:
268,200,167135,5,0,0:0:0:0:
232,200,167295,5,0,0:0:0:0:
256,192,169215,12,0,170175,0:0:0:0:
256,152,170935,5,0,0:0:0:0:
256,112,171135,1,0,0:0:0:0:
216,48,171415,1,0,0:0:0:0:
188,44,171615,1,0,0:0:0:0:
148,64,171895,1,0,0:0:0:0:
144,84,172095,2,0,L|140:240,1,149.999990463257
156,268,172855,1,0,0:0:0:0:
172,296,173055,2,0,P|212:340|296:312,1,149.999990463257
312,228,174775,1,0,0:0:0:0:
312,228,174975,2,0,L|312:76,1,149.999990463257
20,168,176895,6,0,L|248:372,1,299.999980926514
352,248,178615,1,0,0:0:0:0:
384,220,178815,2,0,P|416:136|380:104,1,149.999990463257
328,76,179575,1,0,0:0:0:0:
292,68,179775,2,0,P|228:40|172:88,1,149.999990463257
144,104,180535,1,0,0:0:0:0:
128,124,180735,1,0,0:0:0:0:
104,168,181215,1,0,0:0:0:0:
32,344,182495,1,0,0:0:0:0:
64,344,182655,1,0,0:0:0:0:
144,316,183135,1,0,0:0:0:0:
284,308,184575,6,0,P|380:284|184:200,1,599.999961853028
172,252,186775,1,0,0:0:0:0:
172,252,186975,1,0,0:0:0:0:
160,308,187255,1,0,0:0:0:0:
160,308,187455,1,0,0:0:0:0:
128,328,187735,1,0,0:0:0:0:
128,328,187935,1,0,0:0:0:0:
72,328,188215,1,0,0:0:0:0:
72,324,188415,2,0,P|56:232|176:76,1,299.999980926514
280,204,190135,1,0,0:0:0:0:
280,204,190335,1,0,0:0:0:0:
328,196,190615,1,0,0:0:0:0:
328,196,190815,1,0,0:0:0:0:
376,200,191095,1,0,0:0:0:0:
376,200,191295,1,0,0:0:0:0:
416,204,191575,1,0,0:0:0:0:
416,208,191775,1,0,0:0:0:0:
416,252,192055,1,0,0:0:0:0:
344,32,193215,6,0,L|208:108,1,149.999990463257
184,120,193975,2,0,L|140:164,1,62.4999960263571
136,196,194455,2,0,L|104:256,1,62.4999960263571
124,272,194935,2,0,L|92:336,1,62.4999960263571
128,336,195415,2,0,L|192:332,1,62.4999960263571
228,340,195895,2,0,L|296:336,1,62.4999960263571
344,332,196575,1,0,0:0:0:0:
296,200,197815,1,0,0:0:0:0:
256,192,198015,12,0,199935,0:0:0:0:
