osu file format v14

[General]
AudioFilename: audio.mp3
AudioLeadIn: 0
PreviewTime: 9609
Countdown: 0
SampleSet: Soft
StackLeniency: 0.3
Mode: 0
LetterboxInBreaks: 0
WidescreenStoryboard: 1

[Editor]
DistanceSpacing: 1
BeatDivisor: 4
GridSize: 16
TimelineZoom: 1.7

[Metadata]
Title:BOCCHI ROCK
TitleUnicode:ぼっち ろっく
Artist:Imaginary Shame Daimajin 50
ArtistUnicode:イメジナリー恥部恥部大魔人50
Creator:Arushii09
Version:iRedi's Hard
Source:
Tags:bocchi the rock btr ぼっち・ざ・ろっく! kessoku band 結束バンド kick back 米津 玄師 Kenshi Yonezu Japanese pop jpop anime jrock j-rock chainsaw man チェンソーマン op opening meme 音 mad 鬼畜 novelty niconico ytpmv bocchitherock chainsawman iredi Aurorance
BeatmapID:3967393
BeatmapSetID:1906151

[Difficulty]
HPDrainRate:4
CircleSize:3.4
OverallDifficulty:7
ApproachRate:8
SliderMultiplier:1.1
SliderTickRate:1

[Events]
//Background and Video events
0,0,"guitardevil.jpg",0,0
Video,0,"BOCCHI ROCK.mp4"
//Break Periods
//Storyboard Layer 0 (Background)
//Storyboard Layer 1 (Fail)
//Storyboard Layer 2 (Pass)
//Storyboard Layer 3 (Foreground)
//Storyboard Layer 4 (Overlay)
//Storyboard Sound Samples

[TimingPoints]
345,294.117647058824,4,2,1,55,1,0
345,-111.111111111111,4,2,1,55,0,0
8580,-111.111111111111,4,2,1,60,0,0
9462,-100,4,2,1,65,0,0
9756,-100,4,2,1,70,0,0
19168,-125,4,2,1,70,0,0
28580,-111.111111111111,4,2,1,70,0,0
35639,-111.111111111111,4,2,1,70,0,0
37992,-142.857142857143,4,2,1,60,0,0
45050,-125,4,2,1,60,0,0
46227,-125,4,2,1,70,0,0
51521,-125,4,2,1,100,0,0
51815,-125,4,2,1,70,0,0
52109,-80,4,2,1,85,0,1
70933,-80,4,2,1,85,0,1
71227,-74.0740740740741,4,2,1,85,0,1
73286,-142.857142857143,4,2,1,85,0,0
73580,-142.857142857143,4,2,1,50,0,0
75197,-142.857142857143,4,2,1,60,0,0
75639,-100,4,2,1,70,0,0
84609,-100,4,2,1,50,0,0

[Colours]
Combo1 : 164,100,240
Combo2 : 230,110,150
Combo3 : 240,150,255
Combo4 : 100,200,200
Combo5 : 130,120,255

[HitObjects]
0,129,345,6,0,P|18:71|59:45,1,98.9999969787599,4|2,2:1|2:2,0:0:0:0:
84,128,786,1,2,2:2:0:0:
84,128,933,2,0,L|145:144,1,49.4999984893799,2|2,2:2|2:2,0:0:0:0:
231,0,1374,6,0,L|202:108,2,98.9999969787599,2|2|2,2:2|2:2|2:2,0:0:0:0:
318,145,2256,2,0,L|256:161,2,49.4999984893799,2|2|2,2:2|2:2|2:2,0:0:0:0:
303,64,2697,6,0,P|324:29|390:7,1,98.9999969787599,2|2,2:2|2:2,0:0:0:0:
386,93,3138,1,2,2:2:0:0:
386,93,3285,2,0,L|433:105,1,49.4999984893799,2|2,2:2|2:2,0:0:0:0:
512,275,3727,6,0,L|483:166,1,98.9999969787599,2|2,2:2|2:2,0:0:0:0:
400,323,4315,2,0,L|447:335,2,49.4999984893799,2|2|2,2:1|2:1|2:1,0:0:0:0:
378,243,4756,2,0,P|338:264|317:303,1,74.2499977340699,2|0,2:1|0:0,0:0:0:0:
316,344,5050,6,0,P|265:353|220:369,1,98.9999969787599,2|2,2:2|2:2,0:0:0:0:
145,324,5491,1,2,2:2:0:0:
145,324,5638,2,0,L|161:262,1,49.4999984893799,2|2,2:2|2:2,0:0:0:0:
0,241,6080,6,0,P|52:243|101:215,1,98.9999969787599,2|2,2:2|2:2,0:0:0:0:
64,32,6668,1,2,2:1:0:0:
64,32,6815,2,0,L|47:93,3,49.4999984893799,2|2|2|2,2:1|2:1|2:1|2:1,0:0:0:0:
33,159,7403,5,2,2:2:0:0:
256,192,7550,12,2,9462,2:2:0:0:
431,303,9756,6,0,L|485:289,2,55,4|2|6,1:1|2:2|2:2,0:0:0:0:
356,238,10197,1,2,2:2:0:0:
356,238,10345,2,0,P|315:252|282:307,1,110,2|6,2:2|2:2,0:0:0:0:
216,374,10786,1,2,2:2:0:0:
216,374,10933,6,0,L|162:359,1,55,2|2,1:2|2:2,0:0:0:0:
97,283,11227,2,0,L|150:268,1,55,6|2,2:2|2:2,0:0:0:0:
240,229,11521,1,2,2:2:0:0:
240,229,11595,1,4,2:2:0:0:
240,229,11668,1,0,1:2:0:0:
171,157,11815,2,0,L|156:103,1,55,4|0,2:2|0:0,0:0:0:0:
199,19,12109,6,0,L|145:4,2,55,2|2|6,1:2|2:2|2:2,0:0:0:0:
348,113,12697,2,0,L|401:98,2,55,2|2|6,2:2|1:2|2:2,0:0:0:0:
308,194,13139,1,2,2:2:0:0:
308,194,13286,6,0,L|287:271,1,55,2|2,1:2|2:2,0:0:0:0:
394,250,13580,2,0,L|408:303,1,55,6|2,2:2|2:2,0:0:0:0:
331,343,13874,1,2,2:2:0:0:
331,343,13947,1,4,2:2:0:0:
331,343,14021,1,0,1:2:0:0:
235,317,14168,2,0,L|181:302,1,55,6|2,2:2|2:2,0:0:0:0:
137,383,14462,6,0,P|80:363|28:354,1,110,2|6,1:2|2:2,0:0:0:0:
93,272,14903,1,2,2:2:0:0:
93,272,15050,2,0,L|78:218,2,55,2|2|6,2:2|1:2|2:2,0:0:0:0:
183,296,15492,1,2,2:2:0:0:
183,296,15639,6,0,L|260:275,1,55,2|2,1:2|2:2,0:0:0:0:
331,295,15933,2,0,L|316:241,1,55,6|2,2:2|2:2,0:0:0:0:
235,193,16227,1,2,2:2:0:0:
235,193,16300,1,4,2:2:0:0:
235,193,16374,1,0,1:2:0:0:
317,149,16521,2,0,L|370:163,1,55,6|2,2:2|2:2,0:0:0:0:
411,245,16815,6,0,P|482:242|511:204,1,110,2|6,1:2|2:2,0:0:0:0:
366,75,17403,2,0,L|380:21,2,55,2|2|6,2:2|1:2|2:2,0:0:0:0:
317,149,17845,1,0,1:2:0:0:
266,70,17992,6,0,L|204:86,1,55,2|0,1:2|0:0,0:0:0:0:
161,156,18286,2,0,L|107:141,1,55,6|0,2:2|0:0,0:0:0:0:
27,184,18580,1,2,1:2:0:0:
27,184,18727,2,0,L|12:130,2,55,6|2|4,2:2|2:2|2:2,0:0:0:0:
106,230,19168,6,0,P|136:256|144:308,1,88,2|6,1:2|2:2,0:0:0:0:
82,368,19609,1,2,2:2:0:0:
82,368,19756,2,0,L|20:351,2,44,2|2|6,2:2|1:2|2:2,0:0:0:0:
292,292,20345,6,0,P|323:260|314:214,1,88,2|6,1:2|2:2,0:0:0:0:
235,190,20786,2,0,P|203:221|212:267,1,88,2|0,2:2|1:2,0:0:0:0:
228,347,21227,1,4,2:2:0:0:
228,347,21374,2,0,L|185:358,1,44,2|0,2:2|1:2,0:0:0:0:
124,292,21668,1,2,2:2:0:0:
124,292,21815,2,0,L|62:275,2,44,6|2|2,2:2|2:2|2:2,0:0:0:0:
208,261,22256,1,2,1:2:0:0:
89,129,22550,5,2,1:2:0:0:
43,204,22697,2,0,P|13:175|2:118,1,88,0|4,1:2|2:2,0:0:0:0:
43,57,23138,2,0,L|59:-4,1,44,0|2,1:2|2:2,0:0:0:0:
133,55,23433,2,0,L|194:71,2,44,2|6|2,1:2|2:2|1:2,0:0:0:0:
43,57,23874,6,0,L|21:62,3,22,2|2|2|2,1:2|2:2|2:2|2:2,0:0:0:0:
0,117,24168,2,0,L|5:138,3,22,6|2|2|2,2:2|2:2|2:2|2:2,0:0:0:0:
40,183,24462,2,0,L|27:229,2,44,2|2|6,2:2|1:2|2:2,0:0:0:0:
121,144,24903,1,2,2:2:0:0:
285,227,25197,5,2,2:2:0:0:
233,299,25345,2,0,L|257:391,2,88,4|0|4,2:2|0:0|2:2,0:0:0:0:
155,259,26080,1,2,2:2:0:0:
205,189,26227,5,2,1:2:0:0:
205,189,26374,2,0,L|193:146,1,44,2|6,2:2|2:2,0:0:0:0:
222,97,26595,1,2,2:2:0:0:
222,97,26668,1,2,2:2:0:0:
290,148,26815,2,0,L|351:131,1,44,2|2,2:2|1:2,0:0:0:0:
395,78,27109,2,0,L|425:86,2,22,6|2|0,2:2|2:2|1:2,0:0:0:0:
330,21,27403,2,0,L|321:-9,2,22,2|2|2,2:2|1:2|1:2,0:0:0:0:
256,70,27697,2,0,L|234:75,3,22,6|2|2|0,2:2|2:2|1:2|1:2,0:0:0:0:
186,54,27992,5,6,2:2:0:0:
186,54,28139,1,2,1:2:0:0:
1,174,28580,6,0,P|41:209|40:259,1,98.9999969787599,2|6,1:2|2:2,0:0:0:0:
47,335,29021,2,0,L|0:347,2,49.4999984893799,2|2|2,2:2|2:2|1:2,0:0:0:0:
125,375,29462,1,4,2:2:0:0:
125,375,29609,6,0,P|155:333|208:326,1,98.9999969787599,2|2,2:2|1:2,0:0:0:0:
277,370,30050,1,6,2:2:0:0:
277,370,30197,2,0,P|324:360|352:320,1,98.9999969787599,2|2,2:2|1:2,0:0:0:0:
275,271,30639,1,6,2:2:0:0:
275,271,30786,6,0,P|268:234|255:199,1,74.2499977340699,2|0,2:2|0:0,0:0:0:0:
283,149,31080,2,0,P|319:142|354:129,1,74.2499977340699,2|0,2:2|0:0,0:0:0:0:
406,154,31374,1,2,2:2:0:0:
487,185,31521,2,0,L|499:232,2,49.4999984893799,2|2|6,2:2|1:2|2:2,0:0:0:0:
492,129,31889,1,0,0:0:0:0:
492,129,31962,6,0,P|516:85|494:36,1,98.9999969787599,2|2,2:2|1:2,0:0:0:0:
419,5,32403,1,4,2:2:0:0:
419,5,32550,2,0,L|371:17,1,49.4999984893799,2|0,2:2|0:0,0:0:0:0:
334,94,32845,5,2,1:2:0:0:
222,127,33065,5,0,1:2:0:0:
124,45,33286,6,0,L|77:32,3,24.74999924469,2|2|2|2,1:2|2:2|2:2|2:2,0:0:0:0:
47,58,33580,2,0,L|34:104,3,24.74999924469,4|2|2|0,2:2|2:2|2:2|0:0,0:0:0:0:
73,130,33874,2,0,L|85:177,1,49.4999984893799,2|0,2:2|1:2,0:0:0:0:
25,235,34168,2,0,L|18:258,3,24.74999924469,6|2|2|0,2:2|2:2|2:2|0:0,0:0:0:0:
50,306,34462,6,0,L|2:318,2,49.4999984893799,2|2|6,1:2|1:2|2:2,0:0:0:0:
120,362,34903,1,2,2:2:0:0:
134,273,35050,2,0,L|140:249,2,24.74999924469,2|2|2,2:2|2:2|1:2,0:0:0:0:
203,333,35345,2,0,P|248:333|284:310,1,74.2499977340699,6|0,2:2|0:0,0:0:0:0:
329,301,35639,6,0,L|359:309,5,24.74999924469,2|2|2|2|4|2,1:2|2:2|2:2|2:2|2:2|2:2,0:0:0:0:
412,380,36153,2,0,P|428:351|473:326,1,74.2499977340699,0|0,0:0|1:2,0:0:0:0:
489,253,36521,2,0,L|519:261,2,24.74999924469,2|0|4,2:2|1:2|2:2,0:0:0:0:
404,234,36815,6,0,L|387:172,1,49.4999984893799,2|4,1:2|2:2,0:0:0:0:
476,167,37109,2,0,L|492:105,1,49.4999984893799,2|0,2:2|1:2,0:0:0:0:
448,42,37403,2,0,L|509:25,2,49.4999984893799,6|2|2,2:2|1:2|1:2,0:0:0:0:
384,103,37845,1,0,0:0:0:0:
322,42,37992,6,0,P|263:31|198:8,1,115.49999647522,2|0,1:2|0:0,0:0:0:0:
156,93,38580,2,0,P|214:103|279:126,1,115.49999647522,0|0,1:2|0:0,0:0:0:0:
338,180,39168,2,0,L|350:226,3,38.4999988250733,2|2|2|2,1:2|1:2|1:2|1:2,0:0:0:0:
302,294,39756,1,6,2:2:0:0:
434,206,40050,1,2,1:2:0:0:
512,384,40345,6,0,P|475:333|410:326,1,115.49999647522,2|2,1:2|2:2,0:0:0:0:
352,375,40933,2,0,P|297:360|266:313,1,115.49999647522,2|2,1:2|2:2,0:0:0:0:
194,264,41521,2,0,L|147:276,3,38.4999988250733,2|0|0|2,1:2|0:0|0:0|1:2,0:0:0:0:
138,358,42109,1,4,2:2:0:0:
272,225,42403,1,2,2:2:0:0:
140,121,42697,6,0,P|98:152|93:225,1,115.49999647522,2|2,1:2|2:2,0:0:0:0:
31,286,43286,2,0,P|89:296|154:319,1,115.49999647522,2|2,1:2|2:2,0:0:0:0:
207,377,43873,2,0,L|244:367,3,38.4999988250733,0|2|2|0,1:2|1:2|1:2|1:2,0:0:0:0:
282,290,44461,1,6,2:2:0:0:
435,372,44755,1,2,2:2:0:0:
506,226,45050,6,0,P|486:199|478:142,1,88,2|2,1:2|2:2,0:0:0:0:
424,69,45492,1,2,1:2:0:0:
424,69,45639,2,0,P|410:99|365:135,1,88,6|2,2:2|2:2,0:0:0:0:
285,98,46081,1,6,2:2:0:0:
285,98,46227,6,0,L|262:12,2,88,2|6|6,1:2|2:2|2:2,0:0:0:0:
289,186,46962,1,0,1:2:0:0:
119,124,47256,1,0,0:0:0:0:
46,165,47403,6,0,L|30:103,2,44,0|2|2,1:2|2:2|2:2,0:0:0:0:
123,209,47845,1,2,2:2:0:0:
123,209,47992,2,0,P|120:265|90:294,1,88,6|0,2:2|0:0,0:0:0:0:
15,274,48433,1,0,0:0:0:0:
15,274,48580,6,0,P|32:344|140:365,1,176,2|0,1:2|0:0,0:0:0:0:
256,192,49315,12,0,51521,1:2:0:0:
448,167,51815,5,2,2:2:0:0:
510,3,52109,6,0,P|466:43|401:39,1,103.125,2|0,1:2|0:0,0:0:0:0:
388,7,52403,2,0,L|321:24,1,68.75,6|0,2:2|0:0,0:0:0:0:
276,109,52697,1,2,2:2:0:0:
203,37,52845,2,0,L|185:103,1,68.75,2|4,1:2|2:2,0:0:0:0:
226,192,53139,6,0,L|159:209,1,68.75,2|0,2:2|1:2,0:0:0:0:
87,136,53433,2,0,P|40:149|1:237,1,137.5,2|2,1:2|2:2,0:0:0:0:
85,267,53874,2,0,L|62:353,1,68.75,2|0,2:2|1:2,0:0:0:0:
149,384,54168,2,0,L|235:361,1,68.75,6|0,2:2|0:0,0:0:0:0:
257,285,54462,6,0,P|291:263|355:284,1,103.125,2|0,1:2|0:0,0:0:0:0:
363,332,54756,2,0,L|449:354,1,68.75,6|0,2:2|0:0,0:0:0:0:
497,287,55050,2,0,L|479:220,1,68.75,2|0,2:2|1:2,0:0:0:0:
389,196,55345,1,4,2:2:0:0:
333,122,55492,6,0,L|399:104,1,68.75,2|0,2:2|1:2,0:0:0:0:
488,126,55786,2,0,P|500:72|434:1,1,137.5,2|0,1:2|1:2,0:0:0:0:
364,23,56227,2,0,L|297:5,1,68.75,0|0,1:2|1:2,0:0:0:0:
244,83,56521,2,0,P|205:109|145:96,1,103.125,6|0,2:2|0:0,0:0:0:0:
138,47,56815,6,0,L|72:30,1,68.75,2|2,1:2|2:2,0:0:0:0:
26,62,57036,1,0,0:0:0:0:
26,62,57109,2,0,L|3:148,1,68.75,6|0,2:2|0:0,0:0:0:0:
92,171,57403,1,2,2:2:0:0:
92,171,57550,1,2,1:2:0:0:
108,259,57697,2,0,L|194:281,1,68.75,6|2,2:2|2:2,0:0:0:0:
196,367,57992,6,0,L|282:344,1,68.75,2|0,1:2|1:2,0:0:0:0:
273,301,58213,1,0,0:0:0:0:
273,301,58286,1,6,2:2:0:0:
241,211,58433,1,2,2:2:0:0:
334,233,58580,2,0,L|420:255,1,68.75,2|0,2:2|1:2,0:0:0:0:
476,193,58874,6,0,P|468:130|416:97,1,103.125,6|0,2:2|0:0,0:0:0:0:
386,119,59168,1,0,1:2:0:0:
171,69,59462,2,0,L|193:155,2,68.75,6|2|2,2:2|2:2|2:2,0:0:0:0:
135,28,59903,2,0,L|68:10,1,68.75,2|4,1:2|2:2,0:0:0:0:
0,76,60197,5,2,2:2:0:0:
84,115,60345,2,0,L|66:184,1,68.75,0|0,1:2|1:2,0:0:0:0:
15,204,60565,1,0,1:2:0:0:
15,204,60639,2,0,L|32:273,1,68.75,4|0,2:2|0:0,0:0:0:0:
0,355,60933,2,0,L|34:365,3,34.375,0|0|0|0,1:2|1:2|1:2|1:2,0:0:0:0:
87,343,61227,6,0,P|135:363|191:371,1,103.125,6|0,2:2|0:0,0:0:0:0:
224,336,61521,6,0,P|250:298|229:216,1,103.125,2|0,1:2|0:0,0:0:0:0:
273,192,61815,2,0,L|206:174,1,68.75,6|0,2:2|0:0,0:0:0:0:
128,231,62109,1,2,2:2:0:0:
58,164,62257,2,0,L|75:97,1,68.75,2|4,1:2|2:2,0:0:0:0:
164,90,62551,6,0,L|230:72,1,68.75,2|0,2:2|1:2,0:0:0:0:
303,3,62845,2,0,P|360:87|416:94,1,137.5,2|0,1:2|0:0,0:0:0:0:
493,69,63286,2,0,L|475:135,1,68.75,2|0,1:2|1:2,0:0:0:0:
395,192,63580,2,0,L|412:258,1,68.75,6|0,2:2|0:0,0:0:0:0:
497,311,63874,6,0,P|480:356|426:381,1,103.125,2|0,1:2|0:0,0:0:0:0:
385,350,64168,2,0,L|318:332,1,68.75,6|0,2:2|0:0,0:0:0:0:
311,239,64462,1,2,1:2:0:0:
217,223,64610,2,0,L|234:289,1,68.75,2|4,1:2|2:2,0:0:0:0:
239,384,64904,6,0,L|172:366,1,68.75,2|0,2:2|1:2,0:0:0:0:
80,384,65197,1,2,1:2:0:0:
18,310,65345,2,0,L|35:241,1,68.75,6|2,2:2|1:2,0:0:0:0:
123,203,65639,1,2,2:2:0:0:
77,119,65786,2,0,L|8:101,2,68.75,2|4|0,1:2|2:2|0:0,0:0:0:0:
148,53,66227,1,0,1:2:0:0:
245,49,66374,5,0,0:0:0:0:
245,49,66448,1,0,0:0:0:0:
245,49,66521,2,0,P|275:86|311:92,1,68.75,6|0,2:2|1:2,0:0:0:0:
375,157,66815,2,0,P|327:164|304:192,1,68.75,6|0,2:2|1:2,0:0:0:0:
216,215,67109,2,0,P|233:170|220:136,1,68.75,6|0,2:2|1:2,0:0:0:0:
157,86,67404,6,0,L|91:69,1,68.75,6|0,2:2|1:2,0:0:0:0:
14,132,67697,1,6,2:2:0:0:
14,132,67845,1,2,1:2:0:0:
103,163,67992,2,0,L|80:249,1,68.75,6|0,2:2|1:2,0:0:0:0:
11,290,68286,2,0,P|31:337|103:355,1,103.125,6|0,2:2|0:0,0:0:0:0:
118,318,68580,1,0,1:2:0:0:
210,372,68727,5,0,0:0:0:0:
210,372,68801,1,0,0:0:0:0:
210,372,68874,2,0,P|229:335|261:319,1,68.75,6|0,2:2|1:2,0:0:0:0:
237,230,69168,2,0,P|278:227|308:247,1,68.75,6|0,2:2|1:2,0:0:0:0:
373,182,69462,2,0,P|395:216|393:252,1,68.75,6|0,2:2|1:2,0:0:0:0:
345,327,69757,6,0,L|431:349,1,68.75,6|0,2:2|1:2,0:0:0:0:
489,293,70050,1,6,2:2:0:0:
489,293,70198,1,2,1:2:0:0:
441,210,70345,2,0,L|449:176,3,34.375,6|0|0|0,2:2|1:2|1:2|1:2,0:0:0:0:
497,140,70639,2,0,L|488:106,3,34.375,6|0|0|0,2:2|1:2|1:2|1:2,0:0:0:0:
449,66,70933,2,0,L|377:46,1,68.75,4|0,2:2|1:2,0:0:0:0:
288,102,71227,6,0,P|237:90|208:58,1,74.2500002832413,6|0,2:2|1:2,0:0:0:0:
158,81,71447,1,0,0:0:0:0:
158,81,71521,2,0,P|173:130|160:171,1,74.2500002832413,6|0,2:2|1:2,0:0:0:0:
207,204,71741,1,0,0:0:0:0:
207,204,71815,2,0,P|242:165|284:156,1,74.2500002832413,6|0,2:2|1:2,0:0:0:0:
343,228,72109,6,0,L|367:320,1,74.2500002832413,6|0,2:2|1:2,0:0:0:0:
337,357,72329,1,0,0:0:0:0:
337,357,72403,2,0,L|265:376,1,74.2500002832413,6|2,2:2|1:2,0:0:0:0:
207,352,72623,1,0,0:0:0:0:
207,352,72697,2,0,L|187:280,1,74.2500002832413,6|0,2:2|1:2,0:0:0:0:
213,222,72918,1,0,0:0:0:0:
213,222,72992,2,0,L|284:202,1,74.2500002832413,6|0,2:2|1:2,0:0:0:0:
359,127,73286,5,0,1:2:0:0:
359,127,73580,2,0,L|247:97,1,115.49999647522,6|0,2:2|1:2,0:0:0:0:
201,24,74168,1,6,2:2:0:0:
79,109,74462,6,0,P|10:85|49:158,1,192.499994125366,2|2,2:2|2:2,0:0:0:0:
119,184,75345,2,0,L|102:245,1,57.7499982376099,2|0,2:2|0:0,0:0:0:0:
60,275,75639,6,0,P|115:295|145:346,1,110,4|4,1:1|2:2,0:0:0:0:
226,384,76080,1,2,2:2:0:0:
226,384,76227,1,2,2:2:0:0:
300,331,76374,2,0,L|321:251,1,82.5,2|0,1:2|0:0,0:0:0:0:
287,208,76668,6,0,L|340:193,1,55,2|0,2:2|1:2,0:0:0:0:
426,205,76962,2,0,L|411:151,1,55,2|4,2:2|2:2,0:0:0:0:
474,93,77256,2,0,P|456:57|397:34,1,82.5,2|4,2:2|2:2,0:0:0:0:
340,87,77550,2,0,L|286:73,2,55,2|6|2,1:2|2:2|2:2,0:0:0:0:
411,151,77992,6,0,L|440:259,1,110,2|4,1:2|2:2,0:0:0:0:
512,324,78433,1,2,2:2:0:0:
512,324,78580,1,2,2:2:0:0:
439,384,78727,2,0,L|359:362,1,82.5,2|0,1:2|0:0,0:0:0:0:
348,274,79021,6,0,L|294:288,1,55,2|0,2:2|1:2,0:0:0:0:
234,356,79315,2,0,L|180:341,1,55,2|4,2:2|2:2,0:0:0:0:
90,345,79609,2,0,L|103:291,1,55,2|0,2:2|0:0,0:0:0:0:
76,243,79830,1,4,2:2:0:0:
76,243,79903,2,0,L|22:229,1,55,2|6,1:2|2:2,0:0:0:0:
0,145,80197,1,2,2:2:0:0:
0,145,80345,6,0,P|48:134|81:84,1,110,2|6,1:2|2:2,0:0:0:0:
60,0,80786,1,2,2:2:0:0:
146,24,80933,2,0,L|207:6,1,55,2|2,2:2|1:2,0:0:0:0:
264,73,81227,2,0,L|316:87,1,55,6|2,2:2|2:2,0:0:0:0:
396,37,81521,6,0,L|408:-9,3,36.6666666666667,2|2|2|6,1:2|2:2|2:2|2:2,0:0:0:0:
512,151,82109,2,0,L|458:164,1,55,2|2,2:2|1:2,0:0:0:0:
401,238,82403,2,0,L|339:222,1,55,6|2,2:2|2:2,0:0:0:0:
272,169,82697,6,0,P|245:184|213:260,1,110,2|6,1:2|2:2,0:0:0:0:
294,300,83139,1,2,2:2:0:0:
294,300,83286,2,0,L|273:377,1,55,2|2,2:2|1:2,0:0:0:0:
188,346,83580,1,4,2:2:0:0:
188,346,83727,6,0,L|134:332,1,55,6|2,1:2|2:2,0:0:0:0:
60,380,84021,2,0,L|39:300,1,82.5,6|0,1:2|0:0,0:0:0:0:
3,257,84315,2,0,P|19:213|47:188,1,82.5,6|0,1:2|0:0,0:0:0:0:
75,142,84609,6,0,L|106:150,2,27.5,0|0|2,1:2|0:0|2:2,0:0:0:0:
