osu file format v14

[General]
AudioFilename: audio.mp3
AudioLeadIn: 0
PreviewTime: 625
Countdown: 0
SampleSet: Soft
StackLeniency: 0.4
Mode: 0
LetterboxInBreaks: 0
WidescreenStoryboard: 1

[Editor]
Bookmarks: 38746,80393,122040,166511,195448,218036,243448,282981
DistanceSpacing: 0.3
BeatDivisor: 4
GridSize: 8
TimelineZoom: 2.5

[Metadata]
Title:Spread the Wings!! (illumination STARS Ver.)
TitleUnicode:Spread the Wings!! (イルミネーションスターズ Ver.)
Artist:illumination STARS
ArtistUnicode:イルミネーションスターズ
Creator:Heilia
Version:Heilia, Karen & Acyl's Shiny Future
Source:アイドルマスター シャイニーカラーズ
Tags:THE IDOLM@STER SHINY COLORS im@s imas アイマス シャニマス Shanimas BRILLI@NT WING 02 ヒカリのdestination 櫻木真乃 Sakuragi Mano 風野灯織 Kazano Hiori 八宮めぐる Hachimiya Meguru 峯田 茉優 Mineda Mayu 関根 瞳 Sekine Hitomi 近藤玲奈 Kondou Reina kagamine ren karen acyl jieusieu neoskylove affirmation af japanese female vocal idol
BeatmapID:2220790
BeatmapSetID:1060694

[Difficulty]
HPDrainRate:5
CircleSize:4.2
OverallDifficulty:8.8
ApproachRate:9.5
SliderMultiplier:1.7
SliderTickRate:1

[Events]
//Background and Video events
0,0,"bgg.jpg",0,0
//Break Periods
//Storyboard Layer 0 (Background)
//Storyboard Layer 1 (Fail)
//Storyboard Layer 2 (Pass)
//Storyboard Layer 3 (Foreground)
//Storyboard Layer 4 (Overlay)
//Storyboard Sound Samples

[TimingPoints]
625,352.941176470588,4,2,10,35,1,0
625,-133.333333333333,4,2,10,35,0,0
6272,-117.647058823529,4,2,10,35,0,0
12007,-117.647058823529,4,2,10,36,0,0
12095,-117.647058823529,4,2,10,37,0,0
12183,-117.647058823529,4,2,10,38,0,0
12272,-117.647058823529,4,2,10,39,0,0
12360,-117.647058823529,4,2,10,40,0,0
12448,-117.647058823529,4,2,10,41,0,0
12536,-117.647058823529,4,2,10,42,0,0
12624,-117.647058823529,4,2,10,43,0,0
12713,-117.647058823529,4,2,10,44,0,0
12801,-117.647058823529,4,2,10,45,0,0
12889,-117.647058823529,4,2,10,46,0,0
12977,-117.647058823529,4,2,10,47,0,0
13066,-117.647058823529,4,2,10,48,0,0
13154,-117.647058823529,4,2,10,49,0,0
13242,-117.647058823529,4,2,10,50,0,0
13330,-117.647058823529,4,2,10,51,0,0
13419,-117.647058823529,4,2,10,52,0,0
13507,-117.647058823529,4,2,10,53,0,0
13595,-117.647058823529,4,2,10,54,0,0
13683,-117.647058823529,4,2,10,55,0,0
13772,-117.647058823529,4,2,10,56,0,0
13860,-117.647058823529,4,2,10,57,0,0
13948,-117.647058823529,4,2,10,58,0,0
14036,-80,4,2,10,59,0,0
14213,-66.6666666666667,4,2,10,59,0,0
14566,-117.647058823529,4,2,11,64,0,0
15977,-66.6666666666667,4,2,11,64,0,0
17389,-80,4,2,11,64,0,0
17919,-100,4,2,11,64,0,0
18272,-200,4,2,11,64,0,0
18801,-50,4,2,11,64,0,0
19242,-50,4,2,11,63,0,0
19330,-50,4,2,11,62,0,0
19419,-50,4,2,11,61,0,0
19507,-50,4,2,11,60,0,0
19595,-50,4,2,11,59,0,0
19683,-100,4,2,11,58,0,0
19772,-100,4,2,11,57,0,0
19860,-100,4,2,11,56,0,0
19948,-100,4,2,11,55,0,0
20036,-100,4,2,11,60,0,0
20389,-55.5555555555556,4,2,11,50,0,0
20566,-55.5555555555556,4,2,11,51,0,0
20654,-100,4,2,11,51,0,0
20742,-100,4,2,11,52,0,0
20919,-100,4,2,11,53,0,0
21095,-100,4,2,11,54,0,0
21272,-100,4,2,11,55,0,0
21448,-100,4,2,11,56,0,0
21624,-66.6666666666667,4,2,11,57,0,0
21977,-66.6666666666667,4,2,11,58,0,0
22154,-66.6666666666667,4,2,11,59,0,0
22330,-66.6666666666667,4,2,11,60,0,0
22507,-66.6666666666667,4,2,11,61,0,0
22683,-66.6666666666667,4,2,11,62,0,0
22860,-66.6666666666667,4,2,11,63,0,0
23036,-66.6666666666667,4,2,11,64,0,0
23213,-66.6666666666667,4,2,11,65,0,0
24801,-57.1428571428571,4,2,11,65,0,0
25154,-80,4,2,11,65,0,0
25860,-166.666666666667,4,2,11,67,0,0
26389,-57.1428571428571,4,2,11,67,0,0
27095,-100,4,2,11,67,0,0
27448,-80,4,2,11,67,0,0
27977,-100,4,2,11,67,0,0
28683,-66.6666666666667,4,2,11,67,0,0
29213,-100,4,2,11,67,0,0
30272,-80,4,2,11,67,0,0
32036,-100,4,2,11,67,0,0
33095,-66.6666666666667,4,2,11,67,0,0
33624,-100,4,2,11,67,0,0
34330,-66.6666666666667,4,2,11,67,0,0
37330,-66.6666666666667,4,2,11,60,0,0
37419,-66.6666666666667,4,2,11,59,0,0
37507,-66.6666666666667,4,2,11,58,0,0
37595,-66.6666666666667,4,2,11,57,0,0
37683,-66.6666666666667,4,2,11,56,0,0
37772,-66.6666666666667,4,2,11,55,0,0
37860,-100,4,2,11,54,0,0
37948,-100,4,2,11,53,0,0
38036,-100,4,2,11,52,0,0
38389,-100,4,2,11,50,0,0
38477,-100,4,2,11,52,0,0
38566,-100,4,2,11,54,0,0
38654,-100,4,2,11,56,0,0
38742,-66.6666666666667,4,2,20,46,0,0
39624,-100,4,2,20,46,0,0
47213,-55.5555555555556,4,2,20,46,0,0
49507,-55.5555555555556,4,2,11,46,0,0
50036,-80,4,2,21,55,0,0
54272,-66.6666666666667,4,2,21,55,0,0
54977,-55.5555555555556,4,2,21,55,0,0
55683,-80,4,2,21,55,0,0
56742,-45.4545454545455,4,2,21,55,0,1
57095,-80,4,2,21,55,0,0
58154,-45.4545454545455,4,2,21,55,0,1
58507,-80,4,2,21,55,0,0
59742,-55.5555555555556,4,2,21,55,0,0
60977,-55.5555555555556,4,2,21,53,0,0
61330,-100,4,2,20,50,0,0
62566,-66.6666666666667,4,2,20,50,0,0
63801,-55.5555555555556,4,2,20,50,0,0
64154,-100,4,2,20,50,0,0
65389,-66.6666666666667,4,2,20,50,0,0
66977,-83.3333333333333,4,2,21,57,0,0
69448,-74.0740740740741,4,2,21,57,0,0
69801,-100,4,2,21,57,0,0
71213,-66.6666666666667,4,2,21,57,0,0
72624,-83.3333333333333,4,2,21,57,0,0
75448,-66.6666666666667,4,2,21,57,0,0
78977,-40,4,2,21,57,0,0
79154,-45.4545454545455,4,2,21,57,0,0
79330,-52.6315789473684,4,2,21,57,0,0
79507,-62.5,4,2,21,57,0,0
80389,-45.4545454545455,4,2,21,60,0,0
80477,-45.4545454545455,4,2,21,61,0,0
80566,-45.4545454545455,4,2,21,62,0,0
80654,-45.4545454545455,4,2,21,63,0,0
80742,-45.4545454545455,4,2,21,64,0,0
80830,-45.4545454545455,4,2,21,65,0,0
80919,-100,4,2,30,80,0,0
81448,-40,4,2,30,80,0,1
81801,-66.6666666666667,4,2,30,80,0,1
82860,-50,4,2,30,80,0,1
83213,-66.6666666666667,4,2,30,80,0,1
86389,-40,4,2,30,80,0,1
86742,-66.6666666666667,4,2,30,80,0,1
87801,-100,4,2,30,80,0,1
88154,-66.6666666666667,4,2,30,80,0,1
89213,-100,4,2,30,80,0,1
89566,-66.6666666666667,4,2,30,80,0,1
91154,-66.6666666666667,4,2,30,79,0,1
91242,-66.6666666666667,4,2,30,78,0,1
91330,-66.6666666666667,4,2,30,77,0,1
91419,-66.6666666666667,4,2,30,76,0,1
91507,-66.6666666666667,4,2,30,75,0,1
91595,-66.6666666666667,4,2,30,74,0,1
91683,-50,4,2,30,73,0,1
92213,-100,4,2,30,80,0,1
92742,-40,4,2,30,80,0,1
93095,-66.6666666666667,4,2,30,80,0,1
94154,-50,4,2,30,80,0,1
94507,-66.6666666666667,4,2,30,80,0,1
98036,-100,4,2,30,80,0,1
98389,-100,4,2,30,80,0,0
102448,-66.6666666666667,4,2,30,80,0,0
102624,-50,4,2,30,80,0,0
103683,-66.6666666666667,4,2,30,80,0,0
105095,-100,4,2,30,80,0,0
105448,-66.6666666666667,4,2,30,80,0,0
108624,-66.6666666666667,4,2,30,75,0,0
108713,-66.6666666666667,4,2,30,74,0,0
108801,-66.6666666666667,4,2,30,73,0,0
108889,-66.6666666666667,4,2,30,72,0,0
108977,-100,4,2,30,71,0,0
109066,-100,4,2,30,70,0,0
109154,-100,4,2,30,69,0,0
109242,-100,4,2,30,68,0,0
109330,-40,4,2,11,67,0,0
109683,-66.6666666666667,4,2,11,67,0,0
120624,-66.6666666666667,4,2,11,60,0,0
120713,-66.6666666666667,4,2,11,59,0,0
120801,-66.6666666666667,4,2,11,58,0,0
120889,-66.6666666666667,4,2,11,57,0,0
120977,-66.6666666666667,4,2,11,56,0,0
121066,-66.6666666666667,4,2,11,55,0,0
121154,-66.6666666666667,4,2,11,54,0,0
121242,-66.6666666666667,4,2,11,53,0,0
121330,-100,4,2,11,52,0,0
121683,-100,4,2,11,50,0,0
121772,-100,4,2,11,52,0,0
121860,-100,4,2,11,54,0,0
121948,-100,4,2,11,56,0,0
122036,-100,4,2,12,40,0,0
127683,-80,4,2,20,46,0,0
130860,-66.6666666666667,4,2,20,46,0,0
132801,-66.6666666666667,4,2,11,46,0,0
133330,-66.6666666666667,4,2,21,55,0,0
140036,-50,4,2,21,55,0,1
140389,-66.6666666666667,4,2,21,55,0,0
141448,-50,4,2,21,55,0,1
141801,-50,4,2,21,55,0,0
142860,-66.6666666666667,4,2,21,55,0,0
144272,-66.6666666666667,4,2,21,53,0,0
144624,-66.6666666666667,4,2,20,50,0,0
166507,-45.4545454545455,4,2,21,60,0,0
166595,-45.4545454545455,4,2,21,61,0,0
166683,-45.4545454545455,4,2,21,62,0,0
166772,-45.4545454545455,4,2,21,63,0,0
166860,-45.4545454545455,4,2,21,64,0,0
166948,-45.4545454545455,4,2,21,65,0,0
167036,-80,4,2,30,80,0,1
167566,-40,4,2,30,80,0,1
168095,-55.5555555555556,4,2,30,80,0,1
170389,-66.6666666666667,4,2,30,80,0,1
170919,-55.5555555555556,4,2,30,80,0,1
172860,-133.333333333333,4,2,30,80,0,1
173213,-66.6666666666667,4,2,30,80,0,1
173919,-100,4,2,30,80,0,1
174272,-66.6666666666667,4,2,30,80,0,1
177272,-66.6666666666667,4,2,30,79,0,1
177360,-66.6666666666667,4,2,30,78,0,1
177448,-66.6666666666667,4,2,30,77,0,1
177536,-66.6666666666667,4,2,30,76,0,1
177624,-66.6666666666667,4,2,30,75,0,1
177713,-66.6666666666667,4,2,30,74,0,1
177801,-50,4,2,30,73,0,1
178330,-100,4,2,30,80,0,1
178860,-40,4,2,30,80,0,1
179389,-55.5555555555556,4,2,30,80,0,1
181154,-66.6666666666667,4,2,30,80,0,1
182566,-55.5555555555556,4,2,30,80,0,1
184154,-100,4,2,30,80,0,0
186624,-66.6666666666667,4,2,30,80,0,0
186977,-100,4,2,30,80,0,0
188566,-66.6666666666667,4,2,30,80,0,0
188742,-50,4,2,30,80,0,0
188919,-40,4,2,30,80,0,0
189801,-66.6666666666667,4,2,30,80,0,0
190154,-100,4,2,30,80,0,0
190860,-83.3333333333333,4,2,30,80,0,0
191213,-66.6666666666667,4,2,30,80,0,0
192624,-66.6666666666667,4,2,30,80,0,1
194389,-66.6666666666667,4,2,30,80,0,0
194742,-66.6666666666667,4,2,30,75,0,0
194830,-66.6666666666667,4,2,30,74,0,0
194919,-66.6666666666667,4,2,30,73,0,0
195007,-66.6666666666667,4,2,30,72,0,0
195095,-66.6666666666667,4,2,30,71,0,0
195183,-66.6666666666667,4,2,30,70,0,0
195272,-66.6666666666667,4,2,30,69,0,0
195360,-66.6666666666667,4,2,30,68,0,0
195448,-100,4,2,11,67,0,0
195977,-66.6666666666667,4,2,11,67,0,0
196507,-50,4,2,11,67,0,0
197036,-100,4,2,11,67,0,0
198272,-100,4,2,11,67,0,0
198801,-66.6666666666667,4,2,11,67,0,0
199330,-50,4,2,11,67,0,0
201095,-100,4,2,11,67,0,0
201624,-66.6666666666667,4,2,11,67,0,0
202154,-50,4,2,11,67,0,0
202683,-100,4,2,11,67,0,0
204448,-66.6666666666667,4,2,11,67,0,0
206566,-100,4,2,11,67,0,0
206919,-40,4,2,11,67,0,1
207448,-66.6666666666667,4,2,11,67,0,0
209389,-50,4,2,11,67,0,0
209919,-66.6666666666667,4,2,11,67,0,0
210801,-50,4,2,11,67,0,0
211330,-66.6666666666667,4,2,11,67,0,0
212213,-50,4,2,11,67,0,0
212742,-66.6666666666667,4,2,11,67,0,0
213624,-50,4,2,11,67,0,0
213977,-66.6666666666667,4,2,11,67,0,0
215036,-50,4,2,11,67,0,0
215389,-66.6666666666667,4,2,11,67,0,0
217154,-50,4,2,11,67,0,0
217330,-50,4,2,11,70,0,0
217419,-50,4,2,11,69,0,0
217507,-50,4,2,11,68,0,0
217595,-50,4,2,11,67,0,0
217683,-50,4,2,11,66,0,0
217772,-50,4,2,11,65,0,0
217860,-50,4,2,11,64,0,0
217948,-50,4,2,11,63,0,0
218036,-50,4,2,11,65,0,0
221919,-66.6666666666667,4,2,11,65,0,0
222272,-50,4,2,11,65,0,0
223330,-40,4,2,11,65,0,0
223683,-66.6666666666667,4,2,11,65,0,0
232330,-50,4,2,11,65,0,0
232507,-40,4,2,11,65,0,0
233742,-66.6666666666667,4,2,11,65,0,0
234272,-66.6666666666667,4,2,11,32,0,0
234360,-66.6666666666667,4,2,11,33,0,0
234448,-66.6666666666667,4,2,11,34,0,0
234536,-66.6666666666667,4,2,11,35,0,0
234624,-66.6666666666667,4,2,11,36,0,0
234713,-66.6666666666667,4,2,11,37,0,0
234801,-133.333333333333,4,2,11,38,0,0
234889,-133.333333333333,4,2,11,39,0,0
234977,-133.333333333333,4,2,12,40,0,0
240624,-100,4,2,11,50,0,0
240801,-100,4,2,11,51,0,0
240977,-100,4,2,11,52,0,0
241154,-100,4,2,11,53,0,0
241330,-100,4,2,11,54,0,0
241507,-100,4,2,11,55,0,0
241683,-100,4,2,11,56,0,0
241860,-100,4,2,11,57,0,0
242036,-100,4,2,11,58,0,0
242213,-100,4,2,11,59,0,0
242389,-100,4,2,11,60,0,0
242566,-100,4,2,11,61,0,0
242742,-100,4,2,11,62,0,0
242919,-100,4,2,11,63,0,0
243095,-100,4,2,11,64,0,0
243272,-100,4,2,11,65,0,0
243448,-100,4,2,11,30,0,0
244860,-50,4,2,30,80,0,0
244948,-50,4,2,30,79,0,0
245036,-50,4,2,30,78,0,0
245124,-50,4,2,30,77,0,0
245213,-50,4,2,30,76,0,0
245301,-50,4,2,30,75,0,0
245389,-50,4,2,30,74,0,0
245477,-50,4,2,30,73,0,0
245566,-50,4,2,30,72,0,0
246095,-100,4,2,30,80,0,0
246624,-40,4,2,30,80,0,1
246977,-55.5555555555556,4,2,30,80,0,1
251919,-100,4,2,30,80,0,1
252272,-100,4,2,30,80,0,0
254389,-66.6666666666667,4,2,30,80,0,0
254742,-100,4,2,30,80,0,0
256330,-66.6666666666667,4,2,30,80,0,0
256507,-50,4,2,30,80,0,0
256683,-40,4,2,30,80,0,0
257566,-66.6666666666667,4,2,30,80,0,0
257919,-100,4,2,30,80,0,0
258977,-66.6666666666667,4,2,30,80,0,0
259507,-100,4,2,30,80,0,0
260036,-66.6666666666667,4,2,30,80,0,0
260389,-100,4,2,30,80,0,0
261977,-66.6666666666667,4,2,30,80,0,0
262154,-50,4,2,30,80,0,0
262330,-40,4,2,30,80,0,0
262507,-50,4,2,30,80,0,0
263213,-66.6666666666667,4,2,30,80,0,0
265330,-133.333333333333,4,2,30,80,0,0
266036,-133.333333333333,4,2,30,80,0,1
268860,-133.333333333333,4,2,30,80,0,0
270095,-133.333333333333,4,2,30,40,0,0
271683,-133.333333333333,4,2,16,35,0,0
278742,-117.647058823529,4,2,16,35,0,0
281566,-200,4,2,16,35,0,0
282095,-200,4,2,12,40,0,0
282272,-50,4,2,10,60,0,0
282360,-50,4,2,10,59,0,0
282448,-50,4,2,10,58,0,0
282536,-50,4,2,10,57,0,0
282624,-76.9230769230769,4,2,10,56,0,0
282713,-76.9230769230769,4,2,10,55,0,0
282801,-76.9230769230769,4,2,10,54,0,0
282889,-76.9230769230769,4,2,10,53,0,0
282977,-40,4,2,11,70,0,0
283330,-66.6666666666667,4,2,11,70,0,0
288977,-66.6666666666667,4,2,11,70,0,0
294095,-100,4,2,30,70,0,0
294448,-40,4,2,30,70,0,0
294624,-40,4,2,30,70,0,1
294977,-66.6666666666667,4,2,30,70,0,1
299213,-50,4,2,30,70,0,1
300272,-66.6666666666667,4,2,30,70,0,1
302566,-50,4,2,30,70,0,1
302919,-66.6666666666667,4,2,30,70,0,1
304683,-50,4,2,30,70,0,1
305566,-50,4,2,11,70,0,1
308213,-133.333333333333,4,2,11,70,0,1
309448,-40,4,2,11,70,0,1
309624,-25,4,2,11,70,0,1
309801,-25,4,2,11,70,0,0

[Colours]
Combo1 : 255,255,187
Combo2 : 255,187,187
Combo3 : 202,169,209
Combo4 : 162,208,255

[HitObjects]
32,228,625,21,2,0:0:0:0:
108,253,801,1,2,0:0:0:0:
93,174,977,1,2,0:0:0:0:
73,377,1154,22,0,P|66:336|45:301,1,63.7500024318696,2|0,0:0|0:0,0:0:0:0:
217,188,1507,2,0,P|198:226|195:273,1,63.7500024318696,2|0,0:0|0:0,0:0:0:0:
92,49,1860,1,0,0:0:0:0:
92,49,1948,1,0,0:0:0:0:
92,49,2036,22,0,B|65:113|122:109|84:195,1,127.500004863739,2|0,0:0|0:0,0:0:0:0:
299,0,2566,1,2,0:0:0:0:
165,25,2742,22,0,P|198:1|245:9,1,63.7500024318696,2|0,0:0|0:0,0:0:0:0:
260,70,3007,1,2,0:0:0:0:
260,70,3095,2,0,P|287:90|297:126,1,63.7500024318696,0|2,0:0|0:0,0:0:0:0:
405,78,3448,21,2,0:0:0:0:
468,28,3624,1,2,0:0:0:0:
397,0,3801,1,2,0:0:0:0:
512,159,3977,22,0,L|446:151,1,63.7500024318696,2|0,0:0|0:0,0:0:0:0:
322,299,4330,1,0,0:0:0:0:
279,226,4507,2,0,L|342:218,1,63.7500024318696,2|0,0:0|0:0,0:0:0:0:
503,311,4860,22,0,B|428:304|461:367|361:354,1,127.500004863739,2|0,0:0|0:0,0:0:0:0:
232,285,5389,1,2,0:0:0:0:
232,285,5477,1,2,0:0:0:0:
232,285,5566,2,0,P|251:321|254:385,2,95.6250036478044,2|2|2,0:0|0:0|0:0,0:0:0:0:
307,247,6272,21,2,0:3:0:0:
388,355,6624,2,0,P|340:329|316:336,1,72.2500013780594,0|0,3:3|0:0,0:0:0:0:
210,184,6977,2,0,P|211:238|229:255,1,72.2500013780594,0|0,3:3|0:0,0:0:0:0:
277,135,7330,1,0,3:3:0:0:
158,297,7507,1,0,3:3:0:0:
158,297,7595,1,0,3:3:0:0:
158,297,7683,22,0,P|78:278|6:274,1,144.500002756119,0|2,3:3|3:3,0:0:0:0:
294,262,8213,1,0,0:0:0:0:
224,384,8389,2,0,P|228:329|239:294,1,72.2500013780594,0|0,3:3|3:3,0:0:0:0:
369,240,8742,2,0,P|365:185|354:150,1,72.2500013780594,0|0,3:3|0:0,0:0:0:0:
291,83,9095,22,0,P|218:84|259:121,1,144.500002756119,0|2,3:0|3:0,0:0:0:0:
353,6,9624,1,0,0:0:0:0:
416,60,9801,2,0,P|424:105|429:142,1,72.2500013780594,0|0,3:0|0:0,0:0:0:0:
291,83,10066,1,0,3:0:0:0:
282,71,10154,2,0,P|274:26|269:-11,1,72.2500013780594,0|0,3:0|3:0,0:0:0:0:
479,8,10507,21,0,3:0:0:0:
430,150,10683,2,0,L|355:144,1,72.2500013780594,0|2,3:0|3:0,0:0:0:0:
282,71,11036,21,0,0:0:0:0:
391,221,11213,2,0,L|385:296,1,72.2500013780594,0|0,3:0|0:0,0:0:0:0:
194,364,11566,21,0,3:0:0:0:
313,213,11742,1,2,0:3:0:0:
313,213,11830,1,2,0:3:0:0:
313,213,11919,2,0,L|248:204,15,36.1250006890297,4|0|0|0|0|0|0|0|0|0|0|0|0|0|0|0,0:0|0:0|0:0|0:0|0:0|0:0|0:0|0:0|0:0|0:0|0:0|0:0|0:0|0:0|0:0|0:0,0:0:0:0:
209,246,13330,21,0,0:0:0:0:
164,268,13419,1,0,0:0:0:0:
122,249,13507,1,0,0:0:0:0:
116,216,13595,1,0,0:0:0:0:
124,185,13683,1,0,0:0:0:0:
113,161,13772,1,0,0:0:0:0:
97,154,13860,1,0,0:0:0:0:
89,153,13948,1,0,0:0:0:0:
19,193,14036,22,0,P|7:167|14:140,1,53.125,2|0,0:0|0:0,0:0:0:0:
32,24,14213,22,0,B|60:48|60:48|176:32|176:32|208:56,1,191.250007295609,2|0,0:0|0:0,0:0:0:0:
285,180,14566,22,0,B|294:225|340:228|365:224|409:180|372:126|339:118|334:118|326:117|295:109|262:61|283:15|313:-6|347:-4,1,325.125006201267,4|0,3:2|0:0,0:0:0:0:
421,56,15448,22,0,L|368:48,1,36.1250006890297,2|0,0:0|0:0,0:0:0:0:
419,66,15625,2,0,L|366:58,1,36.1250006890297,2|0,0:0|0:0,0:0:0:0:
213,151,15801,1,0,0:0:0:0:
281,270,15977,22,0,B|329:214|289:135|289:135|296:172|273:198,1,191.250007295609,4|0,3:2|0:0,0:0:0:0:
70,214,16330,1,8,0:3:0:0:
110,198,16419,1,8,0:3:0:0:
140,205,16507,1,4,0:3:0:0:
157,224,16595,1,4,0:3:0:0:
163,241,16683,1,0,3:0:0:0:
165,251,16772,1,0,3:0:0:0:
162,257,16860,22,0,P|189:228|223:223,1,63.7500024318696,2|0,0:2|0:0,0:0:0:0:
100,352,17036,2,0,P|87:316|96:279,1,63.7500024318696,2|0,3:2|0:0,0:0:0:0:
0,168,17389,22,0,B|23:154|23:154|35:44|35:44|63:28,1,159.375,4|0,3:2|0:0,0:0:0:0:
53,33,17742,1,0,0:0:0:0:
241,171,17919,2,0,B|200:153|200:153|139:195,1,85,0|0,0:0|0:0,0:0:0:0:
108,122,18272,22,0,L|117:83,1,21.25,2|0,0:0|0:0,0:0:0:0:
130,82,18448,2,0,L|139:43,1,21.25,2|0,0:0|0:0,0:0:0:0:
502,54,18801,22,0,B|491:99|491:99|417:79|417:79|407:66|407:66|332:44|332:44|312:108,1,255,4|0,3:2|0:0,0:0:0:0:
230,6,19154,21,0,1:0:0:0:
241,40,19242,1,8,0:3:0:0:
232,77,19330,1,8,0:3:0:0:
98,96,19507,1,8,0:3:0:0:
213,162,19683,22,0,P|165:178|120:157,1,85,4|4,0:3|0:3,0:0:0:0:
40,152,19948,1,4,0:3:0:0:
29,143,20036,2,0,P|14:90|48:36,1,85,0|0,1:0|0:0,0:0:0:0:
93,246,20389,22,0,B|183:231|127:181|221:159,1,152.999995330811,4|0,3:2|3:0,0:0:0:0:
282,243,20654,1,0,0:0:0:0:
273,251,20742,2,0,P|244:248|220:220,1,42.5,0|0,3:0|0:0,0:0:0:0:
241,87,20919,21,0,3:0:0:0:
268,96,21007,1,0,0:0:0:0:
280,118,21095,1,0,3:0:0:0:
354,293,21272,22,0,L|361:221,1,42.5,0|0,3:0|0:0,0:0:0:0:
368,123,21448,2,0,L|361:195,1,42.5,0|0,3:0|0:0,0:0:0:0:
344,304,21624,22,0,B|259:277|177:269|177:269|209:256,1,191.250007295609,4|0,3:2|0:0,0:0:0:0:
35,122,21977,2,0,P|44:171|53:237,1,63.7500024318696,0|0,3:0|0:0,0:0:0:0:
2,260,22154,21,0,3:0:0:0:
210,169,22330,1,0,3:0:0:0:
114,356,22507,2,0,B|89:342|89:342|112:202,1,127.500004863739,0|0,3:0|3:0,0:0:0:0:
256,68,22860,21,0,3:0:0:0:
276,287,23036,2,0,L|265:195,1,63.7500024318696,0|0,3:0|0:0,0:0:0:0:
170,93,23213,21,4,1:2:0:0:
191,15,23389,1,0,3:2:0:0:
328,181,23566,1,0,3:2:0:0:
512,85,23742,22,0,B|403:102|435:3|319:30,1,191.250007295609,4|0,1:2|0:0,0:0:0:0:
338,30,24095,2,0,P|323:60|332:110,1,63.7500024318696,0|0,3:2|0:0,0:0:0:0:
395,133,24272,21,4,1:2:0:0:
494,2,24448,1,0,3:2:0:0:
404,214,24625,1,0,3:2:0:0:
179,196,24801,22,0,B|220:121|320:116|320:116|309:183,1,223.125002127886,4|0,1:2|0:0,0:0:0:0:
270,273,25154,2,0,L|254:203,2,53.125,0|0|0,3:0|3:0|1:0,0:0:0:0:
141,112,25507,2,0,P|100:79|34:102,1,106.25,0|0,1:0|1:0,0:0:0:0:
264,84,25860,22,0,P|301:78|328:28,1,76.4999976654053,4|0,3:2|0:0,0:0:0:0:
322,43,26213,2,0,L|314:6,1,25.4999992218018,0|0,3:0|3:0,0:0:0:0:
451,101,26389,22,0,B|466:63|466:63|374:92|395:241,1,223.125002127886,8|0,1:0|0:0,0:0:0:0:
399,224,26742,1,0,3:0:0:0:
278,334,26919,1,0,3:0:0:0:
204,300,27095,2,0,P|187:257|215:188,1,85,0|0,1:0|0:0,0:0:0:0:
450,286,27448,22,0,P|388:256|287:256,1,159.375,0|0,3:0|0:0,0:0:0:0:
293,261,27801,1,0,1:0:0:0:
143,161,27977,2,0,P|187:141|227:153,1,85,0|0,3:0|0:0,0:0:0:0:
54,253,28330,2,0,P|53:194|93:155,1,85,0|0,3:0|1:0,0:0:0:0:
193,366,28683,22,0,P|225:291|135:298,1,191.250007295609,4|0,3:2|0:0,0:0:0:0:
143,296,29036,1,0,3:0:0:0:
370,351,29213,2,0,P|391:314|379:267,1,85,0|0,1:0|0:0,0:0:0:0:
215,139,29566,2,0,P|236:175|283:188,1,85,0|0,3:0|3:0,0:0:0:0:
430,154,29919,1,0,1:0:0:0:
291,32,30095,1,0,0:0:0:0:
378,18,30272,22,0,P|360:104|347:202,1,159.375,0|0,3:0|0:0,0:0:0:0:
353,184,30624,1,0,1:0:0:0:
485,257,30801,21,0,1:0:0:0:
490,289,30889,1,0,1:0:0:0:
479,317,30977,1,0,1:0:0:0:
281,384,31154,1,0,1:0:0:0:
120,256,31330,1,0,1:0:0:0:
256,307,31507,22,0,P|179:333|97:348,1,159.375,4|0,3:2|0:0,0:0:0:0:
102,347,31860,1,0,3:0:0:0:
323,260,32036,2,0,P|372:273|401:314,1,85,0|0,1:0|0:0,0:0:0:0:
195,190,32389,2,0,P|176:145|202:95,1,85,0|0,3:0|3:0,0:0:0:0:
249,61,32742,1,0,1:0:0:0:
323,260,32919,1,0,0:0:0:0:
257,322,33095,22,0,P|168:294|47:276,1,191.250007295609,0|0,3:0|0:0,0:0:0:0:
62,285,33448,1,0,1:0:0:0:
335,371,33624,1,0,3:0:0:0:
335,371,33713,1,0,3:0:0:0:
335,371,33801,2,0,P|412:363|443:357,1,85,0|0,3:0|3:0,0:0:0:0:
469,297,34154,1,0,1:0:0:0:
401,146,34330,22,0,P|302:120|170:104,1,191.250007295609,4|0,1:2|0:0,0:0:0:0:
207,111,34683,1,0,3:0:0:0:
188,22,34860,1,0,3:0:0:0:
99,40,35036,1,4,1:2:0:0:
95,51,35124,1,0,0:0:0:0:
91,61,35213,1,0,0:0:0:0:
235,249,35389,21,0,3:0:0:0:
479,182,35566,1,0,3:0:0:0:
341,335,35742,1,4,1:2:0:0:
337,324,35830,1,0,0:0:0:0:
333,314,35919,1,0,0:0:0:0:
365,226,36095,21,0,3:0:0:0:
114,143,36272,1,0,3:0:0:0:
0,348,36448,1,12,1:1:0:0:
0,348,37330,21,2,0:0:0:0:
25,335,37419,1,2,0:0:0:0:
42,313,37507,1,2,0:0:0:0:
47,286,37595,1,2,0:0:0:0:
59,311,37684,1,2,0:0:0:0:
81,328,37772,1,2,0:0:0:0:
108,333,37860,1,2,0:0:0:0:
127,326,37948,1,2,0:0:0:0:
133,315,38036,22,0,P|124:273|103:254,3,42.5,2|0|0|0,0:0|0:0|0:0|0:0,0:0:0:0:
151,204,38389,2,0,P|115:180|90:183,3,42.5,2|2|2|2,0:0|0:0|0:0|0:0,0:0:0:0:
19,148,38742,6,0,B|76:127|84:46|84:46|120:113|188:108,1,255.000009727478,4|0,3:2|3:0,0:0:0:0:
372,300,39448,37,0,3:0:0:0:
280,329,39624,1,0,0:0:0:0:
206,255,39801,1,0,3:0:0:0:
69,369,39977,6,0,B|76:306|135:302|135:302|161:337|201:335,1,170,0|0,0:0|0:0,0:0:0:0:
282,202,40507,2,0,P|211:211|215:269,1,127.5,0|2,3:0|0:3,0:0:0:0:
206,255,40860,37,0,3:0:0:0:
280,329,41036,1,2,0:0:0:0:
373,299,41213,2,0,P|391:252|374:203,1,85,0|0,3:0|0:0,0:0:0:0:
406,104,41566,6,0,P|361:190|298:154,1,170,0|0,3:0|3:0,0:0:0:0:
238,111,42095,2,0,L|153:118,1,85,2|0,0:3|3:0,0:0:0:0:
35,192,42448,1,0,0:0:0:0:
61,8,42624,2,0,L|70:92,1,85,0|0,3:0|0:0,0:0:0:0:
55,295,42977,38,0,P|87:258|142:272,1,85,0|0,3:0|0:0,0:0:0:0:
328,143,43330,5,0,3:0:0:0:
426,124,43507,1,0,0:0:0:0:
412,274,43683,37,0,3:0:0:0:
279,359,43860,1,2,0:3:0:0:
121,258,44036,5,0,3:0:0:0:
211,280,44213,1,0,0:0:0:0:
328,143,44389,37,0,3:0:0:0:
328,143,44742,6,0,L|335:48,1,85,0|2,3:0|0:3,0:0:0:0:
277,1,45095,37,0,3:0:0:0:
206,62,45272,1,0,0:0:0:0:
116,32,45448,1,0,3:0:0:0:
0,154,45624,6,0,P|94:138|180:135,1,170,0|0,0:0|0:0,0:0:0:0:
291,85,46154,2,0,P|269:135|283:177,1,85,0|0,3:0|0:0,0:0:0:0:
290,170,46419,1,0,0:0:0:0:
306,174,46507,38,0,L|300:212,6,21.25,0|0|0|0|0|0|0,3:0|0:0|0:0|0:0|0:0|0:0|0:0,0:0:0:0:
389,255,46860,6,0,L|347:260,1,42.5,0|0,3:0|0:0,0:0:0:0:
270,270,47036,2,0,L|228:275,1,42.5,0|0,0:0|0:0,0:0:0:0:
155,248,47213,38,0,P|201:200|257:216,1,76.4999976654053,0|0,3:0|0:0,0:0:0:0:
43,116,47389,2,0,P|78:126|93:160,1,76.4999976654053,0|0,3:0|0:0,0:0:0:0:
121,317,47566,2,0,P|124:209|161:73,1,229.499992996216,4|0,1:2|0:0,0:0:0:0:
441,79,47919,6,0,B|406:95|406:95|363:77,1,76.4999976654053,0|0,3:0|0:0,0:0:0:0:
227,54,48095,2,0,B|261:37|261:37|304:55,1,76.4999976654053,0|0,3:0|0:0,0:0:0:0:
365,0,48272,2,0,P|330:65|345:190,1,152.999995330811,4|0,1:2|3:0,0:0:0:0:
375,233,48536,1,0,3:0:0:0:
385,206,48624,38,0,P|349:225|312:225,1,76.4999976654053,4|0,3:2|0:0,0:0:0:0:
146,268,48801,1,0,3:0:0:0:
161,284,48889,1,0,0:0:0:0:
176,300,48977,6,0,L|195:171,1,76.4999976654053,0|0,3:0|0:0,0:0:0:0:
72,5,49154,2,0,L|83:80,1,76.4999976654053,0|0,1:0|0:0,0:0:0:0:
6,136,49331,37,0,3:0:0:0:
36,162,49419,1,0,0:0:0:0:
83,172,49507,1,0,3:0:0:0:
139,152,49595,1,0,3:0:0:0:
179,92,49684,1,0,1:0:0:0:
220,27,49772,1,0,1:0:0:0:
298,13,49860,1,0,1:0:0:0:
371,66,49948,1,0,1:0:0:0:
466,51,50036,6,0,P|442:133|447:190,1,106.25,4|0,3:2|0:0,0:0:0:0:
510,305,50389,2,0,P|461:254|414:290,1,106.25,0|0,1:0|0:0,0:0:0:0:
328,361,50742,37,0,3:0:0:0:
256,288,50919,1,0,3:0:0:0:
295,193,51095,1,0,1:0:0:0:
449,59,51272,6,0,P|411:98|338:69,1,106.25,0|0,0:0|3:0,0:0:0:0:
202,34,51624,1,0,0:0:0:0:
318,22,51801,2,0,P|282:66|288:121,1,106.25,0|0,1:0|0:0,0:0:0:0:
63,72,52154,37,0,3:0:0:0:
63,72,52330,1,0,3:0:0:0:
91,266,52507,2,0,L|72:125,1,106.25,0|0,1:0|0:0,0:0:0:0:
249,286,52860,6,0,B|291:264|343:286|306:305|356:326|397:309,1,159.375,0|0,3:0|0:0,0:0:0:0:
456,257,53213,1,0,1:0:0:0:
390,128,53389,2,0,L|377:271,1,106.25,0|0,0:0|3:0,0:0:0:0:
317,80,53742,1,0,3:0:0:0:
447,37,53919,2,0,P|405:86|307:72,1,159.375,0|0,1:0|0:0,0:0:0:0:
229,33,54272,38,0,L|223:96,1,63.7500024318696,0|0,3:0|0:0,0:0:0:0:
39,113,54448,2,0,L|25:50,1,63.7500024318696,0|0,0:0|0:0,0:0:0:0:
148,10,54624,5,0,1:0:0:0:
124,53,54713,1,0,0:0:0:0:
125,94,54801,1,8,0:3:0:0:
135,123,54889,1,8,0:3:0:0:
149,137,54977,38,0,P|269:123|353:219,2,229.499992996216,8|8|4,3:0|0:3|0:3,0:0:0:0:
39,116,55683,6,0,L|56:253,1,106.25,0|0,3:0|0:0,0:0:0:0:
33,361,56036,1,0,1:0:0:0:
33,361,56213,2,0,P|87:314|137:349,1,106.25,0|0,0:0|3:0,0:0:0:0:
210,367,56566,37,0,3:0:0:0:
226,356,56654,1,0,0:0:0:0:
242,345,56742,2,0,B|162:295|175:177|261:155|324:225|265:281,1,280.500008560181,4|0,1:2|0:0,0:0:0:0:
354,299,57095,6,0,B|401:325|401:325|474:301,1,106.25,0|0,3:0|0:0,0:0:0:0:
417,129,57448,1,0,1:0:0:0:
417,129,57624,2,0,L|406:265,1,106.25,0|0,0:0|3:0,0:0:0:0:
405,43,57977,37,0,3:0:0:0:
408,23,58066,1,0,0:0:0:0:
410,3,58154,2,0,B|344:36|328:110|328:110|297:41|223:25,1,280.500008560181,2|0,1:2|0:0,0:0:0:0:
225,125,58507,6,0,P|180:157|107:136,1,106.25,4|0,3:2|0:0,0:0:0:0:
26,0,58860,1,0,1:0:0:0:
158,73,59036,1,0,1:0:0:0:
158,73,59124,1,0,1:0:0:0:
158,73,59212,1,0,1:0:0:0:
58,225,59389,37,8,0:3:0:0:
31,315,59566,1,4,0:3:0:0:
102,374,59742,6,0,P|200:341|336:367,1,229.499992996216,4|0,3:2|0:0,0:0:0:0:
322,360,60095,37,0,3:0:0:0:
382,42,60272,1,0,3:0:0:0:
439,257,60448,5,0,3:0:0:0:
435,245,60536,1,0,3:0:0:0:
459,205,60624,37,4,3:2:0:0:
393,243,60713,1,0,0:0:0:0:
318,230,60801,1,8,0:3:0:0:
268,172,60889,1,0,0:0:0:0:
272,153,60977,5,8,0:3:0:0:
221,135,61066,1,0,0:0:0:0:
171,154,61154,1,0,0:0:0:0:
144,201,61242,1,0,0:0:0:0:
130,216,61330,38,0,P|120:101|108:30,1,170,0|0,3:0|0:0,0:0:0:0:
111,47,61860,1,0,3:0:0:0:
201,14,62036,5,0,3:0:0:0:
272,75,62213,1,0,0:0:0:0:
362,45,62389,1,0,1:0:0:0:
501,280,62566,38,0,P|487:218|487:141,1,127.500004863739,0|0,3:0|0:0,0:0:0:0:
275,295,62919,2,0,P|273:231|259:169,1,127.500004863739,0|0,3:0|0:0,0:0:0:0:
365,364,63272,5,0,3:0:0:0:
387,181,63448,1,0,1:0:0:0:
379,266,63624,37,0,3:0:0:0:
377,273,63713,1,0,3:0:0:0:
375,280,63801,2,0,P|272:236|157:274,1,229.499992996216,0|0,1:0|0:0,0:0:0:0:
158,276,64154,6,0,P|103:221|137:129,1,170,0|0,3:0|0:0,0:0:0:0:
124,139,64683,1,0,3:0:0:0:
225,161,64860,37,0,3:0:0:0:
286,90,65037,1,0,0:0:0:0:
256,0,65213,1,0,1:0:0:0:
473,292,65389,6,0,P|400:273|328:277,1,127.500004863739,0|0,3:0|0:0,0:0:0:0:
500,71,65742,2,0,P|436:70|375:52,1,127.500004863739,0|0,3:0|0:0,0:0:0:0:
101,181,66095,37,0,3:0:0:0:
280,152,66272,1,0,1:0:0:0:
219,51,66448,5,0,3:0:0:0:
189,118,66536,1,0,3:0:0:0:
182,177,66624,1,0,1:0:0:0:
186,228,66713,1,0,1:0:0:0:
194,268,66801,1,0,1:0:0:0:
204,296,66889,1,0,1:0:0:0:
215,313,66977,38,0,P|277:276|354:331,1,152.999995330811,4|0,3:2|0:0,0:0:0:0:
419,337,67330,2,0,P|423:277|444:216,1,101.999996887207,0|0,1:0|0:0,0:0:0:0:
512,182,67595,1,0,1:0:0:0:
507,197,67683,5,0,3:0:0:0:
359,126,67860,1,0,3:0:0:0:
457,35,68036,2,0,L|441:177,1,101.999996887207,0|0,1:0|0:0,0:0:0:0:
363,235,68389,38,0,P|313:281|256:262,1,101.999996887207,0|0,3:0|0:0,0:0:0:0:
104,256,68742,1,0,1:0:0:0:
203,210,68919,2,0,L|191:327,1,101.999996887207,0|0,3:0|0:0,0:0:0:0:
113,154,69272,5,0,3:0:0:0:
34,12,69448,2,0,P|96:73|162:18,1,172.125000656605,0|0,1:0|0:0,0:0:0:0:
156,25,69801,38,0,P|220:13|260:58,1,127.5,4|0,3:2|0:0,0:0:0:0:
272,64,70154,6,0,P|350:58|392:49,1,85,0|0,1:0|0:0,0:0:0:0:
453,57,70419,1,0,1:0:0:0:
448,76,70507,37,0,3:0:0:0:
502,172,70683,1,0,3:0:0:0:
417,242,70860,1,0,1:0:0:0:
460,343,71036,1,0,3:0:0:0:
342,384,71213,6,0,L|322:150,1,191.250007295609,0|0,1:0|0:0,0:0:0:0:
348,92,71566,1,0,3:0:0:0:
302,0,71742,1,0,1:0:0:0:
101,154,71919,37,8,0:3:0:0:
130,120,72007,1,8,0:3:0:0:
172,104,72095,1,4,0:3:0:0:
216,110,72184,1,4,0:3:0:0:
253,135,72272,2,0,L|260:58,1,63.7500024318696,0|0,1:0|0:0,0:0:0:0:
184,197,72448,5,4,0:3:0:0:
180,209,72536,1,8,0:3:0:0:
176,221,72624,38,0,L|188:381,1,152.999995330811,0|0,3:0|0:0,0:0:0:0:
265,384,72977,2,0,P|324:347|379:372,1,101.999996887207,0|0,1:0|3:0,0:0:0:0:
426,319,73242,1,0,3:0:0:0:
416,306,73330,2,0,L|429:185,1,101.999996887207,0|0,3:0|3:0,0:0:0:0:
504,81,73683,2,0,P|454:42|444:118,1,152.999995330811,0|0,1:0|0:0,0:0:0:0:
431,120,74036,6,0,P|355:105|268:107,1,152.999995330811,0|0,3:0|0:0,0:0:0:0:
274,115,74389,1,0,1:0:0:0:
153,47,74566,2,0,P|163:96|169:147,1,101.999996887207,0|0,3:0|0:0,0:0:0:0:
137,277,74919,1,0,3:0:0:0:
133,267,75007,1,0,0:0:0:0:
129,256,75095,2,0,P|200:190|246:226,1,152.999995330811,4|0,1:2|0:0,0:0:0:0:
236,226,75448,38,0,L|387:215,1,127.500004863739,4|0,3:2|0:0,0:0:0:0:
427,321,75801,5,0,1:0:0:0:
451,238,75977,1,0,3:0:0:0:
363,85,76154,37,0,1:0:0:0:
483,56,76330,1,0,3:0:0:0:
273,25,76507,5,0,1:0:0:0:
130,0,76683,1,0,3:0:0:0:
0,142,76860,38,0,P|60:207|115:185,1,127.500004863739,4|0,3:2|0:0,0:0:0:0:
269,216,77213,1,0,1:0:0:0:
186,263,77389,2,0,P|176:198|211:136,1,127.500004863739,0|0,3:0|1:0,0:0:0:0:
368,334,77742,5,0,3:0:0:0:
371,321,77830,1,0,0:0:0:0:
374,308,77919,1,0,1:0:0:0:
343,8,78095,1,0,3:0:0:0:
145,59,78272,37,4,3:2:0:0:
269,216,78448,1,0,1:0:0:0:
487,163,78624,1,0,1:0:0:0:
386,329,78801,5,8,0:3:0:0:
380,318,78889,1,0,0:0:0:0:
374,308,78977,38,0,P|295:335|260:408,1,106.25,0|0,1:0|0:0,0:0:0:0:
264,126,79154,6,0,P|266:209|324:265,1,93.5000028533936,8|0,0:3|0:0,0:0:0:0:
67,148,79330,38,0,P|137:184|203:167,1,80.7499978437424,4|0,0:3|0:0,0:0:0:0:
25,360,79507,6,0,P|60:319|64:266,1,68,4|0,3:2|0:0,0:0:0:0:
143,0,79860,37,4,3:2:0:0:
182,291,80037,1,4,3:2:0:0:
265,279,80301,37,0,0:0:0:0:
265,279,80389,2,0,P|262:245|265:231,1,46.7500014266968,2|0,0:0|0:0,0:0:0:0:
241,238,80477,2,0,P|268:218|282:214,1,46.7500014266968,2|0,0:0|0:0,0:0:0:0:
265,198,80566,2,0,P|295:212|306:222,1,46.7500014266968,2|0,0:0|0:0,0:0:0:0:
312,198,80654,2,0,P|315:231|312:246,1,46.7500014266968,2|0,0:0|0:0,0:0:0:0:
335,238,80742,2,0,P|307:257|293:262,1,46.7500014266968,2|0,0:0|0:0,0:0:0:0:
312,279,80830,2,0,P|281:264|270:255,1,46.7500014266968,2|0,0:0|0:0,0:0:0:0:
289,238,80919,6,0,B|262:62|262:62|290:24,1,212.5,4|0,3:1|0:0,0:0:0:0:
401,111,81448,38,0,B|358:99|358:99|144:182|144:182|100:168,1,318.75,8|0,1:2|0:0,0:0:0:0:
93,47,81801,1,0,3:0:0:0:
387,251,81977,2,0,P|362:230|311:242,1,63.7500024318696,0|0,3:0|0:0,0:0:0:0:
308,303,82154,2,0,P|333:324|384:312,1,63.7500024318696,0|0,1:0|0:0,0:0:0:0:
503,287,82330,6,0,P|473:208|525:100,1,191.250007295609,0|0,3:0|0:0,0:0:0:0:
502,101,82683,2,0,P|481:128|468:166,1,63.7500024318696,0|0,3:0|0:0,0:0:0:0:
271,91,82860,38,0,P|312:27|410:19,1,170,0|0,1:0|0:0,0:0:0:0:
388,220,83124,1,0,3:0:0:0:
307,262,83213,2,0,L|304:175,1,63.7500024318696,0|0,3:0|0:0,0:0:0:0:
397,227,83389,2,0,L|399:290,1,63.7500024318696,0|0,3:0|0:0,0:0:0:0:
234,297,83566,1,0,1:0:0:0:
237,310,83742,6,0,P|172:265|-18:235,1,255.000009727478,4|0,3:2|3:0,0:0:0:0:
278,214,84272,1,0,1:0:0:0:
0,333,84448,1,0,0:0:0:0:
278,214,84624,2,0,P|236:200|212:187,1,63.7500024318696,0|0,3:0|0:0,0:0:0:0:
90,381,84801,2,0,P|81:337|80:310,1,63.7500024318696,0|0,3:0|0:0,0:0:0:0:
130,232,84977,1,0,1:0:0:0:
415,287,85154,38,0,P|333:296|169:370,1,255.000009727478,0|0,3:0|3:0,0:0:0:0:
450,364,85683,1,0,1:0:0:0:
293,179,85860,1,0,0:0:0:0:
285,189,85948,1,0,3:0:0:0:
274,196,86036,6,0,P|264:161|266:123,1,63.7500024318696,0|0,3:0|0:0,0:0:0:0:
357,123,86213,2,0,P|367:158|365:196,1,63.7500024318696,0|0,3:0|0:0,0:0:0:0:
187,343,86389,38,0,B|156:291|159:249|189:216|189:216|198:254|239:278,1,212.5,0|0,1:0|3:0,0:0:0:0:
416,307,86654,1,0,3:0:0:0:
424,297,86742,6,0,B|294:256|306:398|171:337,1,255.000009727478,4|0,3:2|1:2,0:0:0:0:
47,287,87272,1,0,0:0:0:0:
47,287,87448,2,0,P|35:244|36:207,1,63.7500024318696,0|0,3:2|0:0,0:0:0:0:
169,145,87624,1,0,3:2:0:0:
163,156,87713,1,0,0:0:0:0:
158,167,87801,38,0,P|96:148|38:93,1,127.5,4|0,1:2|0:0,0:0:0:0:
78,27,88154,6,0,P|173:34|219:144,1,191.250007295609,4|0,3:2|0:0,0:0:0:0:
209,114,88507,2,0,P|215:82|231:48,1,63.7500024318696,0|0,1:2|0:0,0:0:0:0:
309,341,88772,1,0,3:0:0:0:
311,353,88860,2,0,P|273:367|232:365,1,63.7500024318696,0|0,3:0|0:0,0:0:0:0:
238,280,89036,2,0,P|276:266|317:268,1,63.7500024318696,0|0,3:0|0:0,0:0:0:0:
387,384,89213,38,0,P|395:318|414:259,1,127.5,0|0,1:2|0:0,0:0:0:0:
497,184,89566,6,0,B|463:162|463:162|354:193|354:193|312:165,1,191.250007295609,4|0,3:2|0:0,0:0:0:0:
317,160,89919,1,0,1:0:0:0:
442,38,90095,1,0,3:0:0:0:
438,50,90183,1,0,3:0:0:0:
440,62,90272,1,0,3:0:0:0:
512,303,90448,1,0,3:0:0:0:
367,276,90624,2,0,P|400:272|436:257,1,63.7500024318696,0|0,1:0|0:0,0:0:0:0:
512,144,90801,1,0,0:0:0:0:
502,135,90889,1,0,0:0:0:0:
489,133,90977,38,0,P|473:161|481:209,1,63.7500024318696,4|0,1:2|0:0,0:0:0:0:
348,97,91154,2,0,P|348:129|379:166,1,63.7500024318696,8|8,0:3|0:3,0:0:0:0:
246,219,91330,2,0,P|262:246|307:263,1,63.7500024318696,4|4,0:3|0:3,0:0:0:0:
443,379,91507,1,4,0:3:0:0:
436,368,91595,1,4,0:3:0:0:
425,361,91683,6,0,P|383:348|332:371,1,85,0|0,3:0|0:0,0:0:0:0:
77,279,91860,2,0,P|44:308|39:364,1,85,0|0,3:0|0:0,0:0:0:0:
41,356,92213,38,0,P|67:306|50:139,1,212.5,4|0,3:1|3:0,0:0:0:0:
0,71,92742,6,0,B|144:76|144:76|136:80|136:80|304:84,1,318.75,8|0,1:2|0:0,0:0:0:0:
483,7,93095,1,0,3:0:0:0:
347,148,93272,2,0,P|374:126|379:80,1,63.7500024318696,0|0,3:0|0:0,0:0:0:0:
512,159,93448,2,0,P|506:124|469:97,1,63.7500024318696,0|0,1:0|0:0,0:0:0:0:
464,354,93624,38,0,P|438:254|442:130,1,191.250007295609,0|0,3:0|0:0,0:0:0:0:
428,176,93977,2,0,P|426:212|432:249,1,63.7500024318696,0|0,3:0|0:0,0:0:0:0:
306,375,94154,2,0,B|331:344|331:344|310:200,1,170,0|0,1:0|0:0,0:0:0:0:
244,43,94419,1,0,3:0:0:0:
274,126,94507,2,0,P|307:139|353:130,1,63.7500024318696,0|0,3:0|0:0,0:0:0:0:
105,37,94683,2,0,P|140:31|175:0,1,63.7500024318696,0|0,3:0|0:0,0:0:0:0:
212,209,94860,1,0,1:0:0:0:
214,223,95036,6,0,P|103:128|-9:131,1,255.000009727478,4|0,3:2|3:0,0:0:0:0:
211,310,95566,1,0,1:0:0:0:
452,224,95742,1,0,0:0:0:0:
305,148,95919,2,0,P|298:176|296:222,1,63.7500024318696,0|0,3:0|0:0,0:0:0:0:
349,331,96095,2,0,P|356:303|358:257,1,63.7500024318696,0|0,3:0|0:0,0:0:0:0:
210,218,96272,1,0,1:0:0:0:
512,380,96448,38,0,P|496:292|353:189,1,255.000009727478,0|0,3:0|3:0,0:0:0:0:
383,186,96889,1,0,0:0:0:0:
394,180,96977,2,0,B|416:72|416:72|394:52,1,127.500004863739,0|0,1:0|3:0,0:0:0:0:
210,218,97330,5,0,1:0:0:0:
192,225,97419,1,0,1:0:0:0:
154,231,97507,1,0,1:0:0:0:
100,209,97595,1,0,1:0:0:0:
66,140,97683,1,0,1:0:0:0:
147,42,97860,37,8,0:3:0:0:
284,124,98036,6,0,L|297:225,1,85,4|0,3:1|0:0,0:0:0:0:
294,208,98301,1,0,0:0:0:0:
294,208,98389,1,0,1:0:0:0:
274,352,98566,1,0,0:0:0:0:
431,325,98742,1,0,3:0:0:0:
424,319,98919,1,0,3:0:0:0:
206,226,99095,1,0,1:0:0:0:
211,221,99272,1,0,0:0:0:0:
458,141,99448,38,0,L|346:156,1,85,0|0,3:0|0:0,0:0:0:0:
289,311,99801,2,0,L|177:326,1,85,0|0,1:0|3:0,0:0:0:0:
28,213,100154,1,0,0:0:0:0:
28,213,100330,2,0,P|33:191|29:150,1,42.5,0|0,3:0|0:0,0:0:0:0:
154,94,100507,2,0,P|204:117|217:155,1,85,0|0,1:0|0:0,0:0:0:0:
89,380,100860,6,0,P|102:278|117:245,1,127.5,4|0,3:2|0:0,0:0:0:0:
124,257,101213,2,0,L|74:284,1,42.5,0|0,1:0|0:0,0:0:0:0:
15,68,101477,1,0,3:0:0:0:
19,79,101566,2,0,P|62:72|96:29,1,85,0|0,3:0|3:0,0:0:0:0:
345,158,101919,2,0,P|311:151|287:129,1,42.5,0|0,1:0|0:0,0:0:0:0:
220,60,102095,1,0,3:0:0:0:
212,70,102183,1,0,3:0:0:0:
204,80,102272,38,0,P|196:52|199:25,1,42.5,0|0,3:0|0:0,0:0:0:0:
149,196,102448,6,0,P|135:170|128:126,1,63.7500024318696,0|0,3:0|0:0,0:0:0:0:
186,363,102624,38,0,P|155:338|134:275,1,85,0|0,1:0|0:0,0:0:0:0:
309,193,102801,6,0,P|301:294|268:373,1,170,0|8,3:0|0:3,0:0:0:0:
356,378,103066,1,8,0:3:0:0:
364,375,103154,1,8,0:3:0:0:
372,372,103242,1,8,0:3:0:0:
388,352,103330,1,4,0:3:0:0:
386,326,103419,1,4,0:3:0:0:
378,301,103507,1,4,0:3:0:0:
401,291,103595,1,4,0:3:0:0:
426,280,103683,38,0,P|326:250|214:244,1,191.250007295609,4|0,3:1|0:0,0:0:0:0:
169,281,104036,1,0,1:0:0:0:
289,93,104213,1,4,0:3:0:0:
206,79,104389,1,0,3:0:0:0:
269,318,104566,1,0,3:0:0:0:
493,208,104742,1,0,1:0:0:0:
470,288,104919,1,0,3:0:0:0:
318,240,105095,6,0,P|337:184|395:209,1,127.5,0|0,3:0|0:0,0:0:0:0:
400,192,105448,38,0,P|387:166|351:145,1,63.7500024318696,0|0,1:0|0:0,0:0:0:0:
172,171,105624,1,4,0:3:0:0:
175,183,105713,1,4,0:3:0:0:
179,195,105801,1,0,3:0:0:0:
387,67,105977,1,0,3:0:0:0:
194,30,106154,6,0,P|230:39|256:60,1,63.7500024318696,0|0,1:0|0:0,0:0:0:0:
290,206,106330,1,0,3:0:0:0:
271,281,106419,1,0,0:0:0:0:
251,354,106507,38,0,P|209:352|182:332,1,63.7500024318696,4|0,3:1|0:0,0:0:0:0:
26,217,106683,1,8,0:3:0:0:
34,234,106772,1,8,0:3:0:0:
43,250,106860,5,8,0:3:0:0:
180,258,107036,1,8,0:3:0:0:
68,142,107213,37,4,0:3:0:0:
242,151,107389,1,4,0:3:0:0:
23,56,107566,5,4,0:3:0:0:
238,19,107742,1,4,0:3:0:0:
373,265,107919,37,4,3:2:0:0:
373,265,108095,5,4,3:2:0:0:
373,265,108272,37,4,3:2:0:0:
373,265,108624,6,0,P|378:243|380:216,7,31.8750012159348,2|0|2|0|2|0|2|0,0:0|0:0|0:0|0:0|0:0|0:0|0:0|0:0,0:0:0:0:
372,226,108977,38,0,P|333:251|336:352,1,127.5,4|0,0:3|0:0,0:0:0:0:
453,379,109330,6,0,P|327:284|166:334,1,318.75,4|0,3:2|0:0,0:0:0:0:
89,357,109683,38,0,P|103:286|94:224,1,127.500004863739,0|0,1:0|0:0,0:0:0:0:
256,262,110036,2,0,P|242:191|251:129,1,127.500004863739,0|0,3:0|3:0,0:0:0:0:
17,175,110389,1,0,1:0:0:0:
87,58,110566,1,0,0:0:0:0:
87,58,110654,1,0,0:0:0:0:
87,58,110742,6,0,B|142:34|142:34|213:76,1,127.500004863739,0|0,3:0|0:0,0:0:0:0:
389,208,111095,1,0,1:0:0:0:
404,55,111272,2,0,P|327:140|321:281,1,255.000009727478,0|0,3:0|3:0,0:0:0:0:
511,333,111801,2,0,P|493:299|467:278,1,63.7500024318696,0|0,1:0|0:0,0:0:0:0:
200,312,111977,38,0,B|216:347|216:347|441:353,1,255.000009727478,4|0,3:2|3:0,0:0:0:0:
507,202,112507,2,0,P|438:202|395:251,1,127.500004863739,0|0,1:0|0:0,0:0:0:0:
319,275,112860,1,0,3:0:0:0:
153,144,113036,1,0,3:0:0:0:
225,103,113213,2,0,P|238:182|221:239,1,127.500004863739,0|0,1:0|0:0,0:0:0:0:
0,353,113566,6,0,B|-8:317|-8:317|168:369|168:369|153:325,1,255.000009727478,0|0,3:0|1:0,0:0:0:0:
36,183,114095,1,0,1:0:0:0:
34,189,114183,1,0,1:0:0:0:
31,195,114272,1,0,1:0:0:0:
248,311,114448,1,0,1:0:0:0:
113,82,114624,2,0,P|113:109|100:161,1,63.7500024318696,0|0,1:0|0:0,0:0:0:0:
102,267,114801,38,0,P|30:203|38:44,1,255.000009727478,4|0,3:2|3:0,0:0:0:0:
149,5,115330,1,0,1:0:0:0:
300,143,115507,1,0,0:0:0:0:
470,49,115683,1,0,3:0:0:0:
456,130,115860,1,0,3:0:0:0:
330,50,116036,2,0,P|269:62|197:71,1,127.500004863739,0|0,1:0|0:0,0:0:0:0:
258,359,116389,6,0,P|329:332|383:167,1,255.000009727478,0|0,3:0|1:0,0:0:0:0:
220,285,116919,1,0,3:0:0:0:
226,283,117007,1,0,3:0:0:0:
232,281,117095,1,0,3:0:0:0:
406,372,117272,1,0,3:0:0:0:
149,328,117448,2,0,P|136:300|141:254,1,63.7500024318696,0|0,1:0|0:0,0:0:0:0:
306,183,117624,38,0,P|312:280|288:395,1,191.250007295609,4|0,1:2|0:0,0:0:0:0:
289,374,117977,1,0,3:0:0:0:
384,237,118154,1,0,3:0:0:0:
508,366,118330,1,4,1:2:0:0:
504,353,118419,1,0,0:0:0:0:
501,340,118507,1,0,0:0:0:0:
497,327,118595,1,0,0:0:0:0:
493,314,118683,5,0,3:0:0:0:
274,288,118860,1,0,3:0:0:0:
57,259,119036,2,0,P|53:152|40:65,1,191.250007295609,4|0,1:2|0:0,0:0:0:0:
35,62,119389,1,0,3:0:0:0:
234,156,119566,1,0,3:0:0:0:
471,27,119742,1,12,1:1:0:0:
471,27,120624,37,2,0:0:0:0:
452,30,120713,1,2,0:0:0:0:
433,35,120801,1,2,0:0:0:0:
417,46,120889,1,2,0:0:0:0:
410,63,120977,1,2,0:0:0:0:
408,82,121066,1,2,0:0:0:0:
413,100,121154,1,2,0:0:0:0:
425,114,121242,1,2,0:0:0:0:
441,124,121330,6,0,P|450:102|451:72,3,42.5,2|0|0|0,0:0|0:0|0:0|0:0,0:0:0:0:
391,191,121683,2,0,P|394:212|403:232,3,42.5,2|2|2|2,0:0|0:0|0:0|0:0,0:0:0:0:
310,63,122036,22,0,P|310:19|272:75,1,170,4|0,3:2|1:0,0:0:0:0:
262,70,122742,21,2,0:0:0:0:
217,6,122919,2,0,P|170:6|137:53,1,85,0|2,0:0|0:0,0:0:0:0:
53,14,123272,2,0,P|65:77|83:188,1,170,0|2,1:0|0:0,0:0:0:0:
231,226,123801,2,0,P|269:197|307:189,1,85,0|0,1:0|0:0,0:0:0:0:
112,305,124154,2,0,P|69:282|33:279,1,85,8|0,0:0|0:0,0:0:0:0:
178,376,124507,1,0,0:0:0:0:
178,376,124860,22,0,B|195:333|170:294|153:302|128:264|151:212,1,170,2|0,0:0|1:0,0:0:0:0:
317,289,125389,2,0,P|291:333|278:395,1,85,0|8,0:0|0:0,0:0:0:0:
470,301,125742,1,0,0:0:0:0:
459,310,125830,1,0,0:0:0:0:
447,321,125919,2,0,P|438:254|430:228,1,85,0|2,0:0|0:0,0:0:0:0:
348,32,126272,2,0,P|339:99|329:159,1,127.5,0|2,0:0|0:0,0:0:0:0:
490,125,126624,22,0,P|442:132|410:78,1,85,0|0,1:0|0:0,0:0:0:0:
264,49,126889,1,0,0:0:0:0:
259,35,126977,2,0,P|210:37|183:83,1,85,0|0,1:0|0:0,0:0:0:0:
109,169,127242,1,0,0:0:0:0:
113,154,127330,21,8,1:0:0:0:
82,132,127419,1,0,0:0:0:0:
44,135,127507,1,0,0:0:0:0:
17,166,127595,1,0,0:0:0:0:
51,241,127683,22,0,P|152:206|246:204,1,159.375,0|0,3:0|0:0,0:0:0:0:
213,208,128036,1,0,3:0:0:0:
267,270,128213,1,0,0:0:0:0:
427,182,128389,22,0,P|438:135|393:82,1,106.25,0|0,3:0|0:0,0:0:0:0:
246,125,128742,1,0,3:0:0:0:
358,0,128919,22,0,P|339:60|322:189,1,159.375
324,170,129272,1,0,0:0:0:0:
407,366,129448,1,0,3:0:0:0:
477,321,129624,2,0,P|472:298|439:271,1,53.125
367,255,129801,21,0,3:0:0:0:
369,268,129889,1,0,0:0:0:0:
336,312,129977,1,0,0:0:0:0:
285,306,130066,1,0,0:0:0:0:
262,273,130154,1,0,3:0:0:0:
235,250,130242,1,0,0:0:0:0:
210,249,130331,1,0,0:0:0:0:
195,257,130419,1,0,0:0:0:0:
188,269,130507,22,0,P|180:239|147:219,1,53.125,0|0,3:0|0:0,0:0:0:0:
321,99,130683,2,0,P|328:76|352:53,1,53.125,0|0,3:0|0:0,0:0:0:0:
196,0,130860,22,0,B|168:44|209:92|223:78|261:121|232:175,1,191.250007295609,4|0,1:2|0:0,0:0:0:0:
233,180,131213,22,0,L|330:169,1,63.7500024318696,0|0,3:0|0:0,0:0:0:0:
494,45,131389,2,0,L|397:34,1,63.7500024318696,0|0,3:0|0:0,0:0:0:0:
321,99,131566,22,0,B|390:104|390:104|426:153|426:153|542:163,1,191.250007295609,4|0,1:2|3:0,0:0:0:0:
499,159,131919,22,0,L|494:256,1,63.7500024318696,4|0,3:2|0:0,0:0:0:0:
445,285,132095,2,0,L|440:382,1,63.7500024318696,0|0,3:0|0:0,0:0:0:0:
417,137,132271,22,0,L|412:234,1,63.7500024318696,0|0,3:0|0:0,0:0:0:0:
363,263,132448,2,0,L|358:360,1,63.7500024318696,0|0,1:0|0:0,0:0:0:0:
134,184,132624,21,0,3:0:0:0:
223,290,132801,1,0,3:0:0:0:
218,266,132889,1,0,3:0:0:0:
224,242,132977,2,0,P|237:216|283:200,1,63.7500024318696,0|0,1:0|1:0,0:0:0:0:
179,61,133154,2,0,P|153:48|137:2,1,63.7500024318696,0|0,1:0|1:0,0:0:0:0:
293,77,133330,22,0,P|217:88|72:112,1,191.250007295609,4|0,3:2|0:0,0:0:0:0:
87,115,133683,1,0,1:0:0:0:
224,242,133860,1,0,0:0:0:0:
108,308,134036,2,0,P|115:243|143:164,1,127.500004863739,0|0,3:0|3:0,0:0:0:0:
35,58,134389,1,0,1:0:0:0:
224,242,134566,22,0,B|353:260|287:165|423:178,1,191.250007295609
407,187,134919,1,0,0:0:0:0:
495,99,135095,2,0,P|457:54|381:74,1,127.500004863739,0|0,1:0|0:0,0:0:0:0:
444,325,135448,2,0,P|490:261|457:191,1,127.500004863739,0|0,3:0|3:0,0:0:0:0:
407,187,135801,1,0,1:0:0:0:
282,343,135977,1,0,0:0:0:0:
282,343,136066,1,0,0:0:0:0:
282,343,136154,22,0,P|185:321|60:317,1,191.250007295609,0|0,3:0|0:0,0:0:0:0:
83,326,136507,1,0,1:0:0:0:
22,188,136683,2,0,P|16:117|81:80,1,127.500004863739,0|0,0:0|3:0,0:0:0:0:
175,248,137036,1,0,3:0:0:0:
127,0,137213,22,0,P|132:73|109:218,1,191.250007295609,0|0,1:0|0:0,0:0:0:0:
109,205,137566,2,0,P|149:162|217:190,1,127.500004863739,0|0,3:0|0:0,0:0:0:0:
298,271,137830,1,0,0:0:0:0:
295,287,137919,2,0,P|363:301|393:242,1,127.500004863739,0|8,1:0|0:3,0:0:0:0:
507,131,138183,1,8,0:3:0:0:
493,144,138272,22,0,P|481:214|480:318,1,127.500004863739,8|0,3:0|0:0,0:0:0:0:
404,166,138536,2,0,B|328:175|346:124|272:135,1,127.500004863739,8|0,0:3|0:0,0:0:0:0:
198,196,138801,2,0,P|227:209|274:195,1,63.7500024318696,4|0,0:3|0:0,0:0:0:0:
95,146,138977,22,0,P|113:216|119:364,1,191.250007295609,0|0,3:0|0:0,0:0:0:0:
113,349,139330,2,0,P|155:292|216:298,1,127.500004863739,0|0,1:0|0:0,0:0:0:0:
258,358,139683,1,0,3:0:0:0:
443,268,139860,2,0,P|414:276|389:323,1,63.7500024318696,0|0,3:0|0:0,0:0:0:0:
335,380,140036,22,0,B|386:326|376:229|309:193|309:193|325:231|294:295,1,255,4|0,1:2|0:0,0:0:0:0:
311,240,140389,22,0,P|394:211|408:141,1,127.500004863739,0|0,3:0|0:0,0:0:0:0:
109,105,140742,1,0,1:0:0:0:
167,38,140919,2,0,P|239:26|271:158,1,191.250007295609,0|0,0:0|0:0,0:0:0:0:
93,195,141272,2,0,P|59:188|32:158,1,63.7500024318696,0|0,3:0|0:0,0:0:0:0:
166,267,141448,22,0,B|135:287|156:320|199:336|220:302|238:270|207:235|202:229|170:206|179:164|199:139|209:135,1,255,4|0,1:2|0:0,0:0:0:0:
219,126,141801,21,4,3:2:0:0:
373,231,141977,1,0,0:0:0:0:
492,33,142154,1,0,1:0:0:0:
278,225,142330,1,0,1:0:0:0:
284,251,142419,1,0,1:0:0:0:
290,276,142507,1,0,1:0:0:0:
477,115,142683,1,8,0:3:0:0:
256,41,142860,2,0,P|289:68|354:65,1,63.7500024318696,4|0,0:3|0:0,0:0:0:0:
399,42,143036,22,0,P|379:131|373:258,1,191.250007295609,4|0,3:2|0:0,0:0:0:0:
380,244,143389,1,0,3:0:0:0:
137,114,143566,1,0,3:0:0:0:
32,358,143742,1,0,3:0:0:0:
27,345,143830,1,0,3:0:0:0:
23,334,143919,21,4,3:2:0:0:
68,270,144007,1,0,0:0:0:0:
131,263,144095,1,8,0:3:0:0:
179,286,144183,1,0,0:0:0:0:
200,324,144272,1,8,0:3:0:0:
232,345,144360,1,0,0:0:0:0:
264,346,144448,1,4,0:3:0:0:
280,340,144536,1,0,0:0:0:0:
293,330,144624,22,0,P|302:289|293:253,1,63.7500024318696,0|0,3:0|0:0,0:0:0:0:
233,223,144801,1,0,0:0:0:0:
233,223,144977,1,0,0:0:0:0:
233,223,145154,1,0,3:0:0:0:
384,169,145330,22,0,P|378:131|386:80,1,63.7500024318696,0|0,3:0|0:0,0:0:0:0:
429,33,145507,1,0,0:0:0:0:
199,10,145683,1,0,1:0:0:0:
57,132,145860,22,0,P|72:210|83:303,1,127.500004863739,0|0,3:0|0:0,0:0:0:0:
284,17,146213,2,0,P|269:95|258:188,1,127.500004863739,0|0,3:0|0:0,0:0:0:0:
152,301,146566,1,0,3:0:0:0:
8,69,146742,1,0,1:0:0:0:
185,170,146919,21,0,3:0:0:0:
185,179,147007,1,0,3:0:0:0:
185,189,147095,1,0,1:0:0:0:
122,48,147448,22,0,P|162:27|209:29,1,63.7500024318696,0|0,3:0|0:0,0:0:0:0:
338,100,147624,1,0,0:0:0:0:
338,100,147801,1,0,0:0:0:0:
338,100,147977,1,0,3:0:0:0:
285,163,148154,22,0,P|290:192|316:229,1,63.7500024318696,0|0,3:0|0:0,0:0:0:0:
512,313,148330,1,0,0:0:0:0:
287,383,148507,1,0,1:0:0:0:
441,156,148683,22,0,P|430:229|430:317,1,127.500004863739,0|0,3:0|0:0,0:0:0:0:
184,173,149036,2,0,P|206:240|210:301,1,127.500004863739,0|0,3:0|0:0,0:0:0:0:
149,379,149389,1,0,3:0:0:0:
338,241,149566,21,0,1:0:0:0:
341,253,149654,1,0,0:0:0:0:
362,279,149742,21,0,3:0:0:0:
403,276,149830,1,0,3:0:0:0:
426,243,149919,1,0,1:0:0:0:
415,202,150007,1,0,1:0:0:0:
408,161,150095,1,0,1:0:0:0:
431,128,150184,1,0,1:0:0:0:
472,125,150272,22,0,P|402:143|272:179,1,191.250007295609,4|0,3:2|0:0,0:0:0:0:
282,188,150624,1,0,1:0:0:0:
44,40,150801,1,0,0:0:0:0:
44,40,150889,1,0,1:0:0:0:
44,40,150977,1,0,3:0:0:0:
254,0,151154,1,0,3:0:0:0:
112,209,151330,2,0,P|84:159|156:66,1,127.500004863739,0|0,1:0|0:0,0:0:0:0:
207,153,151683,22,0,P|190:247|185:390,1,191.250007295609,0|0,3:0|0:0,0:0:0:0:
189,352,152036,2,0,P|169:335|118:333,1,63.7500024318696,0|0,1:0|0:0,0:0:0:0:
273,379,152213,2,0,P|334:359|405:350,1,127.500004863739,0|0,3:0|0:0,0:0:0:0:
277,206,152566,1,0,3:0:0:0:
512,217,152742,2,0,B|457:189|416:237|434:244|386:295|318:259,1,191.250007295609,0|0,1:0|0:0,0:0:0:0:
282,3,153095,22,0,B|329:-5|329:-5|363:169,1,191.250007295609,4|0,3:2|0:0,0:0:0:0:
357,146,153448,2,0,L|280:137,1,63.7500024318696,0|0,1:0|0:0,0:0:0:0:
71,49,153624,1,0,0:0:0:0:
92,43,153713,1,0,1:0:0:0:
113,38,153801,1,0,3:0:0:0:
260,237,153977,1,0,3:0:0:0:
196,37,154154,2,0,B|175:118|175:118|195:154|195:154|165:248,1,191.250007295609,0|0,1:0|0:0,0:0:0:0:
166,229,154507,22,0,L|154:151,1,63.7500024318696,0|0,1:0|0:0,0:0:0:0:
344,247,154683,2,0,L|370:176,1,63.7500024318696,0|0,1:0|0:0,0:0:0:0:
454,364,154860,2,0,L|515:328,1,63.7500024318696,0|0,3:0|0:0,0:0:0:0:
292,317,155036,21,0,1:0:0:0:
495,138,155213,1,8,0:3:0:0:
494,153,155301,1,8,0:3:0:0:
493,169,155389,1,4,0:3:0:0:
492,185,155477,1,4,0:3:0:0:
491,201,155566,2,0,B|456:201|456:201|426:176,1,63.7500024318696,0|0,1:0|0:0,0:0:0:0:
252,50,155742,1,4,0:3:0:0:
254,62,155830,1,8,0:3:0:0:
258,73,155919,22,0,P|292:9|277:82,1,191.250007295609,0|0,3:0|0:0,0:0:0:0:
146,108,156272,2,0,P|183:117|203:159,1,63.7500024318696,0|0,1:0|0:0,0:0:0:0:
360,245,156448,1,0,3:0:0:0:
366,227,156536,1,0,3:0:0:0:
366,205,156624,2,0,L|357:134,1,63.7500024318696,0|0,3:0|0:0,0:0:0:0:
182,287,156801,2,0,L|191:358,1,63.7500024318696,0|0,3:0|0:0,0:0:0:0:
416,306,156977,2,0,B|352:299|352:299|323:241|323:241|261:235,1,191.250007295609,0|0,1:0|0:0,0:0:0:0:
0,229,157330,22,0,P|71:220|138:186,1,127.500004863739,0|0,3:0|0:0,0:0:0:0:
361,55,157595,1,0,0:0:0:0:
350,66,157683,2,0,P|313:53|290:29,1,63.7500024318696,0|0,1:0|0:0,0:0:0:0:
104,0,157860,22,0,P|128:90|135:172,1,127.500004863739,0|0,3:0|0:0,0:0:0:0:
182,287,158124,1,0,0:0:0:0:
171,276,158212,2,0,P|184:239|208:216,1,63.7500024318696,0|0,3:0|0:0,0:0:0:0:
268,110,158389,22,0,P|228:108|204:129,1,63.7500024318696,4|0,1:2|0:0,0:0:0:0:
7,130,158566,2,0,P|46:128|71:149,1,63.7500024318696,0|0,0:0|0:0,0:0:0:0:
121,197,158742,21,4,3:2:0:0:
452,0,158919,1,0,0:0:0:0:
112,210,159095,21,0,1:0:0:0:
465,136,159272,1,0,3:0:0:0:
102,225,159448,21,0,1:0:0:0:
421,315,159624,1,0,3:0:0:0:
88,235,159801,21,0,1:0:0:0:
267,384,159977,2,0,L|276:313,1,63.7500024318696,0|0,3:0|0:0,0:0:0:0:
326,211,160154,21,4,3:2:0:0:
156,29,160330,1,0,0:0:0:0:
330,185,160507,21,0,1:0:0:0:
50,72,160683,1,0,3:0:0:0:
339,158,160860,21,0,1:0:0:0:
0,182,161036,1,0,3:0:0:0:
0,305,161213,21,0,1:0:0:0:
363,140,161389,2,0,L|372:209,1,63.7500024318696,0|0,3:0|0:0,0:0:0:0:
232,359,161566,22,0,B|201:250|308:279|273:164,1,191.250007295609,4|0,3:2|0:0,0:0:0:0:
277,174,161919,2,0,P|241:169|208:223,1,63.7500024318696,0|0,1:0|0:0,0:0:0:0:
89,356,162095,1,8,0:3:0:0:
84,343,162183,1,8,0:3:0:0:
82,329,162272,1,0,3:0:0:0:
204,106,162448,1,0,0:0:0:0:
392,352,162624,2,0,P|382:281|368:200,1,127.500004863739,0|0,1:3|3:0,0:0:0:0:
385,118,162889,1,0,0:0:0:0:
379,133,162977,22,0,P|319:90|396:60,1,191.250007295609,0|0,3:0|0:0,0:0:0:0:
497,7,163330,2,0,P|480:46|475:88,1,63.7500024318696,0|0,1:3|0:0,0:0:0:0:
326,204,163507,1,0,3:0:0:0:
333,218,163595,1,0,3:0:0:0:
336,235,163683,1,0,3:0:0:0:
512,359,163860,1,0,0:0:0:0:
464,142,164036,1,0,1:3:0:0:
302,311,164213,22,0,P|191:274|67:274,1,191.250007295609,0|0,3:0|0:0,0:0:0:0:
36,214,164566,2,0,P|66:205|97:173,1,63.7500024318696,0|0,1:0|0:0,0:0:0:0:
20,343,164742,2,0,P|55:364|73:399,1,63.7500024318696,0|0,1:0|0:0,0:0:0:0:
171,194,164919,1,8,0:3:0:0:
167,180,165007,1,8,0:3:0:0:
197,141,165095,22,0,L|211:69,1,63.7500024318696,0|0,1:0|0:0,0:0:0:0:
139,302,165272,2,0,L|153:374,1,63.7500024318696,8|0,0:3|0:0,0:0:0:0:
280,141,165448,2,0,L|294:69,1,63.7500024318696,4|0,0:3|0:0,0:0:0:0:
222,302,165625,2,0,L|236:374,1,63.7500024318696,4|0,3:2|0:0,0:0:0:0:
407,243,165977,22,0,L|325:239,1,63.7500024318696,4|0,3:2|0:0,0:0:0:0:
66,224,166154,1,4,3:2:0:0:
53,48,166507,38,0,P|65:87|76:95,1,46.7500014266968,2|0,0:0|0:0,0:0:0:0:
57,94,166595,2,0,P|85:124|98:126,1,46.7500014266968,2|0,0:0|0:0,0:0:0:0:
81,134,166683,2,0,P|119:150|132:147,1,46.7500014266968,2|0,0:0|0:0,0:0:0:0:
118,162,166772,2,0,P|160:162|170:154,1,46.7500014266968,2|0,0:0|0:0,0:0:0:0:
164,172,166860,2,0,P|202:155|209:143,1,46.7500014266968,2|0,0:0|0:0,0:0:0:0:
209,162,166948,2,0,P|237:130|238:118,1,46.7500014266968,2|0,0:0|0:0,0:0:0:0:
294,187,167036,38,0,B|228:138|221:33|322:-1|375:73|326:119,1,265.625,4|0,3:1|0:0,0:0:0:0:
164,244,167566,6,0,P|281:144|430:178,1,318.75,8|0,1:2|0:0,0:0:0:0:
430,178,167919,37,0,3:0:0:0:
494,128,168095,2,0,B|518:156|518:156|510:200,1,76.4999976654053,0|0,3:0|0:0,0:0:0:0:
368,228,168272,2,0,B|344:200|344:200|351:155,1,76.4999976654053,0|0,1:0|0:0,0:0:0:0:
430,178,168448,6,0,P|370:268|240:205,1,229.499992996216,0|0,3:0|0:0,0:0:0:0:
49,181,168801,2,0,P|82:208|98:260,1,76.4999976654053,0|0,3:0|0:0,0:0:0:0:
174,323,168977,2,0,P|185:210|216:127,1,152.999995330811,0|0,1:0|0:0,0:0:0:0:
315,138,169242,1,0,3:0:0:0:
310,155,169330,37,0,3:0:0:0:
145,66,169507,1,0,3:0:0:0:
394,0,169683,1,0,1:0:0:0:
314,277,169860,6,0,P|208:255|68:255,1,229.499992996216,4|0,3:2|0:0,0:0:0:0:
79,263,170213,1,0,3:0:0:0:
0,76,170389,2,0,P|-21:143|43:204,1,127.500004863739,0|0,1:0|0:0,0:0:0:0:
224,138,170742,37,0,3:0:0:0:
112,124,170919,2,0,P|107:75|99:29,1,76.4999976654053,0|0,3:0|0:0,0:0:0:0:
319,192,171095,2,0,P|303:227|290:262,1,76.4999976654053,0|0,1:0|0:0,0:0:0:0:
197,384,171272,6,0,P|229:303|355:341,1,229.499992996216,0|0,3:0|0:0,0:0:0:0:
348,338,171624,1,0,3:0:0:0:
512,188,171801,1,0,1:0:0:0:
405,216,171977,1,0,0:0:0:0:
408,230,172065,1,0,3:0:0:0:
412,244,172153,37,0,3:0:0:0:
309,30,172330,1,0,3:0:0:0:
132,156,172507,5,0,1:0:0:0:
196,113,172595,1,0,0:0:0:0:
254,121,172683,1,0,3:0:0:0:
283,145,172771,1,0,3:0:0:0:
296,161,172860,38,0,P|286:223|286:272,1,95.6250036478044,4|0,3:2|0:0,0:0:0:0:
289,271,173213,2,0,B|241:276|215:324|215:324|179:286|128:291,1,191.250007295609,0|0,1:2|0:0,0:0:0:0:
115,306,173566,5,0,3:2:0:0:
0,213,173742,1,0,3:2:0:0:
110,85,173919,2,0,P|95:164|90:213,1,127.5,4|0,1:2|0:0,0:0:0:0:
45,384,174272,38,0,P|123:325|247:363,1,191.250007295609,4|0,3:2|0:0,0:0:0:0:
220,349,174624,1,0,1:2:0:0:
382,235,174801,1,0,0:0:0:0:
378,247,174889,1,0,3:0:0:0:
374,259,174977,5,0,3:0:0:0:
301,45,175154,1,0,3:0:0:0:
476,194,175330,2,0,P|400:139|310:160,1,191.250007295609,0|0,1:2|0:0,0:0:0:0:
239,243,175683,38,0,L|220:80,1,127.500004863739,4|0,3:2|0:0,0:0:0:0:
446,16,176036,1,0,1:0:0:0:
374,235,176213,1,0,3:0:0:0:
378,247,176302,1,0,3:0:0:0:
381,259,176390,1,0,3:0:0:0:
458,320,176566,6,0,P|435:346|428:378,1,63.7500024318696,0|0,3:0|0:0,0:0:0:0:
155,257,176742,2,0,P|211:328|300:311,1,191.250007295609,0|0,1:0|0:0,0:0:0:0:
471,223,177095,38,0,L|462:152,1,63.7500024318696,4|0,1:2|0:0,0:0:0:0:
477,24,177272,5,8,0:3:0:0:
424,87,177360,1,8,0:3:0:0:
360,123,177448,1,4,0:3:0:0:
295,131,177536,1,4,0:3:0:0:
242,121,177625,1,4,0:3:0:0:
202,100,177713,1,4,0:3:0:0:
172,78,177801,38,0,L|163:193,1,85,0|0,3:0|0:0,0:0:0:0:
95,70,177977,2,0,L|86:185,1,85,0|0,3:0|0:0,0:0:0:0:
20,216,178330,6,0,P|120:185|223:266,1,212.5,4|0,3:1|3:0,0:0:0:0:
254,383,178860,38,0,P|246:238|293:67,1,318.75,8|0,1:2|0:0,0:0:0:0:
299,63,179213,1,0,3:0:0:0:
137,96,179389,2,0,P|190:68|244:61,1,76.4999976654053,0|0,3:0|0:0,0:0:0:0:
386,200,179566,2,0,P|357:146|349:92,1,76.4999976654053,0|0,1:0|0:0,0:0:0:0:
407,337,179742,6,0,P|309:302|185:324,1,229.499992996216,0|0,3:0|0:0,0:0:0:0:
0,214,180095,2,0,P|22:246|34:289,1,76.4999976654053,0|0,3:0|0:0,0:0:0:0:
101,384,180272,2,0,P|111:291|135:209,1,152.999995330811,0|0,1:0|0:0,0:0:0:0:
115,132,180536,1,0,3:0:0:0:
113,147,180624,37,0,3:0:0:0:
260,263,180801,1,0,3:0:0:0:
422,172,180977,1,0,1:0:0:0:
360,384,181154,6,0,P|352:291|328:163,1,191.250007295609,4|0,3:2|0:0,0:0:0:0:
324,195,181507,1,0,3:0:0:0:
235,30,181683,2,0,P|218:99|276:151,1,127.500004863739,0|0,1:0|0:0,0:0:0:0:
512,224,182036,37,0,3:0:0:0:
333,107,182213,1,0,3:0:0:0:
196,269,182389,1,0,1:0:0:0:
0,87,182566,6,0,P|34:194|140:181,1,229.499992996216,0|0,3:0|0:0,0:0:0:0:
137,176,182919,1,0,3:0:0:0:
350,241,183095,38,0,L|243:230,1,76.4999976654053,0|0,1:0|0:0,0:0:0:0:
159,58,183272,2,0,L|266:47,1,76.4999976654053,0|0,3:0|0:0,0:0:0:0:
326,134,183448,5,0,1:0:0:0:
344,141,183537,1,0,1:0:0:0:
382,147,183625,1,0,1:0:0:0:
436,125,183713,1,0,1:0:0:0:
470,56,183801,1,0,1:0:0:0:
365,46,183977,37,8,0:3:0:0:
411,233,184154,6,0,P|402:303|402:356,1,85,4|0,3:1|0:0,0:0:0:0:
292,355,184507,37,0,1:0:0:0:
259,346,184683,1,0,0:0:0:0:
161,305,184860,5,0,3:0:0:0:
44,323,185037,1,0,3:0:0:0:
229,235,185213,37,0,1:0:0:0:
315,244,185389,1,0,0:0:0:0:
151,174,185566,6,0,P|135:128|157:77,1,85,0|0,3:0|0:0,0:0:0:0:
219,45,185919,1,0,1:0:0:0:
219,129,186095,2,0,L|42:139,1,170,0|0,3:0|3:0,0:0:0:0:
31,320,186624,38,0,P|49:238|107:295,1,191.250007295609,0|0,1:0|0:0,0:0:0:0:
109,301,186977,6,0,L|257:306,1,127.5,4|0,3:2|0:0,0:0:0:0:
294,359,187330,2,0,L|390:353,1,85,0|0,1:0|0:0,0:0:0:0:
448,290,187595,1,0,3:0:0:0:
442,306,187683,1,0,3:0:0:0:
320,231,187860,1,0,3:0:0:0:
427,134,188036,2,0,P|411:200|404:238,1,85,0|0,1:0|3:0,0:0:0:0:
368,338,188301,1,0,3:0:0:0:
359,323,188389,38,0,P|330:333|300:330,1,42.5,0|0,3:0|0:0,0:0:0:0:
205,369,188566,6,0,P|186:344|178:304,1,63.7500024318696,0|0,3:0|0:0,0:0:0:0:
83,215,188742,38,0,P|100:189|153:164,1,85,0|0,1:0|0:0,0:0:0:0:
203,38,188919,6,0,P|232:46|278:111,1,106.25,0|0,3:0|0:0,0:0:0:0:
266,219,189095,37,8,0:3:0:0:
262,236,189183,1,8,0:3:0:0:
271,254,189272,5,8,0:3:0:0:
267,271,189360,1,8,0:3:0:0:
272,297,189448,37,4,0:3:0:0:
290,287,189536,1,4,0:3:0:0:
310,283,189624,1,4,0:3:0:0:
331,284,189713,1,4,0:3:0:0:
351,290,189801,6,0,P|412:228|367:116,1,191.250007295609,4|0,3:1|0:0,0:0:0:0:
377,145,190154,2,0,L|256:155,1,85,0|4,1:0|0:3,0:0:0:0:
240,223,190419,1,4,0:3:0:0:
233,206,190507,37,0,3:0:0:0:
104,131,190683,1,0,3:0:0:0:
209,13,190860,2,0,P|204:81|187:139,1,101.999996887207,0|0,1:0|3:0,0:0:0:0:
45,306,191213,6,0,P|79:225|175:262,1,191.250007295609,0|0,3:0|0:0,0:0:0:0:
179,255,191566,2,0,L|319:248,1,127.500004863739,0|4,1:0|0:3,0:0:0:0:
452,213,191919,37,0,3:0:0:0:
269,155,192095,1,0,3:0:0:0:
375,120,192272,5,0,1:0:0:0:
373,133,192360,1,0,0:0:0:0:
371,146,192449,1,0,3:0:0:0:
369,159,192537,1,0,0:0:0:0:
367,172,192625,37,4,3:1:0:0:
126,88,192801,1,8,0:3:0:0:
381,0,192977,1,8,0:3:0:0:
145,212,193154,5,8,0:3:0:0:
386,296,193330,1,4,0:3:0:0:
131,384,193506,1,4,0:3:0:0:
507,286,193683,37,4,0:3:0:0:
256,88,193860,1,4,0:3:0:0:
5,286,194036,5,4,3:2:0:0:
5,286,194213,37,4,3:2:0:0:
5,286,194389,5,4,3:2:0:0:
5,286,195095,1,4,0:3:0:0:
5,286,195448,22,0,P|92:297|182:387,1,212.5,4|0,3:2|0:0,0:0:0:0:
512,126,195977,6,0,P|410:172|337:373,1,318.750012159348,4|0,3:2|0:0,0:0:0:0:
59,0,196507,38,0,P|143:71|255:370,1,425,4|0,3:2|0:0,0:0:0:0:
172,295,197036,6,0,P|153:279|113:268,2,42.5,0|0|8,1:0|1:0|0:3,0:0:0:0:
321,111,197389,1,8,0:3:0:0:
158,28,197566,1,4,0:3:0:0:
287,189,197742,1,4,0:3:0:0:
88,171,197919,1,0,3:3:0:0:
305,271,198095,1,0,3:3:0:0:
99,384,198272,38,0,B|28:352|28:352|-9:182,1,212.5,4|0,3:2|0:0,0:0:0:0:
48,141,198801,6,0,B|158:191|158:191|200:386,1,318.750012159348,4|0,3:2|0:0,0:0:0:0:
95,272,199330,38,0,B|170:252|170:252|265:306|265:306|352:287,1,255,4|0,3:2|0:0,0:0:0:0:
394,223,199683,5,8,0:3:0:0:
451,233,199801,37,8,0:3:0:0:
477,284,199919,5,8,0:3:0:0:
451,334,200036,37,8,0:3:0:0:
405,299,200154,5,8,0:3:0:0:
413,242,200272,37,8,0:3:0:0:
458,208,200389,5,4,0:3:0:0:
474,153,200507,37,4,0:3:0:0:
450,101,200624,5,4,0:3:0:0:
400,73,200742,37,4,0:3:0:0:
345,90,200860,5,4,0:3:0:0:
322,141,200977,37,4,0:3:0:0:
333,190,201095,6,0,P|405:169|565:143,1,212.5,4|0,3:2|0:0,0:0:0:0:
512,56,201624,38,0,B|405:48|368:-12|368:-12|360:56|289:122,1,318.750012159348,4|0,3:2|0:0,0:0:0:0:
153,289,202154,6,0,B|294:313|335:374|335:374|331:299|465:181,1,425,4|0,3:2|0:0,0:0:0:0:
307,205,202683,38,0,P|300:231|301:262,2,42.5,8|8|4,0:3|0:3|0:3,0:0:0:0:
427,363,203036,1,4,0:3:0:0:
97,365,203213,1,0,3:0:0:0:
94,352,203301,1,0,3:0:0:0:
91,339,203389,1,0,3:0:0:0:
88,326,203477,1,0,3:0:0:0:
82,314,203566,6,0,P|79:341|83:372,1,42.5,0|0,1:0|0:0,0:0:0:0:
0,376,203742,1,0,3:0:0:0:
125,237,203919,38,0,P|145:230|165:226,1,42.5,0|0,3:0|0:0,0:0:0:0:
110,157,204095,2,0,P|130:150|150:146,1,42.5,0|0,3:0|0:0,0:0:0:0:
93,78,204272,2,0,P|113:71|133:67,1,42.5,0|0,3:0|0:0,0:0:0:0:
35,234,204448,6,0,P|25:145|-6:30,1,191.250007295609,0|0,1:0|0:0,0:0:0:0:
196,52,204801,1,0,3:0:0:0:
201,63,204889,1,0,0:0:0:0:
207,76,204977,38,0,P|186:69|142:61,1,63.7500024318696,0|0,3:0|0:0,0:0:0:0:
190,155,205153,2,0,P|169:148|124:142,1,63.7500024318696,0|0,3:0|0:0,0:0:0:0:
175,235,205330,2,0,P|154:228|107:222,1,63.7500024318696,0|0,3:0|0:0,0:0:0:0:
260,286,205507,6,0,P|284:184|317:91,1,191.250007295609,0|0,1:0|0:0,0:0:0:0:
371,13,205860,1,0,1:0:0:0:
375,25,205948,1,0,1:0:0:0:
372,37,206036,38,0,P|336:33|305:8,1,63.7500024318696,0|0,1:0|0:0,0:0:0:0:
376,218,206213,2,0,P|341:205|302:210,1,63.7500024318696,0|0,1:0|0:0,0:0:0:0:
512,155,206389,1,0,1:0:0:0:
512,155,206566,6,0,P|466:165|390:122,1,127.5,4|0,3:2|0:0,0:0:0:0:
488,64,206919,38,0,P|449:70|478:51,1,106.25,0|0,3:0|0:0,0:0:0:0:
512,169,207095,6,0,B|455:194|395:172|329:79|329:79|320:160|242:170,1,318.75,0|0,1:0|0:0,0:0:0:0:
395,341,207448,38,0,P|390:307|401:270,1,63.7500024318696,0|0,3:0|0:0,0:0:0:0:
512,269,207624,1,0,3:0:0:0:
278,250,207801,2,0,P|303:230|349:222,1,63.7500024318696,0|0,1:0|0:0,0:0:0:0:
502,359,207977,6,0,P|490:287|418:160,1,191.250007295609,0|0,3:0|0:0,0:0:0:0:
440,130,208330,2,0,P|429:159|432:208,1,63.7500024318696,0|0,3:0|0:0,0:0:0:0:
416,367,208507,37,0,1:0:0:0:
102,137,208772,1,0,3:0:0:0:
104,124,208860,2,0,P|132:113|174:119,1,63.7500024318696,0|0,3:0|0:0,0:0:0:0:
173,204,209036,2,0,P|145:215|103:209,1,63.7500024318696,0|0,3:0|0:0,0:0:0:0:
106,109,209213,2,0,P|134:98|176:104,1,63.7500024318696,0|0,1:0|0:0,0:0:0:0:
306,246,209389,6,0,B|192:281|192:281|156:332|156:332|111:292|111:292|1:286,1,340,4|0,3:2|3:0,0:0:0:0:
260,17,209919,2,0,P|249:81|270:153,1,127.500004863739,0|0,1:0|0:0,0:0:0:0:
276,143,210183,1,0,0:0:0:0:
288,138,210272,38,0,L|215:119,1,63.7500024318696,0|0,3:0|0:0,0:0:0:0:
437,114,210448,2,0,L|364:95,1,63.7500024318696,0|0,3:0|0:0,0:0:0:0:
512,334,210624,2,0,L|439:315,1,63.7500024318696,0|0,1:0|0:0,0:0:0:0:
357,382,210801,6,0,B|310:317|301:220|365:172|365:172|402:183|420:227|381:273,1,340,0|0,3:0|3:0,0:0:0:0:
76,278,211330,38,0,P|127:243|202:264,1,127.500004863739,0|0,1:0|0:0,0:0:0:0:
244,370,211595,1,0,3:0:0:0:
235,379,211683,2,0,P|241:346|244:300,1,63.7500024318696,0|0,3:0|0:0,0:0:0:0:
8,372,211860,2,0,P|2:339|-1:293,1,63.7500024318696,0|0,3:0|0:0,0:0:0:0:
216,177,212036,1,0,1:0:0:0:
119,370,212213,6,0,B|85:176|85:176|151:132,1,255,4|0,3:2|0:0,0:0:0:0:
237,68,212566,1,0,3:0:0:0:
232,75,212654,1,0,3:0:0:0:
225,81,212742,38,0,P|153:65|129:-1,1,127.500004863739,0|0,1:0|0:0,0:0:0:0:
0,149,213095,1,0,3:0:0:0:
233,193,213272,1,0,3:0:0:0:
35,25,213448,2,0,P|52:54|57:102,1,63.7500024318696,0|0,1:0|0:0,0:0:0:0:
0,331,213624,6,0,P|45:239|174:147,1,255,0|0,3:0|0:0,0:0:0:0:
163,162,213977,38,0,L|83:167,1,63.7500024318696,0|0,3:0|0:0,0:0:0:0:
226,311,214154,2,0,P|166:321|108:262,1,127.500004863739,0|0,1:0|0:0,0:0:0:0:
296,253,214419,1,0,3:0:0:0:
286,244,214507,2,0,P|316:241|355:254,1,63.7500024318696,0|0,3:0|0:0,0:0:0:0:
503,241,214683,2,0,P|473:238|434:251,1,63.7500024318696,0|0,3:0|0:0,0:0:0:0:
403,115,214860,2,0,P|396:143|396:200,1,63.7500024318696,0|0,1:0|0:0,0:0:0:0:
402,371,215036,6,0,P|387:248|298:141,1,255,4|0,3:2|0:0,0:0:0:0:
296,153,215389,38,0,P|276:168|217:162,1,63.7500024318696,0|0,3:0|0:0,0:0:0:0:
107,89,215566,1,0,1:0:0:0:
213,37,215919,2,0,P|198:70|194:105,1,63.7500024318696,0|0,3:0|0:0,0:0:0:0:
185,239,216095,1,0,3:0:0:0:
298,60,216272,1,0,1:0:0:0:
87,198,216448,6,0,P|107:262|124:387,1,191.250007295609,0|0,3:0|0:0,0:0:0:0:
203,368,216801,1,0,3:0:0:0:
0,197,216977,1,0,1:0:0:0:
209,356,217154,38,0,P|250:335|301:330,1,85,0|0,3:0|0:0,0:0:0:0:
464,277,217330,1,0,1:0:0:0:
472,226,217419,1,0,1:0:0:0:
443,183,217507,1,0,1:0:0:0:
396,163,217595,1,0,1:0:0:0:
348,181,217683,6,0,P|336:202|338:230,1,42.5,8|0,0:3|0:0,0:0:0:0:
322,190,217772,38,0,P|322:214|337:237,1,42.5,8|0,0:3|0:0,0:0:0:0:
307,212,217860,6,0,P|319:232|344:245,1,42.5,8|0,0:3|0:0,0:0:0:0:
302,241,217948,38,0,P|323:253|351:250,1,42.5,8|0,0:3|0:0,0:0:0:0:
374,224,218036,38,0,B|302:155|191:148|191:148|231:161|255:237,1,255,4|0,3:2|0:0,0:0:0:0:
230,181,218389,1,0,1:0:0:0:
151,313,218566,1,0,0:0:0:0:
151,313,218654,1,0,3:0:0:0:
151,313,218742,2,0,P|150:253|166:218,1,85,0|0,3:0|0:0,0:0:0:0:
42,41,218919,2,0,P|74:74|138:86,1,85,0|0,3:0|0:0,0:0:0:0:
319,66,219095,1,0,1:0:0:0:
42,41,219272,22,0,P|72:108|81:242,1,170,0|0,0:0|3:0,0:0:0:0:
47,301,219536,1,0,0:0:0:0:
47,301,219624,2,0,P|22:273|22:215,1,85,0|0,0:0|0:0,0:0:0:0:
174,142,219801,2,0,P|195:101|268:88,1,85,0|0,1:0|0:0,0:0:0:0:
318,298,219977,22,0,P|215:233|128:228,1,170,0|0,3:0|0:0,0:0:0:0:
380,365,220242,1,0,0:0:0:0:
396,357,220330,2,0,P|410:288|372:229,1,85,0|0,3:0|0:0,0:0:0:0:
236,335,220507,2,0,P|231:293|246:253,1,85,0|0,1:0|0:0,0:0:0:0:
510,192,220683,22,0,B|447:154|459:77|459:77|407:139|326:117,1,255
231,33,221036,2,0,P|272:43|343:61,1,85,0|0,0:0|0:0,0:0:0:0:
92,156,221213,2,0,P|51:166|-20:184,1,85,0|0,1:0|0:0,0:0:0:0:
155,0,221389,1,0,3:0:0:0:
151,12,221477,1,0,3:0:0:0:
146,23,221566,22,0,P|172:111|195:254,1,170,0|0,3:0|3:0,0:0:0:0:
187,187,221919,22,0,P|181:163|269:129,1,127.500004863739,4|0,1:2|0:0,0:0:0:0:
421,206,222183,1,0,0:0:0:0:
428,196,222272,22,0,P|436:140|449:76,1,85,4|0,3:2|0:0,0:0:0:0:
286,341,222448,2,0,P|280:290|266:230,1,85,0|0,3:0|0:0,0:0:0:0:
329,182,222625,1,0,1:0:0:0:
497,366,222801,22,0,P|451:306|331:335,1,170,0|8,3:0|0:3,0:0:0:0:
214,380,223066,1,8,0:3:0:0:
209,367,223154,1,4,0:3:0:0:
502,355,223330,22,0,P|451:244|265:271,1,318.75,0|0,1:0|3:0,0:0:0:0:
76,300,223683,22,0,P|74:238|42:157,1,127.500004863739,4|0,3:2|0:0,0:0:0:0:
2,104,223948,1,0,0:0:0:0:
0,112,224036,2,0,P|38:102|60:77,1,63.7500024318696,0|0,1:0|0:0,0:0:0:0:
245,56,224213,1,0,3:0:0:0:
235,44,224301,1,0,3:0:0:0:
223,41,224389,2,0,P|186:69|201:160,1,127.500004863739,0|0,3:0|3:0,0:0:0:0:
283,184,224654,1,0,0:0:0:0:
283,184,224742,2,0,P|320:156|305:65,1,127.500004863739,0|0,1:0|0:0,0:0:0:0:
479,301,225095,22,0,P|394:279|333:265,1,127.500004863739,0|0,3:0|0:0,0:0:0:0:
280,304,225360,1,0,0:0:0:0:
268,313,225448,2,0,L|198:322,1,63.7500024318696,0|0,1:0|0:0,0:0:0:0:
85,256,225624,2,0,L|15:265,1,63.7500024318696,0|0,3:0|0:0,0:0:0:0:
142,361,225801,22,0,P|238:377|311:398,1,127.500004863739,0|0,0:0|3:0,0:0:0:0:
479,301,226154,2,0,L|459:215,2,63.7500024318696,0|0|0,1:0|0:0|0:0,0:0:0:0:
437,376,226507,21,4,3:2:0:0:
236,181,226683,1,0,0:0:0:0:
512,89,226860,2,0,P|482:116|415:125,1,63.7500024318696,0|0,1:0|0:0,0:0:0:0:
377,177,227036,1,0,3:0:0:0:
385,169,227124,1,0,0:0:0:0:
390,159,227212,22,0,P|323:123|236:108,1,127.500004863739,0|0,1:0|3:0,0:0:0:0:
194,60,227566,1,0,1:0:0:0:
27,232,227742,1,0,3:0:0:0:
119,22,227919,22,0,P|97:110|88:201,1,127.500004863739,4|0,1:2|3:0,0:0:0:0:
27,232,228272,1,0,1:0:0:0:
161,384,228448,1,0,3:0:0:0:
38,313,228624,21,0,1:0:0:0:
236,355,228801,1,0,3:0:0:0:
377,223,228977,1,0,1:0:0:0:
382,47,229154,1,0,3:0:0:0:
389,56,229242,1,0,3:0:0:0:
398,63,229330,21,4,3:2:0:0:
336,123,229507,1,0,0:0:0:0:
425,146,229683,1,0,1:0:0:0:
425,146,229860,1,4,0:3:0:0:
308,37,230036,21,0,3:0:0:0:
251,217,230213,1,0,0:0:0:0:
227,10,230389,1,0,1:0:0:0:
170,190,230566,1,0,0:0:0:0:
148,33,230742,21,4,3:2:0:0:
327,192,230919,1,0,0:0:0:0:
0,197,231095,1,0,1:0:0:0:
179,356,231272,1,4,0:3:0:0:
59,55,231448,21,0,3:0:0:0:
400,0,231624,1,0,0:0:0:0:
453,329,231801,1,0,1:0:0:0:
112,384,231977,1,0,0:0:0:0:
478,245,232154,22,0,P|468:204|411:159,1,63.7500024318696,4|0,3:2|0:0,0:0:0:0:
306,314,232330,22,0,P|276:313|222:359,1,85,0|0,1:0|0:0,0:0:0:0:
183,117,232507,22,0,P|147:82|140:-6,1,106.25,0|0,1:0|0:0,0:0:0:0:
18,306,232683,1,8,0:3:0:0:
11,296,232772,1,8,0:3:0:0:
9,284,232860,22,0,B|85:269|85:269|117:286,1,106.25,0|0,1:0|0:0,0:0:0:0:
251,164,233036,2,0,B|327:179|327:179|359:162,1,106.25,8|0,0:3|0:0,0:0:0:0:
477,247,233213,1,4,0:3:0:0:
267,348,233389,22,0,B|275:296|275:296|170:239|170:239|183:174,1,212.5,4|0,3:2|0:0,0:0:0:0:
177,199,233742,22,0,B|206:222|206:222|213:283,1,63.7500024318696,4|0,3:2|0:0,0:0:0:0:
177,351,233919,1,4,3:2:0:0:
177,351,234272,21,2,0:0:0:0:
112,300,234448,1,2,0:0:0:0:
268,348,234624,1,2,0:0:0:0:
268,348,234713,1,2,0:0:0:0:
268,348,234801,2,0,P|283:338|313:334,1,31.8750012159348,2|2,0:0|0:0,0:0:0:0:
366,364,234977,22,0,P|374:303|385:232,1,127.500004863739,6|0,0:0|0:0,0:0:0:0:
314,185,235507,1,0,0:0:0:0:
496,80,235683,21,8,0:0:0:0:
452,149,235860,2,0,L|374:135,1,63.7500024318696,0|0,0:0|0:0,0:0:0:0:
282,61,236213,2,0,P|200:72|129:81,1,127.500004863739,0|0,0:0|0:0,0:0:0:0:
80,47,236742,1,0,0:0:0:0:
224,188,237095,21,8,0:0:0:0:
209,268,237272,1,0,0:0:0:0:
209,268,237624,22,0,P|277:274|354:288,1,127.500004863739
416,248,238154,2,0,P|435:212|427:172,1,63.7500024318696,0|0,0:0|0:0,0:0:0:0:
334,286,238507,1,8,0:0:0:0:
289,210,238683,2,0,P|290:178|307:151,1,63.7500024318696,0|0,0:0|0:0,0:0:0:0:
369,3,239036,22,0,P|378:65|379:129,1,127.500004863739
154,46,239566,1,0,0:0:0:0:
216,118,239742,1,0,0:0:0:0:
216,118,239830,1,0,0:0:0:0:
216,118,239919,2,0,P|265:100|289:70,1,63.7500024318696,8|0,0:0|0:0,0:0:0:0:
43,239,240272,1,0,3:0:0:0:
68,54,240448,1,0,0:0:0:0:
74,61,240536,1,0,0:0:0:0:
78,68,240624,22,0,P|100:157|105:181,1,85,4|0,3:2|3:0,0:0:0:0:
238,242,240977,2,0,P|216:331|211:355,1,85,0|0,3:0|3:0,0:0:0:0:
141,379,241242,1,0,0:0:0:0:
137,368,241330,21,0,3:0:0:0:
333,194,241507,1,0,3:0:0:0:
461,366,241683,2,0,P|401:361|349:348,1,85,0|0,3:0|3:0,0:0:0:0:
238,242,242036,22,0,B|255:195|223:154|204:177|179:125|201:72,1,170,4|0,3:2|3:0,0:0:0:0:
455,25,242566,1,0,3:0:0:0:
252,34,242742,2,0,P|311:62|364:77,1,85,0|0,3:0|3:0,0:0:0:0:
82,250,243095,2,0,P|141:222|194:207,1,85,0|0,3:0|3:0,0:0:0:0:
13,195,243448,37,2,0:0:0:0:
272,358,243978,1,2,0:0:0:0:
499,146,244507,1,2,0:0:0:0:
251,3,244860,38,0,P|246:26|258:52,1,42.5,0|0,1:3|0:0,0:0:0:0:
228,42,244949,6,0,P|236:64|258:81,1,42.5,8|0,0:3|0:0,0:0:0:0:
230,84,245037,38,0,P|248:98|276:102,1,42.5,8|0,0:3|0:0,0:0:0:0:
252,123,245125,6,0,P|275:127|301:114,1,42.5,8|0,0:3|0:0,0:0:0:0:
331,135,245213,37,4,0:3:0:0:
333,156,245301,1,4,0:3:0:0:
326,176,245389,1,4,0:3:0:0:
315,194,245477,1,4,0:3:0:0:
312,272,245566,6,0,P|285:239|245:226,1,85,0|0,3:0|0:0,0:0:0:0:
158,345,245742,2,0,P|149:303|164:264,1,85,0|0,3:0|0:0,0:0:0:0:
57,321,246095,38,0,P|136:301|276:353,1,212.5,4|0,3:1|0:0,0:0:0:0:
348,303,246624,6,0,B|321:328|329:381|329:381|273:333|257:240|323:171,1,318.75,8|0,1:2|0:0,0:0:0:0:
323,171,246977,37,0,3:0:0:0:
428,75,247154,2,0,P|424:122|401:161,1,76.4999976654053,0|0,3:0|0:0,0:0:0:0:
287,38,247330,2,0,P|271:72|270:110,1,76.4999976654053,0|0,1:0|0:0,0:0:0:0:
467,301,247507,6,0,P|352:264|245:262,1,229.499992996216,0|0,3:0|0:0,0:0:0:0:
115,253,247860,2,0,P|87:221|50:219,1,76.4999976654053,0|0,3:0|0:0,0:0:0:0:
133,338,248036,2,0,P|157:226|207:131,1,152.999995330811,0|0,1:0|0:0,0:0:0:0:
132,98,248301,1,0,3:0:0:0:
123,121,248389,37,0,3:0:0:0:
322,190,248566,1,0,3:0:0:0:
440,30,248742,1,0,1:0:0:0:
414,335,248919,6,0,P|366:233|261:317,1,229.499992996216,4|0,3:2|0:0,0:0:0:0:
275,277,249272,1,0,3:0:0:0:
45,222,249448,2,0,P|129:209|216:204,1,152.999995330811,0|0,1:0|0:0,0:0:0:0:
248,126,249713,1,0,0:0:0:0:
256,143,249801,37,0,3:0:0:0:
97,349,249977,1,0,3:0:0:0:
0,20,250154,1,0,1:0:0:0:
390,3,250330,6,0,B|381:69|320:84|320:84|281:28|218:44,1,229.499992996216,0|0,3:0|0:0,0:0:0:0:
217,52,250683,1,0,3:0:0:0:
17,220,250860,38,0,P|77:198|122:201,1,76.4999976654053,0|0,1:0|0:0,0:0:0:0:
243,296,251036,2,0,P|303:318|348:315,1,76.4999976654053,0|0,3:0|0:0,0:0:0:0:
502,181,251213,5,0,1:0:0:0:
494,163,251302,1,0,1:0:0:0:
471,132,251390,1,0,1:0:0:0:
417,109,251478,1,0,1:0:0:0:
345,134,251566,1,0,1:0:0:0:
407,222,251742,37,8,0:3:0:0:
242,84,251919,6,0,P|251:14|251:-39,1,85,4|0,3:1|0:0,0:0:0:0:
82,164,252272,37,0,1:0:0:0:
112,157,252448,1,0,0:0:0:0:
280,275,252624,5,0,3:0:0:0:
144,250,252800,1,0,3:0:0:0:
64,372,252977,37,0,1:0:0:0:
146,351,253153,1,0,0:0:0:0:
389,349,253330,6,0,L|382:250,1,85,0|0,3:0|0:0,0:0:0:0:
349,156,253683,1,0,1:0:0:0:
431,164,253860,2,0,P|407:218|282:200,1,170,0|0,3:0|3:0,0:0:0:0:
261,304,254389,38,0,B|218:276|223:222|223:222|208:274|163:293,1,191.250007295609,0|0,1:0|0:0,0:0:0:0:
151,311,254742,6,0,P|67:291|-4:290,1,127.5,4|0,3:2|0:0,0:0:0:0:
0,214,255095,2,0,P|60:194|109:198,1,85,0|0,1:0|0:0,0:0:0:0:
140,143,255360,1,0,3:0:0:0:
130,129,255448,37,0,3:0:0:0:
68,0,255624,1,0,3:0:0:0:
223,78,255801,2,0,P|286:63|334:61,1,85,0|0,1:0|3:0,0:0:0:0:
408,24,256066,1,0,3:0:0:0:
388,38,256154,6,0,P|381:68|380:97,1,42.5,0|0,3:0|0:0,0:0:0:0:
90,151,256330,38,0,P|110:173|142:188,1,63.7500024318696,0|0,3:0|0:0,0:0:0:0:
512,109,256507,6,0,P|481:141|463:178,1,85,0|0,1:0|0:0,0:0:0:0:
225,26,256683,38,0,P|223:81|278:140,1,106.25,0|0,3:0|0:0,0:0:0:0:
493,275,257036,5,0,3:0:0:0:
335,373,257213,1,0,1:0:0:0:
184,267,257389,1,0,1:0:0:0:
187,276,257477,1,0,1:0:0:0:
191,286,257566,38,0,P|279:210|245:160,1,191.250007295609,4|0,3:1|0:0,0:0:0:0:
243,171,257919,2,0,L|231:55,1,85,0|0,1:0|0:0,0:0:0:0:
271,0,258183,1,0,0:0:0:0:
268,16,258272,1,0,3:0:0:0:
141,112,258448,1,0,3:0:0:0:
26,0,258624,2,0,L|133:5,1,85,0|0,1:0|0:0,0:0:0:0:
178,209,258977,6,0,P|119:136|14:190,1,191.250007295609,0|0,3:0|0:0,0:0:0:0:
37,168,259330,1,0,1:0:0:0:
74,384,259507,2,0,P|79:298|101:202,1,170,0|0,3:3|3:0,0:0:0:0:
70,36,260036,38,0,P|132:119|237:82,1,191.250007295609,0|0,1:0|0:0,0:0:0:0:
280,49,260389,2,0,P|346:34|413:68,1,127.5,4|0,3:1|0:0,0:0:0:0:
483,26,260742,6,0,L|465:140,1,85,8|0,0:3|0:0,0:0:0:0:
403,146,261007,1,0,3:3:0:0:
411,159,261095,1,0,3:3:0:0:
504,204,261272,1,0,3:3:0:0:
373,245,261448,1,0,1:3:0:0:
465,288,261625,1,0,3:3:0:0:
300,358,261801,38,0,P|299:340|287:351,1,42.5,0|0,3:3|0:0,0:0:0:0:
211,264,261977,6,0,P|213:238|222:260,1,63.7500024318696,0|0,3:0|0:0,0:0:0:0:
312,168,262154,38,0,P|311:136|300:165,1,85,0|0,3:0|0:0,0:0:0:0:
193,75,262330,6,0,P|200:35|210:72,1,106.25,0|0,1:0|0:0,0:0:0:0:
410,63,262507,38,0,P|410:87|425:110,1,42.5,0|0,1:0|0:0,0:0:0:0:
395,106,262596,6,0,P|407:126|431:139,1,42.5,8|0,0:3|0:0,0:0:0:0:
404,147,262684,38,0,P|424:158|452:157,1,42.5,8|0,0:3|0:0,0:0:0:0:
432,181,262772,6,0,P|456:180|478:164,1,42.5,8|0,0:3|0:0,0:0:0:0:
424,215,262860,37,4,0:3:0:0:
420,241,262948,1,4,0:3:0:0:
416,267,263036,1,4,0:3:0:0:
412,293,263124,1,0,0:0:0:0:
459,359,263213,6,0,P|346:325|261:334,1,191.250007295609,4|0,3:1|0:0,0:0:0:0:
213,380,263566,2,0,P|235:280|238:221,1,127.500004863739,0|4,1:0|0:3,0:0:0:0:
184,182,263830,1,4,0:3:0:0:
201,187,263919,37,0,3:0:0:0:
369,123,264095,1,0,3:0:0:0:
248,0,264272,2,0,P|255:63|272:124,1,127.500004863739,0|0,1:0|3:0,0:0:0:0:
488,275,264624,6,0,P|402:215|279:246,1,191.250007295609,0|0,3:0|0:0,0:0:0:0:
259,274,264977,2,0,L|182:267,1,63.7500024318696,0|0,1:0|0:0,0:0:0:0:
55,66,265154,2,0,L|132:59,1,63.7500024318696,4|4,0:3|0:3,0:0:0:0:
131,179,265330,38,0,L|138:131,1,31.8750012159348,0|0,3:0|0:0,0:0:0:0:
135,185,265507,2,0,L|142:137,1,31.8750012159348,0|0,3:0|0:0,0:0:0:0:
139,191,265683,2,0,L|146:143,1,31.8750012159348,0|0,1:0|0:0,0:0:0:0:
143,197,265860,2,0,L|150:149,1,31.8750012159348,0|0,3:0|0:0,0:0:0:0:
98,316,266036,5,4,1:1:0:0:
270,153,266213,1,0,3:0:0:0:
0,178,266389,1,0,3:0:0:0:
129,31,266566,37,0,1:0:0:0:
254,243,266742,1,0,3:0:0:0:
489,170,266919,1,0,3:0:0:0:
321,353,267095,5,0,1:0:0:0:
373,21,267272,1,0,3:0:0:0:
321,353,267448,1,0,3:0:0:0:
76,90,267624,37,0,1:0:0:0:
475,253,267801,1,0,3:0:0:0:
180,358,267977,1,0,3:0:0:0:
455,71,268154,5,8,3:0:0:0:
144,17,268330,1,4,0:3:0:0:
475,253,268507,37,4,0:3:0:0:
12,338,268683,1,0,3:0:0:0:
340,156,268860,5,4,3:2:0:0:
338,170,270095,37,0,0:0:0:0:
339,163,270183,1,0,0:0:0:0:
340,156,270272,6,0,B|330:118|287:104|291:114|248:116|208:79|218:3|290:-16|335:23|335:23|354:-34|427:-53|474:8|457:61|419:80|417:69|382:86|399:128,1,510.000019454957,2|2,0:0|0:0,0:0:0:0:
417,174,271859,1,2,0:0:0:0:
473,123,272035,1,2,0:0:0:0:
478,270,272212,38,0,P|449:260|415:257,1,63.7500024318696,2|0,0:0|0:0,0:0:0:0:
323,153,272565,2,0,P|342:191|345:238,1,63.7500024318696,2|0,0:0|0:0,0:0:0:0:
212,301,272918,1,0,0:0:0:0:
217,308,273007,1,0,0:0:0:0:
221,317,273095,6,0,B|292:292|367:291,1,127.500004863739,2|0,0:0|0:0,0:0:0:0:
441,141,273624,1,2,0:0:0:0:
383,90,273800,38,0,P|406:69|437:64,1,63.7500024318696,2|0,0:0|0:0,0:0:0:0:
476,0,274065,1,2,0:0:0:0:
476,0,274153,2,0,P|503:20|513:56,1,63.7500024318696,0|2,0:0|0:0,0:0:0:0:
386,5,274506,5,2,0:0:0:0:
302,65,274682,1,2,0:0:0:0:
215,20,274859,1,2,0:0:0:0:
215,171,275036,38,0,L|222:107,1,63.7500024318696,2|0,0:0|0:0,0:0:0:0:
65,146,275388,1,0,0:0:0:0:
126,21,275566,2,0,L|133:84,1,63.7500024318696,2|0,0:0|0:0,0:0:0:0:
76,297,275919,6,0,P|121:229|178:250,1,127.500004863739,2|0,0:0|0:0,0:0:0:0:
259,261,276448,1,2,0:0:0:0:
250,265,276536,1,2,0:0:0:0:
241,269,276624,2,0,L|226:147,2,95.6250036478044,2|2|2,0:0|0:0|0:0,0:0:0:0:
206,338,277330,37,2,0:3:0:0:
315,384,277683,2,0,L|306:290,1,63.7500024318696,0|0,3:3|0:0,0:0:0:0:
398,231,278036,2,0,P|397:285|369:303,1,63.7500024318696,8|0,3:2|0:0,0:0:0:0:
266,146,278388,1,0,3:3:0:0:
177,265,278565,1,0,3:3:0:0:
177,265,278653,1,0,3:3:0:0:
177,265,278742,6,0,P|257:246|329:242,1,144.500002756119,0|2,3:3|3:3,0:0:0:0:
471,292,279271,1,0,0:0:0:0:
401,144,279447,2,0,P|405:199|416:234,1,72.2500013780594,8|0,3:2|3:3,0:0:0:0:
464,90,279801,2,0,P|434:64|398:64,1,72.2500013780594,0|0,3:3|0:0,0:0:0:0:
275,0,280154,38,0,P|285:73|309:157,1,144.500002756119,0|2,3:0|3:0,0:0:0:0:
213,216,280682,1,0,0:0:0:0:
112,96,280859,2,0,P|120:141|125:178,1,72.2500013780594,8|0,3:2|0:0,0:0:0:0:
40,13,281124,1,0,3:0:0:0:
49,26,281212,2,0,P|94:18|130:10,1,72.2500013780594,0|0,3:0|3:0,0:0:0:0:
284,65,281566,6,0,L|282:36,7,21.25,0|0|0|0|2|0|0|0,3:0|0:0|3:0|0:0|3:0|0:0|3:0|3:0,0:0:0:0:
291,96,282272,38,0,P|314:91|340:103,1,42.5,2|0,0:0|0:0,0:0:0:0:
330,73,282361,6,0,P|352:81|369:103,1,42.5,2|0,0:0|0:0,0:0:0:0:
372,75,282449,38,0,P|386:93|390:121,1,42.5,2|0,0:0|0:0,0:0:0:0:
411,97,282537,6,0,P|415:120|402:146,1,42.5,2|0,0:0|0:0,0:0:0:0:
337,172,282624,38,0,L|344:246,3,55.2499974708558,2|2|2|2,0:0|0:0|0:0|0:0,0:0:0:0:
355,238,282977,38,0,B|340:100|340:100|458:123|458:123|403:190,1,318.75,4|0,3:2|0:0,0:0:0:0:
402,344,283330,6,0,P|464:339|506:293,1,127.500004863739,0|0,1:0|0:0,0:0:0:0:
275,228,283683,1,0,3:0:0:0:
275,228,283860,1,0,3:0:0:0:
404,173,284036,2,0,P|356:216|357:301,1,127.500004863739,0|0,1:0|0:0,0:0:0:0:
301,341,284301,1,0,0:0:0:0:
293,351,284389,38,0,P|347:333|437:325,1,127.500004863739,0|0,3:0|0:0,0:0:0:0:
485,196,284742,1,0,1:0:0:0:
294,55,284919,2,0,B|214:49|214:49|264:224,1,255.000009727478,0|0,3:0|3:0,0:0:0:0:
116,342,285448,2,0,P|155:332|190:306,1,63.7500024318696,0|0,1:0|0:0,0:0:0:0:
0,54,285624,6,0,P|94:136|119:269,1,255.000009727478,4|0,3:2|3:0,0:0:0:0:
287,118,286154,2,0,B|248:122|223:105|223:105|226:134|179:171,1,127.500004863739,0|0,1:0|0:0,0:0:0:0:
300,292,286507,1,0,3:0:0:0:
331,33,286683,1,0,3:0:0:0:
300,292,286860,2,0,B|330:267|361:269|361:269|343:246|363:189,1,127.500004863739,0|0,1:0|0:0,0:0:0:0:
485,109,287213,38,0,B|361:96|398:231|261:207,1,255.000009727478,0|0,3:0|1:0,0:0:0:0:
60,86,287742,1,0,1:0:0:0:
76,94,287830,1,0,1:0:0:0:
84,111,287919,1,0,1:0:0:0:
130,311,288095,1,0,1:0:0:0:
262,76,288272,2,0,P|243:108|240:145,1,63.7500024318696,0|0,1:0|0:0,0:0:0:0:
130,311,288448,6,0,P|152:213|160:46,1,255.000009727478,4|0,3:2|3:0,0:0:0:0:
100,9,288889,1,0,3:0:0:0:
94,2,288977,1,0,1:0:0:0:
238,214,289154,1,0,0:0:0:0:
453,193,289330,2,0,P|415:193|380:161,1,63.7500024318696,0|0,3:0|0:0,0:0:0:0:
473,113,289507,2,0,P|445:98|413:100,1,63.7500024318696,0|0,3:0|0:0,0:0:0:0:
403,305,289683,2,0,P|343:278|327:208,1,127.500004863739,0|0,1:0|0:0,0:0:0:0:
324,222,290036,38,0,P|403:244|491:388,1,255.000009727478,0|0,3:0|1:0,0:0:0:0:
245,283,290566,1,0,3:0:0:0:
245,283,290919,1,0,3:0:0:0:
234,366,291095,2,0,P|271:363|303:336,1,63.7500024318696,0|0,1:0|0:0,0:0:0:0:
163,156,291272,6,0,P|235:233|382:265,1,255.000009727478,4|0,1:2|3:0,0:0:0:0:
512,133,291801,2,0,B|465:81|465:81|398:100,1,127.500004863739,0|0,1:0|0:0,0:0:0:0:
319,183,292154,1,0,3:0:0:0:
256,18,292330,1,0,3:0:0:0:
319,183,292507,2,0,P|309:146|320:110,1,63.7500024318696,0|0,1:0|0:0,0:0:0:0:
414,14,292683,1,0,3:0:0:0:
320,210,292860,38,0,P|297:144|328:79,1,127.500004863739,8|4,0:3|0:3,0:0:0:0:
172,18,293124,1,4,0:3:0:0:
166,29,293213,2,0,P|145:44|99:44,1,63.7500024318696,4|0,0:3|0:0,0:0:0:0:
16,59,293389,2,0,P|0:32|7:-17,1,63.7500024318696,8|0,0:3|0:0,0:0:0:0:
160,113,293566,5,0,1:3:0:0:
84,123,293654,1,0,1:3:0:0:
34,181,293742,1,0,1:3:0:0:
49,255,293830,1,0,1:3:0:0:
109,301,293919,2,0,P|142:287|180:280,1,63.7500024318696,0|0,1:3|0:0,0:0:0:0:
209,348,294095,38,0,P|163:387|92:367,1,127.5,4|0,3:1|0:0,0:0:0:0:
91,299,294448,6,0,P|133:267|199:283,1,106.25,0|0,3:0|3:0,0:0:0:0:
332,292,294624,38,0,P|205:266|161:90,1,318.75,8|0,1:2|0:0,0:0:0:0:
214,37,294977,1,0,1:0:0:0:
377,130,295154,1,0,3:0:0:0:
377,137,295330,1,0,1:0:0:0:
214,44,295507,1,0,3:0:0:0:
94,201,295683,1,0,1:0:0:0:
257,294,295860,1,0,3:0:0:0:
257,287,296036,1,0,1:0:0:0:
94,194,296213,1,0,3:0:0:0:
192,136,296389,5,0,1:0:0:0:
149,376,296566,2,0,P|147:342|141:302,1,63.7500024318696,0|0,3:0|0:0,0:0:0:0:
324,384,296742,2,0,P|326:350|332:310,1,63.7500024318696,0|0,1:0|0:0,0:0:0:0:
376,178,296919,38,0,P|294:181|249:282,1,191.250007295609,4|0,3:2|0:0,0:0:0:0:
257,262,297272,2,0,L|183:246,1,63.7500024318696,0|0,3:0|0:0,0:0:0:0:
151,176,297448,5,0,1:0:0:0:
392,268,297624,1,0,0:0:0:0:
216,71,297801,1,0,1:0:0:0:
377,186,297977,1,0,3:0:0:0:
340,39,298154,1,0,1:0:0:0:
425,117,298330,1,0,3:0:0:0:
247,222,298507,38,0,P|259:161|316:123,1,127.500004863739,0|0,1:0|3:0,0:0:0:0:
467,202,298860,1,0,1:0:0:0:
167,241,299036,2,0,L|152:154,1,63.7500024318696,0|0,3:0|0:0,0:0:0:0:
91,65,299213,6,0,P|130:66|166:113,1,85,0|0,1:0|0:0,0:0:0:0:
251,0,299389,2,0,P|284:20|291:79,1,85,0|0,1:0|0:0,0:0:0:0:
444,36,299566,2,0,P|462:70|439:124,1,85,0|0,1:0|0:0,0:0:0:0:
302,246,299742,38,0,B|252:224|252:224|476:214|476:214|408:194,1,340,4|0,3:1|3:0,0:0:0:0:
334,144,300183,1,0,3:0:0:0:
334,135,300272,1,8,1:2:0:0:
382,326,300448,1,0,0:0:0:0:
190,285,300624,1,0,1:0:0:0:
378,333,300801,1,0,3:0:0:0:
506,188,300977,1,0,1:0:0:0:
372,343,301154,1,0,3:0:0:0:
250,168,301330,6,0,P|262:83|268:28,1,127.500004863739,0|0,1:0|3:0,0:0:0:0:
290,252,301683,1,0,1:0:0:0:
165,129,301860,1,0,3:0:0:0:
290,252,302036,2,0,P|324:241|377:260,1,63.7500024318696,0|0,1:0|0:0,0:0:0:0:
434,109,302213,1,0,3:0:0:0:
355,327,302389,2,0,P|321:338|268:319,1,63.7500024318696,0|0,1:0|0:0,0:0:0:0:
73,336,302566,38,0,B|12:206|12:206|93:179|93:179|87:220,1,255,0|0,3:0|0:0,0:0:0:0:
158,318,302919,6,0,L|177:237,1,63.7500024318696,0|0,3:0|0:0,0:0:0:0:
199,70,303095,2,0,L|218:-11,1,63.7500024318696,0|0,3:0|0:0,0:0:0:0:
162,335,303272,2,0,L|211:124,1,191.250007295609,0|0,1:0|0:0,0:0:0:0:
328,21,303624,38,0,L|347:102,1,63.7500024318696,8|8,0:3|0:3,0:0:0:0:
369,269,303800,2,0,L|388:350,1,63.7500024318696,4|0,0:3|0:0,0:0:0:0:
332,4,303977,2,0,L|381:215,1,191.250007295609,0|0,1:0|0:0,0:0:0:0:
512,273,304330,6,0,P|479:266|458:224,1,63.7500024318696,8|0,0:3|0:0,0:0:0:0:
235,183,304507,2,0,P|267:176|289:134,1,63.7500024318696,4|0,0:3|0:0,0:0:0:0:
512,14,304683,38,0,P|444:81|449:154,1,170,4|0,0:3|0:0,0:0:0:0:
358,278,304948,5,0,0:0:0:0:
341,283,305036,1,0,3:0:0:0:
324,287,305124,1,0,3:0:0:0:
307,291,305213,37,8,1:2:0:0:
277,220,305301,1,0,1:0:0:0:
250,148,305389,1,0,1:0:0:0:
224,75,305477,1,0,1:0:0:0:
190,5,305566,6,0,P|146:11|125:61,1,85,4|0,3:2|0:0,0:0:0:0:
0,75,305742,2,0,P|-16:37|0:0,1,85,0|0,3:0|0:0,0:0:0:0:
266,173,305919,2,0,P|238:137|185:144,1,85,0|0,1:0|0:0,0:0:0:0:
0,166,306095,2,0,B|59:157|59:157|167:256|167:256|230:247,1,255,0|0,3:0|0:0,0:0:0:0:
370,153,306448,1,0,3:0:0:0:
370,153,306536,1,0,0:0:0:0:
370,153,306624,38,0,P|378:111|400:72,1,85,4|0,3:2|0:0,0:0:0:0:
168,85,306801,2,0,P|175:127|195:165,1,85,0|0,3:0|0:0,0:0:0:0:
512,274,306977,2,0,P|477:294|425:295,1,85,0|0,1:0|0:0,0:0:0:0:
246,384,307154,2,0,B|204:280|293:279|290:205|290:205|312:256|343:273,1,255,0|0,3:0|0:0,0:0:0:0:
417,380,307507,1,0,1:0:0:0:
417,380,307595,1,0,1:0:0:0:
417,380,307683,6,0,P|367:366|346:327,1,85,4|0,1:2|0:0,0:0:0:0:
442,185,307860,1,0,3:0:0:0:
169,279,308036,1,0,3:0:0:0:
295,9,308213,38,0,L|266:212,1,191.250007295609,4|2,3:2|0:0,0:0:0:0:
267,198,309095,1,2,0:0:0:0:
267,198,309448,6,0,P|222:192|250:168,1,106.25,2|0,3:2|0:0,0:0:0:0:
255,156,309624,38,0,P|211:207|278:202,1,170,0|0,1:0|0:0,0:0:0:0:
