osu file format v14

[General]
AudioFilename: sleepwalker.mp3
AudioLeadIn: 0
PreviewTime: 76091
Countdown: 0
SampleSet: Soft
StackLeniency: 0.3
Mode: 0
LetterboxInBreaks: 0
WidescreenStoryboard: 1

[Editor]
Bookmarks: 2591,14591,35591,38591,50591,56591,62591,68591,69716,70091,70466,70841,71216,71591,74591,75153,75903,77591,101591,102341,107591,108341,110591,111341,113591,114341,119591,120341,122591,123341,125591,128591
DistanceSpacing: 2.5
BeatDivisor: 4
GridSize: 32
TimelineZoom: 1.5

[Metadata]
Title:Sleepwalker (ft. Joni Fatora)
TitleUnicode:Sleepwalker (ft. Joni Fatora)
Artist:Illenium
ArtistUnicode:Illenium
Creator:zhu
Version:hyper's Hyper
Source:
Tags:starset hypercyte peter hootowlstar armin a_r_m_i_n cut version ashes hb24 donjuan
BeatmapID:1772213
BeatmapSetID:760403

[Difficulty]
HPDrainRate:5.5
CircleSize:3.5
OverallDifficulty:6.5
ApproachRate:8.5
SliderMultiplier:1.6
SliderTickRate:1

[Events]
//Background and Video events
0,0,"bg.jpg",0,0
//Break Periods
2,38603,49541
//Storyboard Layer 0 (Background)
//Storyboard Layer 1 (Fail)
//Storyboard Layer 2 (Pass)
//Storyboard Layer 3 (Foreground)
//Storyboard Sound Samples

[TimingPoints]
341,375,4,2,1,5,1,0
2591,375,4,2,1,35,1,0
2591,-166.666666666667,4,2,1,35,0,0
11591,-153.846153846154,4,2,1,35,0,0
14591,-153.846153846154,4,2,1,45,0,0
23591,-200,4,2,1,35,0,0
26591,-142.857142857143,4,2,1,45,0,0
35497,-142.857142857143,4,2,1,5,0,0
35591,-200,4,2,1,35,0,0
50216,-200,4,2,1,50,0,0
50591,-153.846153846154,4,2,1,50,0,0
56591,-133.333333333333,4,2,1,40,0,0
67466,-111.111111111111,4,2,1,40,0,0
70091,-111.111111111111,4,2,1,45,0,0
70466,-111.111111111111,4,2,1,50,0,0
70841,-111.111111111111,4,2,1,55,0,0
71216,-111.111111111111,4,2,1,60,0,0
71591,-111.111111111111,4,2,1,60,0,0
73091,-111.111111111111,4,2,1,65,0,0
76841,-100,4,2,1,65,0,0
77122,-100,4,2,1,5,0,0
77216,-200,4,2,1,55,0,0
77591,-100,4,2,2,70,0,1
101591,-133.333333333333,4,2,2,50,0,0
101966,-133.333333333333,4,2,2,40,0,0
102341,-100,4,2,2,70,0,1
107591,-153.846153846154,4,2,2,40,0,0
108341,-100,4,2,2,70,0,1
110591,-153.846153846154,4,2,2,40,0,0
111341,-100,4,2,2,70,0,1
113591,-153.846153846154,4,2,2,40,0,0
114341,-100,4,2,2,70,0,1
119591,-153.846153846154,4,2,2,40,0,0
120341,-100,4,2,2,70,0,1
122591,-153.846153846154,4,2,2,40,0,0
123341,-100,4,2,2,60,0,1
125591,-181.818181818182,4,2,2,30,0,0

[Colours]
Combo1 : 186,192,163
Combo2 : 167,141,199
Combo3 : 40,136,232
SliderBorder : 255,255,255
SliderTrackOverride : 0,0,0

[HitObjects]
256,192,341,12,0,2403,0:0:0:0:
233,187,2591,6,0,L|237:140,2,47.9999985351563,2|2|2,0:0|0:0|0:0,0:0:0:0:
124,92,3153,2,0,L|131:187,1,95.9999970703126,2|0,0:0|0:0,0:0:0:0:
339,93,3903,2,0,L|331:188,1,95.9999970703126,2|0,0:0|0:0,0:0:0:0:
114,82,4653,2,0,L|121:177,1,95.9999970703126,2|0,0:0|0:0,0:0:0:0:
233,185,5216,2,0,L|229:232,1,47.9999985351563,2|0,0:0|0:0,0:0:0:0:
311,108,5591,6,0,P|338:106|360:109,2,47.9999985351563,2|2|2,0:0|0:0|0:0,0:0:0:0:
170,19,6153,2,0,P|224:31|263:18,1,95.9999970703126,2|0,0:0|0:0,0:0:0:0:
26,97,6903,2,0,P|80:85|119:98,1,95.9999970703126,2|0,0:0|0:0,0:0:0:0:
271,28,7653,2,0,P|225:41|180:29,1,95.9999970703126,2|0,0:0|0:0,0:0:0:0:
266,124,8216,2,0,P|275:153|274:178,1,47.9999985351563,2|0,0:0|0:0,0:0:0:0:
220,302,8591,6,0,L|225:235,2,47.9999985351563,2|2|2,0:0|0:0|0:0,0:0:0:0:
91,185,9153,2,0,B|110:168|110:168|189:171,1,95.9999970703126,2|0,0:0|0:0,0:0:0:0:
348,84,9903,2,0,B|329:101|329:101|250:98,1,95.9999970703126,2|0,0:0|0:0,0:0:0:0:
84,194,10653,2,0,B|103:177|103:177|182:180,2,95.9999970703126,2|0|2,0:0|0:0|0:0,0:0:0:0:
131,260,11591,5,2,0:0:0:0:
13,233,11778,2,0,P|27:255|63:271,1,51.999997619629,2|2,0:0|0:0,0:0:0:0:
250,230,12153,2,0,P|224:256|218:322,1,103.999995239258,2|0,0:0|0:0,0:0:0:0:
297,300,12716,1,2,0:0:0:0:
270,150,12903,2,0,P|316:179|331:233,1,103.999995239258,2|0,0:0|0:0,0:0:0:0:
250,230,13466,1,2,0:0:0:0:
361,110,13653,2,0,L|481:116,2,103.999995239258,2|0|2,0:0|0:0|0:0,0:0:0:0:
110,99,14591,5,8,0:0:0:0:
110,99,15341,1,8,0:0:0:0:
279,104,15716,1,0,0:0:0:0:
210,187,15903,2,0,L|205:295,1,103.999995239258,6|0,0:0|0:0,0:0:0:0:
197,384,16466,1,2,0:0:0:0:
312,303,16841,2,0,P|356:285|424:309,1,103.999995239258,10|2,0:0|0:0,0:0:0:0:
507,384,17591,5,6,0:0:0:0:
507,384,18341,2,0,L|504:332,1,51.999997619629,10|4,0:0|0:0,0:0:0:0:
499,224,18716,1,6,0:0:0:0:
495,118,18903,2,0,L|492:0,1,103.999995239258,6|0,0:0|0:0,0:0:0:0:
194,137,19841,2,0,P|147:143|83:113,1,103.999995239258,10|2,0:0|0:0,0:0:0:0:
7,0,20591,5,6,0:0:0:0:
7,0,21341,1,10,0:0:0:0:
95,123,21716,1,0,0:0:0:0:
37,218,21903,2,0,L|39:337,1,103.999995239258,6|0,0:0|0:0,0:0:0:0:
202,377,22841,1,10,0:0:0:0:
291,240,23216,2,0,P|253:247|203:238,1,77.9999964294435,2|0,0:0|0:0,0:0:0:0:
101,249,23591,6,0,P|162:228|227:249,1,120,6|2,0:0|0:0,0:0:0:0:
202,377,24341,1,0,0:0:0:0:
323,323,24716,1,2,0:0:0:0:
295,161,24903,2,0,L|291:241,1,80,2|0,0:0|0:0,0:0:0:0:
323,323,25466,1,2,0:0:0:0:
457,259,25653,2,0,P|426:248|370:256,1,80,2|0,0:0|0:0,0:0:0:0:
449,81,26216,1,2,0:0:0:0:
483,167,26403,1,2,0:0:0:0:
386,4,26591,5,6,0:0:0:0:
343,88,26778,1,0,0:0:0:0:
304,187,26966,2,0,L|377:181,1,55.9999982910157,2|0,0:0|0:0,0:0:0:0:
246,102,27341,2,0,L|110:92,1,111.999996582031,10|0,0:0|0:0,0:0:0:0:
153,250,27903,2,0,P|168:221|171:197,1,55.9999982910157,6|0,0:0|0:0,0:0:0:0:
134,94,28278,1,0,0:0:0:0:
29,224,28466,2,0,P|59:211|76:194,1,55.9999982910157,6|0,0:0|0:0,0:0:0:0:
95,19,28841,2,0,P|56:57|58:129,1,111.999996582031,10|2,0:0|0:0,0:0:0:0:
134,94,29403,1,0,0:0:0:0:
292,27,29591,6,0,L|181:24,1,111.999996582031,6|0,0:0|0:0,0:0:0:0:
134,94,30153,1,2,0:0:0:0:
196,219,30341,2,0,P|231:201|318:210,1,111.999996582031,10|6,0:0|0:0,0:0:0:0:
395,331,30903,2,0,P|386:299|388:273,1,55.9999982910157,6|0,0:0|0:0,0:0:0:0:
511,163,31278,1,4,0:0:0:0:
423,200,31466,2,0,L|427:139,1,55.9999982910157,6|0,0:0|0:0,0:0:0:0:
298,328,31841,1,10,0:0:0:0:
209,347,32028,1,0,0:0:0:0:
132,297,32216,2,0,L|131:231,1,55.9999982910157,2|0,0:0|0:0,0:0:0:0:
91,78,32591,5,6,0:0:0:0:
184,132,32778,1,0,0:0:0:0:
278,82,32966,2,0,L|341:80,1,55.9999982910157,0|2,0:0|0:0,0:0:0:0:
496,145,33341,2,0,P|441:134|392:159,1,111.999996582031,10|0,0:0|0:0,0:0:0:0:
336,270,33903,2,0,P|390:259|439:284,1,111.999996582031,2|0,0:0|0:0,0:0:0:0:
252,342,34466,2,0,L|251:285,1,55.9999982910157,6|0,0:0|0:0,0:0:0:0:
135,144,34841,2,0,L|134:199,1,55.9999982910157,10|0,0:0|0:0,0:0:0:0:
136,297,35216,1,2,0:0:0:0:
287,213,35403,2,0,P|265:206|243:206,1,27.9999991455078,0|0,0:0|0:0,0:0:0:0:
225,208,35591,5,6,0:0:0:0:
344,274,36153,1,2,0:0:0:0:
352,284,36341,2,0,L|351:331,1,40,6|0,0:0|0:0,0:0:0:0:
436,174,36716,1,0,0:0:0:0:
428,184,36903,2,0,L|429:231,1,40,2|0,0:0|0:0,0:0:0:0:
353,88,37278,2,0,L|352:127,2,40,2|4|2,0:0|0:0|0:0,0:0:0:0:
302,197,37841,2,0,P|266:184|209:191,1,80,2|0,0:0|0:0,0:0:0:0:
152,245,38403,1,4,0:0:0:0:
327,98,50216,5,4,0:0:0:0:
251,272,50403,1,4,0:0:0:0:
198,65,50591,6,0,L|202:176,1,103.999995239258,2|0,0:0|0:0,0:0:0:0:
318,321,51153,2,0,P|335:272|316:221,1,103.999995239258,2|0,0:0|0:0,0:0:0:0:
124,201,51716,2,0,P|157:240|211:249,1,103.999995239258,2|2,0:0|0:0,0:0:0:0:
337,95,52278,2,0,P|286:104|251:146,1,103.999995239258,0|2,0:0|0:0,0:0:0:0:
407,39,52841,2,0,P|421:65|425:100,1,51.999997619629,6|0,0:0|0:0,0:0:0:0:
184,88,53216,2,0,P|170:114|166:149,1,51.999997619629,6|0,0:0|0:0,0:0:0:0:
328,250,53591,5,6,0:0:0:0:
271,59,53778,1,6,0:0:0:0:
271,59,54153,2,0,B|295:46|295:46|384:49,1,103.999995239258,2|0,0:0|0:0,0:0:0:0:
488,134,54716,2,0,L|433:132,1,51.999997619629,2|0,0:0|0:0,0:0:0:0:
418,344,55091,2,0,P|437:321|447:286,1,51.999997619629,6|0,0:0|0:0,0:0:0:0:
456,216,55466,1,0,0:0:0:0:
313,256,55653,1,6,0:0:0:0:
488,134,55841,2,0,L|484:78,1,51.999997619629,6|0,0:0|0:0,0:0:0:0:
313,256,56216,2,0,L|309:312,1,51.999997619629,6|0,0:0|0:0,0:0:0:0:
181,66,56591,6,0,P|149:48|64:62,1,120.000004577637,2|0,0:0|0:0,0:0:0:0:
271,102,57153,2,0,P|302:83|330:6,1,120.000004577637,2|0,0:0|0:0,0:0:0:0:
188,165,57716,2,0,P|188:201|241:264,1,120.000004577637,2|2,0:0|0:0,0:0:0:0:
334,259,58278,1,0,0:0:0:0:
395,142,58466,1,0,0:0:0:0:
400,365,58653,1,6,0:0:0:0:
511,188,58841,1,6,0:0:0:0:
511,324,59028,1,0,0:0:0:0:
334,259,59216,1,2,0:0:0:0:
511,188,59403,1,0,0:0:0:0:
395,142,59591,5,2,0:0:0:0:
420,286,59778,2,0,L|420:160,1,120.000004577637,2|2,0:0|0:0,0:0:0:0:
302,38,60341,2,0,L|301:108,1,60.0000022888184,6|0,0:0|0:0,0:0:0:0:
226,260,60716,1,0,0:0:0:0:
203,134,60903,1,2,0:0:0:0:
47,263,61091,2,0,P|75:230|161:218,1,120.000004577637,2|0,0:0|0:0,0:0:0:0:
274,337,61653,1,6,0:0:0:0:
337,156,61841,2,0,L|335:242,1,60.0000022888184,6|0,0:0|0:0,0:0:0:0:
226,59,62216,1,6,0:0:0:0:
236,161,62403,1,0,0:0:0:0:
399,47,62591,5,2,0:0:0:0:
401,57,62966,1,2,0:0:0:0:
403,67,63341,1,2,0:0:0:0:
405,77,63716,1,2,0:0:0:0:
365,195,64091,5,2,0:0:0:0:
363,205,64466,1,2,0:0:0:0:
361,215,64841,1,2,0:0:0:0:
359,225,65216,1,2,0:0:0:0:
456,334,65591,5,2,0:0:0:0:
458,344,65966,1,2,0:0:0:0:
460,354,66341,1,2,0:0:0:0:
462,364,66716,1,2,0:0:0:0:
332,269,67091,6,0,P|296:265|268:277,1,60.0000022888184,2|0,0:0|0:0,0:0:0:0:
171,356,67466,2,0,B|182:333|182:333|180:240,1,107.999996704102,2|0,0:0|0:0,0:0:0:0:
190,145,67841,2,0,B|179:168|179:168|180:250,1,107.999996704102,2|0,0:0|0:0,0:0:0:0:
275,344,68216,2,0,L|274:272,1,71.9999978027344,2|0,0:0|0:0,0:0:0:0:
364,122,68591,6,0,L|363:194,3,71.9999978027344,2|2|2|2,0:0|0:0|0:0|0:0,0:0:0:0:
447,36,69341,2,0,L|447:111,1,71.9999978027344,2|2,0:0|0:0,0:0:0:0:
278,264,69716,2,0,L|278:189,1,71.9999978027344,2|2,0:0|0:0,0:0:0:0:
453,225,70091,5,2,0:0:0:0:
418,356,70278,1,2,0:0:0:0:
455,213,70466,1,2,0:0:0:0:
415,367,70653,1,2,0:0:0:0:
278,192,70841,5,2,0:0:0:0:
322,360,71028,1,2,0:0:0:0:
273,175,71216,1,2,0:0:0:0:
324,374,71403,1,2,0:0:0:0:
155,347,71591,6,0,L|95:344,3,35.9999989013672,4|0|0|0,0:0|0:0|0:0|0:0,0:0:0:0:
106,263,71966,2,0,L|47:247,3,35.9999989013672,4|0|0|0,0:0|0:0|0:0|0:0,0:0:0:0:
67,169,72341,2,0,L|13:141,3,35.9999989013672,4|4|4|4,0:0|0:0|0:0|0:0,0:0:0:0:
46,68,72716,2,0,L|-1:30,3,35.9999989013672,4|4|4|4,0:0|0:0|0:0|0:0,0:0:0:0:
136,107,73091,6,0,L|182:69,3,35.9999989013672,6|6|6|6,0:0|0:0|0:0|0:0,0:0:0:0:
250,127,73466,2,0,L|287:80,3,35.9999989013672,6|6|6|6,0:0|0:0|0:0|0:0,0:0:0:0:
328,32,73841,1,6,0:0:0:0:
361,20,73934,1,6,0:0:0:0:
397,25,74028,1,6,0:0:0:0:
426,45,74122,1,6,0:0:0:0:
443,77,74216,1,6,0:0:0:0:
445,112,74309,1,6,0:0:0:0:
430,145,74403,1,6,0:0:0:0:
403,167,74497,1,6,0:0:0:0:
368,175,74591,5,6,0:0:0:0:
256,192,75341,12,0,76747,0:0:0:0:
116,172,76841,6,0,P|165:156|234:192,1,120,8|0,0:0|0:0,0:0:0:0:
253,232,77216,6,0,L|253:170,1,60,0|0,0:0|0:0,0:0:0:0:
205,77,77591,6,0,B|240:93|240:93|375:93,1,160,6|0,0:0|0:0,0:0:0:0:
261,4,78153,1,2,0:0:0:0:
407,166,78341,2,0,P|435:139|446:101,1,80,10|0,0:0|0:0,0:0:0:0:
309,181,78716,1,2,0:0:0:0:
351,334,78903,6,0,P|296:280|194:314,1,160,0|0,0:0|0:0,0:0:0:0:
177,380,79466,1,2,0:0:0:0:
152,230,79653,1,0,0:0:0:0:
10,384,79841,2,0,L|7:299,1,80,10|0,0:0|0:0,0:0:0:0:
81,164,80216,1,2,0:0:0:0:
137,317,80403,6,0,P|199:308|236:216,1,160,2|0,0:0|0:0,0:0:0:0:
193,150,80966,1,0,0:0:0:0:
332,200,81153,1,2,0:0:0:0:
274,13,81341,2,0,L|274:93,1,80,10|0,0:0|0:0,0:0:0:0:
238,226,81716,1,2,0:0:0:0:
390,124,81903,6,0,P|429:190|403:263,1,160,0|0,0:0|0:0,0:0:0:0:
307,292,82466,1,0,0:0:0:0:
265,134,82653,1,2,0:0:0:0:
143,337,82841,2,0,L|223:344,1,80,10|0,0:0|0:0,0:0:0:0:
142,240,83216,1,2,0:0:0:0:
64,384,83403,1,2,0:0:0:0:
10,203,83591,5,6,0:0:0:0:
61,376,83778,1,0,0:0:0:0:
137,225,83966,1,0,0:0:0:0:
59,369,84153,1,2,0:0:0:0:
0,190,84341,2,0,L|3:276,1,80,10|0,0:0|0:0,0:0:0:0:
86,137,84716,1,2,0:0:0:0:
222,231,84903,6,0,P|202:284|91:296,1,160,0|0,0:0|0:0,0:0:0:0:
137,226,85466,1,2,0:0:0:0:
285,321,85653,1,0,0:0:0:0:
302,115,85841,2,0,L|197:122,1,80,10|0,0:0|0:0,0:0:0:0:
137,226,86216,1,2,0:0:0:0:
52,135,86403,6,0,P|84:181|75:285,1,160,2|0,0:0|0:0,0:0:0:0:
2,370,86966,1,0,0:0:0:0:
171,347,87153,1,6,0:0:0:0:
292,138,87341,2,0,L|291:232,1,80,10|0,0:0|0:0,0:0:0:0:
171,347,87716,1,6,0:0:0:0:
130,181,87903,1,0,0:0:0:0:
292,218,88091,5,6,0:0:0:0:
171,347,88278,1,6,0:0:0:0:
171,347,88466,2,0,L|170:267,1,80,6|0,0:0|0:0,0:0:0:0:
399,289,88841,2,0,P|368:328|325:339,1,80,10|2,0:0|0:0,0:0:0:0:
373,106,89216,1,10,0:0:0:0:
502,273,89403,1,10,0:0:0:0:
271,210,89591,6,0,B|306:194|306:194|441:194,1,160,6|0,0:0|0:0,0:0:0:0:
338,279,90153,1,2,0:0:0:0:
471,124,90341,2,0,P|500:151|511:190,1,80,10|0,0:0|0:0,0:0:0:0:
424,303,90716,1,2,0:0:0:0:
339,175,90903,6,0,B|306:152|306:152|180:152,1,160,0|0,0:0|0:0,0:0:0:0:
124,261,91466,1,2,0:0:0:0:
34,115,91653,1,0,0:0:0:0:
13,352,91841,2,0,L|10:272,1,80,10|0,0:0|0:0,0:0:0:0:
99,177,92216,1,2,0:0:0:0:
106,346,92403,6,0,P|168:337|205:245,1,160,2|0,0:0|0:0,0:0:0:0:
183,135,92966,1,0,0:0:0:0:
124,262,93153,1,6,0:0:0:0:
40,32,93341,2,0,L|40:112,1,80,10|0,0:0|0:0,0:0:0:0:
99,177,93716,1,2,0:0:0:0:
204,41,93903,6,0,P|269:90|265:171,1,160,0|0,0:0|0:0,0:0:0:0:
147,264,94466,1,0,0:0:0:0:
187,127,94653,1,2,0:0:0:0:
318,320,94841,2,0,L|323:229,1,80,10|0,0:0|0:0,0:0:0:0:
187,127,95216,1,2,0:0:0:0:
235,273,95403,1,2,0:0:0:0:
275,81,95591,5,6,0:0:0:0:
124,49,95778,1,0,0:0:0:0:
267,183,95966,1,0,0:0:0:0:
370,68,96153,1,2,0:0:0:0:
432,284,96341,2,0,L|429:185,1,80,10|0,0:0|0:0,0:0:0:0:
370,68,96716,1,2,0:0:0:0:
334,241,96903,6,0,B|305:270|305:270|176:269,1,160,0|0,0:0|0:0,0:0:0:0:
267,183,97466,1,2,0:0:0:0:
288,354,97653,1,0,0:0:0:0:
121,211,97841,2,0,P|101:252|103:293,1,80,10|0,0:0|0:0,0:0:0:0:
20,181,98216,1,2,0:0:0:0:
157,88,98403,6,0,L|332:97,1,160,2|0,0:0|0:0,0:0:0:0:
358,192,98966,1,0,0:0:0:0:
411,48,99153,1,6,0:0:0:0:
474,265,99341,2,0,L|474:185,1,80,10|0,0:0|0:0,0:0:0:0:
411,48,99716,1,6,0:0:0:0:
358,192,99903,1,0,0:0:0:0:
474,185,100091,5,0,0:0:0:0:
411,48,100278,1,6,0:0:0:0:
411,48,100466,2,0,L|331:49,1,80,6|0,0:0|0:0,0:0:0:0:
136,127,100841,2,0,L|216:128,1,80,10|0,0:0|0:0,0:0:0:0:
452,174,101216,1,2,0:0:0:0:
280,216,101403,1,2,0:0:0:0:
365,172,101591,6,0,L|364:220,2,30.0000011444092,6|0|2,0:0|0:0|0:0,0:0:0:0:
332,281,101966,2,0,P|302:297|257:296,1,60.0000022888184,2|2,0:0|0:0,0:0:0:0:
241,288,102341,6,0,P|203:273|140:277,1,80,8|2,0:0|0:0,0:0:0:0:
84,357,102716,1,2,0:0:0:0:
26,220,102903,6,0,L|35:38,1,160,2|2,0:0|0:0,0:0:0:0:
150,3,103466,1,2,0:0:0:0:
123,163,103653,1,2,0:0:0:0:
334,52,103841,2,0,L|253:44,1,80,8|2,0:0|0:0,0:0:0:0:
123,163,104216,1,2,0:0:0:0:
308,225,104403,6,0,P|298:177|204:130,1,160,2|2,0:0|0:0,0:0:0:0:
249,295,104966,1,2,0:0:0:0:
393,164,105153,1,2,0:0:0:0:
359,366,105341,2,0,L|361:283,1,80,8|2,0:0|0:0,0:0:0:0:
393,164,105716,1,2,0:0:0:0:
235,91,105903,6,0,P|234:149|329:203,1,160,2|2,0:0|0:0,0:0:0:0:
316,119,106466,1,2,0:0:0:0:
251,277,106653,1,2,0:0:0:0:
64,136,106841,2,0,L|147:135,1,80,8|2,0:0|0:0,0:0:0:0:
140,306,107216,1,2,0:0:0:0:
10,207,107403,1,2,0:0:0:0:
60,289,107591,6,0,L|54:351,2,51.999997619629,6|2|2,0:0|0:0|0:0,0:0:0:0:
76,252,108341,6,0,P|114:227|175:231,1,80,10|0,0:0|0:0,0:0:0:0:
246,276,108716,1,0,0:0:0:0:
292,169,108903,6,0,P|285:229|319:324,1,160,2|0,0:0|0:0,0:0:0:0:
473,329,109466,1,0,0:0:0:0:
405,206,109653,1,2,0:0:0:0:
507,76,109841,2,0,L|501:171,1,80,10|0,0:0|0:0,0:0:0:0:
366,59,110216,1,0,0:0:0:0:
405,206,110403,1,2,0:0:0:0:
311,186,110591,6,0,L|305:122,2,51.999997619629,6|2|2,0:0|0:0|0:0,0:0:0:0:
313,220,111341,6,0,L|306:321,1,80,10|0,0:0|0:0,0:0:0:0:
192,144,111716,1,6,0:0:0:0:
130,253,111903,6,0,L|134:338,1,80,0|0,0:0|0:0,0:0:0:0:
192,144,112278,1,6,0:0:0:0:
192,144,112466,1,6,0:0:0:0:
99,95,112653,1,0,0:0:0:0:
246,228,112841,1,10,0:0:0:0:
322,49,113028,1,4,0:0:0:0:
324,59,113122,1,4,0:0:0:0:
326,69,113216,2,0,P|292:79|245:73,1,80,0|6,0:0|0:0,0:0:0:0:
152,33,113591,6,0,P|130:10|102:-6,2,51.999997619629,6|0|6,0:0|0:0|0:0,0:0:0:0:
156,70,114341,6,0,L|150:159,1,80,10|0,0:0|0:0,0:0:0:0:
83,258,114716,1,0,0:0:0:0:
229,353,114903,6,0,P|230:273|147:238,1,160,2|0,0:0|0:0,0:0:0:0:
83,258,115466,1,0,0:0:0:0:
229,169,115653,1,2,0:0:0:0:
110,350,115841,1,10,0:0:0:0:
229,169,116028,1,0,0:0:0:0:
83,258,116216,1,0,0:0:0:0:
229,169,116403,6,0,B|205:138|205:138|79:138,1,160,2|0,0:0|0:0,0:0:0:0:
3,211,116966,1,2,0:0:0:0:
35,52,117153,1,0,0:0:0:0:
83,258,117341,2,0,L|76:337,1,80,10|0,0:0|0:0,0:0:0:0:
3,211,117716,1,0,0:0:0:0:
182,190,117903,6,0,L|166:365,1,160,2|0,0:0|0:0,0:0:0:0:
328,344,118466,1,2,0:0:0:0:
283,193,118653,1,0,0:0:0:0:
493,248,118841,2,0,L|402:255,1,80,10|0,0:0|0:0,0:0:0:0:
283,193,119216,1,0,0:0:0:0:
401,101,119403,1,2,0:0:0:0:
304,59,119591,6,0,B|292:35|292:35|286:4,2,51.999997619629,6|2|2,0:0|0:0|0:0,0:0:0:0:
320,87,120341,6,0,P|280:88|246:110,1,80,10|0,0:0|0:0,0:0:0:0:
213,238,120716,1,0,0:0:0:0:
109,119,120903,6,0,P|131:182|110:274,1,160,2|0,0:0|0:0,0:0:0:0:
19,346,121466,1,0,0:0:0:0:
174,347,121653,1,2,0:0:0:0:
33,164,121841,2,0,L|28:265,1,80,10|0,0:0|0:0,0:0:0:0:
19,346,122216,1,0,0:0:0:0:
174,347,122403,1,2,0:0:0:0:
184,240,122591,6,0,L|188:188,2,51.999997619629,6|6|2,0:0|0:0|0:0,0:0:0:0:
170,267,123341,6,0,L|174:355,1,80,10|0,0:0|0:0,0:0:0:0:
284,212,123716,1,6,0:0:0:0:
399,312,123903,6,0,P|447:309|475:283,1,80,0|0,0:0|0:0,0:0:0:0:
284,212,124278,1,6,0:0:0:0:
284,212,124466,1,6,0:0:0:0:
390,155,124653,1,0,0:0:0:0:
209,112,124841,1,10,0:0:0:0:
298,37,125028,1,0,0:0:0:0:
308,31,125122,1,0,0:0:0:0:
318,26,125216,2,0,L|313:113,1,80,2|2,0:0|0:0,0:0:0:0:
341,227,125591,6,0,P|295:212|228:258,1,132.00000402832,2|2,0:0|0:0,0:0:0:0:
140,302,126341,2,0,L|143:198,1,88.000002685547,2|2,0:0|0:0,0:0:0:0:
73,133,126903,2,0,L|70:45,1,88.000002685547,0|2,0:0|0:0,0:0:0:0:
161,88,127466,2,0,L|163:141,1,44.0000013427735,2|2,0:0|0:0,0:0:0:0:
142,214,127841,2,0,P|212:178|219:248,1,176.000005371094,2|4,0:0|0:0,0:0:0:0:
