osu file format v14

[General]
AudioFilename: audio.mp3
AudioLeadIn: 0
PreviewTime: 183006
Countdown: 1
SampleSet: None
StackLeniency: 0.7
Mode: 0
LetterboxInBreaks: 0
WidescreenStoryboard: 1

[Editor]
Bookmarks: 121187,181793
DistanceSpacing: 2.3
BeatDivisor: 4
GridSize: 4
TimelineZoom: 2.2

[Metadata]
Title:Phoebe Ryan - Mine (Illenium Remix)
TitleUnicode:Phoebe Ryan - Mine (Illenium Remix)
Artist:Illenium
ArtistUnicode:Illenium
Creator:dima21
Version:Aspire(net)
Source:
Tags:
BeatmapID:1400624
BeatmapSetID:661617

[Difficulty]
HPDrainRate:0
CircleSize:3.7
OverallDifficulty:0
ApproachRate:9.7
SliderMultiplier:3.59999990463257
SliderTickRate:1

[Events]
//Background and Video events
0,0,"sunset-hair-950x453.png",0,0
//Break Periods
//Storyboard Layer 0 (Background)
//Storyboard Layer 1 (Fail)
//Storyboard Layer 2 (Pass)
//Storyboard Layer 3 (Foreground)
//Storyboard Sound Samples

[TimingPoints]
101794,303.030303030303,4,1,0,11,1,0
184824,-50,4,1,0,11,0,0
184975,-40,4,1,0,11,0,0
185127,-30,4,1,0,11,0,0
185278,-20,4,1,0,11,0,0
185430,-100,4,1,0,11,0,0
186036,-50,4,1,0,11,0,0
186187,-40,4,1,0,11,0,0
186339,-30,4,1,0,11,0,0
186490,-20,4,1,0,11,0,0
186642,-100,4,1,0,11,0,0
187248,-50,4,1,0,11,0,0
187399,-40,4,1,0,11,0,0
187551,-30,4,1,0,11,0,0
187702,-20,4,1,0,11,0,0
187854,-100,4,1,0,11,0,0
188460,-50,4,1,0,11,0,0
188611,-40,4,1,0,11,0,0
188763,-30,4,1,0,11,0,0
188914,-20,4,1,0,11,0,0
189066,-100,4,1,0,11,0,0
189672,-50,4,1,0,11,0,0
189823,-40,4,1,0,11,0,0
189975,-30,4,1,0,11,0,0
190126,-20,4,1,0,11,0,0
190278,-100,4,1,0,11,0,0
190884,-50,4,1,0,11,0,0
191035,-40,4,1,0,11,0,0
191187,-30,4,1,0,11,0,0
191338,-20,4,1,0,11,0,0
191490,-100,4,1,0,11,0,0
192097,-50,4,1,0,11,0,0
192248,-40,4,1,0,11,0,0
192400,-30,4,1,0,11,0,0
192551,-20,4,1,0,11,0,0
192703,-100,4,1,0,11,0,0
193309,-50,4,1,0,11,0,0
193460,-40,4,1,0,11,0,0
193612,-30,4,1,0,11,0,0
193763,-20,4,1,0,11,0,0
193915,-100,4,1,0,11,0,0
194521,-50,4,1,0,11,0,0
194672,-40,4,1,0,11,0,0
194824,-30,4,1,0,11,0,0
194975,-20,4,1,0,11,0,0
195127,-100,4,1,0,11,0,0
195733,-50,4,1,0,11,0,0
195884,-40,4,1,0,11,0,0
196036,-30,4,1,0,11,0,0
196187,-20,4,1,0,11,0,0
196339,-100,4,1,0,11,0,0
196945,-50,4,1,0,11,0,0
197096,-40,4,1,0,11,0,0
197248,-30,4,1,0,11,0,0
197399,-20,4,1,0,11,0,0
197551,-100,4,1,0,11,0,0
198157,-50,4,1,0,11,0,0
198308,-40,4,1,0,11,0,0
198460,-30,4,1,0,11,0,0
198611,-20,4,1,0,11,0,0
198763,-100,4,1,0,11,0,0
199369,-50,4,1,0,11,0,0
199520,-40,4,1,0,11,0,0
199672,-30,4,1,0,11,0,0
199823,-20,4,1,0,11,0,0
199975,-100,4,1,0,11,0,0
200581,-50,4,1,0,11,0,0
200732,-40,4,1,0,11,0,0
200884,-30,4,1,0,11,0,0
201035,-20,4,1,0,11,0,0
201187,-100,4,1,0,11,0,0
201793,-50,4,1,0,11,0,0
201944,-40,4,1,0,11,0,0
202096,-30,4,1,0,11,0,0
202247,-20,4,1,0,11,0,0
202399,-100,4,1,0,11,0,0
203006,-50,4,1,0,11,0,0
203157,-40,4,1,0,11,0,0
203309,-30,4,1,0,11,0,0
203460,-20,4,1,0,11,0,0
203612,-100,4,1,0,11,0,0
204218,-50,4,1,0,11,0,0
204369,-40,4,1,0,11,0,0
204521,-30,4,1,0,11,0,0
204672,-20,4,1,0,11,0,0
204824,-100,4,1,0,11,0,0
205430,-50,4,1,0,11,0,0
205581,-40,4,1,0,11,0,0
205733,-30,4,1,0,11,0,0
205884,-20,4,1,0,11,0,0
206036,-100,4,1,0,11,0,0
206642,-50,4,1,0,11,0,0
206793,-40,4,1,0,11,0,0
206945,-30,4,1,0,11,0,0
207096,-20,4,1,0,11,0,0
207248,-100,4,1,0,11,0,0
207854,-50,4,1,0,11,0,0
208005,-40,4,1,0,11,0,0
208157,-30,4,1,0,11,0,0
208308,-20,4,1,0,11,0,0
208460,-100,4,1,0,11,0,0
209066,-50,4,1,0,11,0,0
209217,-40,4,1,0,11,0,0
209369,-30,4,1,0,11,0,0
209520,-20,4,1,0,11,0,0
209672,-100,4,1,0,11,0,0
210278,-50,4,1,0,11,0,0
210429,-40,4,1,0,11,0,0
210581,-30,4,1,0,11,0,0
210732,-20,4,1,0,11,0,0
210884,-100,4,1,0,11,0,0
211490,-50,4,1,0,11,0,0
211641,-40,4,1,0,11,0,0
211793,-30,4,1,0,11,0,0
211944,-20,4,1,0,11,0,0
212096,-100,4,1,0,11,0,0
212703,-50,4,1,0,11,0,0
212854,-40,4,1,0,11,0,0
213006,-30,4,1,0,11,0,0
213157,-20,4,1,0,11,0,0
213309,-100,4,1,0,11,0,0
213915,-50,4,1,0,11,0,0
214066,-40,4,1,0,11,0,0
214218,-30,4,1,0,11,0,0
214369,-20,4,1,0,11,0,0
214521,-100,4,1,0,11,0,0
215127,-50,4,1,0,11,0,0
215278,-40,4,1,0,11,0,0
215430,-30,4,1,0,11,0,0
215581,-20,4,1,0,11,0,0
215733,-100,4,1,0,11,0,0
216339,-50,4,1,0,11,0,0
216490,-40,4,1,0,11,0,0
216642,-30,4,1,0,11,0,0
216793,-20,4,1,0,11,0,0
216945,-100,4,1,0,11,0,0
217551,-50,4,1,0,11,0,0
217702,-40,4,1,0,11,0,0
217854,-30,4,1,0,11,0,0
218005,-20,4,1,0,11,0,0
218157,-100,4,1,0,11,0,0
218763,-50,4,1,0,11,0,0
218914,-40,4,1,0,11,0,0
219066,-30,4,1,0,11,0,0
219217,-20,4,1,0,11,0,0
219369,-100,4,1,0,11,0,0
219975,-50,4,1,0,11,0,0
220126,-40,4,1,0,11,0,0
220278,-30,4,1,0,11,0,0
220429,-20,4,1,0,11,0,0
220581,-100,4,1,0,11,0,0
221187,-50,4,1,0,11,0,0
221338,-40,4,1,0,11,0,0
221490,-30,4,1,0,11,0,0
221641,-20,4,1,0,11,0,0
221793,-100,4,1,0,11,0,0
222400,-50,4,1,0,11,0,0
222551,-40,4,1,0,11,0,0
222703,-30,4,1,0,11,0,0
222854,-20,4,1,0,11,0,0
223006,-100,4,1,0,11,0,0

[HitObjects]
256,192,181793,12,0,183612,0:0:0:0:
232,196,184218,6,0,P|64:104|252:152,1,539.999985694885
168,104,184824,2,0,P|188:128|180:112,1,179.999995231629
182,231,184975,2,0,P|250:171|190:40,1,224.999994039536
408,264,185127,2,0,P|356:292|396:264,1,299.999992052714
380,128,185278,2,0,P|404:76|380:132,1,449.999988079071
308,140,185430,2,0,P|464:275|540:16,1,539.999985694885
220,344,186036,6,0,P|276:332|248:324,1,179.999995231629
127,179,186187,2,0,P|199:103|247:195,1,224.999994039536
246,40,186339,2,0,P|310:176|250:176,1,299.999992052714
384,223,186490,2,0,P|224:327|308:167,1,449.999988079071
252,176,186642,2,0,P|216:104|252:180,1,539.999985694885
316,72,187248,6,0,P|412:60|392:136,1,179.999995231629
316,312,187400,2,0,P|393:354|380:256,1,224.999994039536
224,84,187551,2,0,P|134:11|176:128,1,299.999992052714
232,272,187703,2,0,P|363:180|192:196,1,449.999988079071
232,272,187854,6,0,P|80:124|252:228,1,539.999985694885
320,84,188460,6,0,P|316:136|404:108,1,179.999995231629
326,235,188611,2,0,P|472:160|472:88,1,224.999994039536
188,184,188763,2,0,P|185:236|180:172,1,299.999992052714
141,321,188914,2,0,P|163:94|232:269,1,449.999988079071
308,140,189066,2,0,B|388:228|432:200|432:200|484:232|480:292|480:292|448:252|488:176|488:176|528:204|608:32,1,539.999985694885
296,340,189672,6,0,P|381:335|348:264,1,179.999995231629
221,247,189823,2,0,P|243:124|301:247,1,224.999994039536
336,73,189975,2,0,B|177:85|177:85|320:145,1,299.999992052714
464,176,190126,2,0,P|440:24|368:188,1,449.999988079071
200,224,190278,6,0,P|32:132|220:180,1,539.999985694885
296,92,190884,6,0,P|356:96|296:100,1,179.999995231629
355,120,191035,2,0,P|301:66|359:113,1,224.999994039536
324,48,191187,2,0,P|340:148|312:52,1,299.999992052714
296,160,191338,2,0,P|292:36|304:164,1,449.999988079071
284,20,191490,2,0,P|404:144|304:12,1,539.999985694885
356,288,192096,6,0,B|388:252|392:216|392:216|396:224,1,89.9999976158143
128,180,192247,2,0,B|107:168|96:136|96:136|148:184|205:198,1,179.999995231629
384,200,192399,2,0,B|480:176|528:176|528:176|492:144|452:144,1,224.999994039536
181,113,192550,2,0,B|137:74|59:35|59:35|160:20|257:66,1,299.999992052714
200,380,192703,2,0,P|140:236|232:384,1,539.999985694885
320,48,193308,6,0,P|324:112|360:148,1,89.9999976158143
180,256,193460,2,0,P|333:150|337:118,1,224.999994039536
436,104,193611,2,0,P|352:48|388:148,1,224.999994039536
356,279,193763,2,0,P|512:191|316:203,1,449.999988079071
232,196,193915,6,0,P|80:48|252:152,1,539.999985694885
308,88,194520,6,0,P|320:116|320:96,1,89.9999976158143
416,96,194671,2,0,P|472:64|412:84,1,179.999995231629
388,192,194823,2,0,P|376:268|376:192,1,224.999994039536
308,88,194974,2,0,P|332:36|288:96,1,299.999992052714
40,152,195127,2,0,B|104:200|156:168|156:168|144:228|220:248|220:248|262:238|269:205|269:205|316:224|352:304|352:304|408:284|492:360,1,539.999985694885
216,184,195732,6,0,P|265:156|272:116,1,89.9999976158143
99,235,195883,2,0,P|151:156|215:183,1,179.999995231629
288,264,196035,2,0,P|252:290|100:232,1,224.999994039536
464,128,196186,2,0,P|395:105|288:264,1,299.999992052714
442,194,196339,6,0,P|274:102|462:150,1,539.999985694885
96,0,196945,6,0,L|96:188,1,179.999995231629
168,384,197096,2,0,L|168:156,1,224.999994039536
236,0,197248,2,0,L|244:388,1,299.999992052714
336,384,197399,2,0,P|328:76|324:-87,1,449.999988079071
48,148,197551,2,0,P|124:320|0:180,1,539.999985694885
332,296,198157,6,0,B|413:258|413:258|380:160,1,179.999995231629
348,48,198308,2,0,B|232:96|232:96|265:191,1,224.999994039536
356,372,198460,2,0,B|455:295|512:292|512:292|469:238|436:116,1,299.999992052714
284,368,198611,2,0,B|248:304|157:304|157:304|272:236|312:-8,1,449.999988079071
168,308,198763,2,0,P|108:164|200:312,1,539.999985694885
288,64,199369,6,0,P|336:107|337:288,1,179.999995231629
104,364,199521,2,0,P|32:280|56:124,1,224.999994039536
232,40,199672,2,0,P|115:55|24:215,1,299.999992052714
355,282,199824,2,0,P|147:386|22:224,1,449.999988079071
280,280,199975,6,0,P|128:132|300:236,1,539.999985694885
320,84,200581,6,0,P|316:136|384:92,1,179.999995231629
272,296,200733,2,0,P|352:252|264:224,1,224.999994039536
436,184,200884,2,0,P|448:296|368:208,1,299.999992052714
252,111,201035,2,0,P|196:-29|312:91,1,449.999988079071
95,55,201187,2,0,P|267:203|395:-53,1,539.999985694885
356,288,201793,6,0,P|405:260|416:128,1,179.999995231629
229,161,201944,2,0,P|265:127|429:149,1,224.999994039536
272,304,202096,2,0,P|312:320|420:144,1,299.999992052714
64,244,202247,2,0,P|124:132|424:148,1,449.999988079071
340,312,202400,6,0,P|172:220|360:268,1,539.999985694885
312,44,203006,6,0,P|396:40|384:112,1,179.999995231629
391,215,203157,2,0,P|331:119|399:119,1,224.999994039536
485,64,203309,2,0,P|457:192|389:96,1,299.999992052714
273,125,203460,2,0,P|289:-39|367:124,1,449.999988079071
67,183,203612,2,0,P|215:323|367:75,1,539.999985694885
444,260,204218,6,0,P|420:168|308:136,1,179.999995231629
444,260,204369,2,0,P|420:168|252:180,1,224.999994039536
444,260,204521,2,0,P|420:168|240:204,1,299.999992052714
444,260,204672,2,0,P|420:168|272:320,1,449.999988079071
116,310,204824,2,0,B|164:224|136:144|136:144|200:160|294:143|294:143|163:247|321:367,1,539.999985694885
320,48,205430,6,0,P|412:52|464:124,1,179.999995231629
462,117,205582,2,0,P|412:55|276:73,1,224.999994039536
278,70,205733,2,0,P|381:40|380:253,1,299.999992052714
457,186,205885,2,0,P|457:124|237:224,1,449.999988079071
232,196,206036,6,0,P|80:48|252:152,1,539.999985694885
128,104,206642,6,0,P|120:144|148:96,1,179.999995231629
90,286,206793,2,0,P|155:142|126:102,1,224.999994039536
344,16,206945,2,0,P|341:68|128:-20,1,299.999992052714
0,312,207096,2,0,P|127:95|156:128,1,449.999988079071
308,140,207248,2,0,B|448:184|472:296|472:296|480:180|608:32,1,539.999985694885
356,288,207854,6,0,P|405:260|380:120,1,179.999995231629
228,32,208005,2,0,P|100:116|108:196,1,224.999994039536
179,358,208157,2,0,P|234:373|321:138,1,299.999992052714
332,25,208309,2,0,P|277:10|190:245,1,299.999992052714
216,220,208460,6,0,P|48:128|236:176,1,539.999985694885
312,44,209066,2,0,P|404:52|408:124,1,179.999995231629
278,145,209218,2,0,P|342:209|404:115,1,224.999994039536
176,173,209369,2,0,P|197:54|277:144,1,299.999992052714
176,173,209521,2,0,P|244:332|468:264,1,449.999988079071
176,173,209672,2,0,P|296:360|472:154,1,539.999985694885
304,268,210278,6,0,P|384:256|368:164,1,179.999995231629
472,49,210429,2,0,L|696:48,1,224.999994039536
391,122,210581,2,0,L|696:128,1,299.999992052714
404,316,210732,2,0,B|384:460|384:460|218:480|218:480|236:344,1,449.999988079071
156,304,210884,2,0,P|96:160|188:308,1,539.999985694885
320,48,211490,2,0,B|384:76|432:48|432:48|396:112,1,179.999995231629
176,208,211642,6,0,B|263:179|325:182|325:182|280:152|240:152,1,224.999994039536
136,120,211793,2,0,B|104:56|-44:72|-44:72|56:92|88:164,1,299.999992052714
268,328,211945,2,0,P|260:264|-52:76,1,449.999988079071
130,242,212096,6,0,P|-22:94|150:198,1,539.999985694885
320,84,212702,6,0,B|304:120|304:120|352:100|384:112,1,89.9999976158143
228,276,212853,2,0,P|288:232|220:204,1,179.999995231629
436,184,213005,2,0,B|415:230|428:288|428:288|356:300|368:208,1,224.999994039536
136,204,213156,2,0,P|160:80|196:184,1,299.999992052714
308,140,213309,2,0,B|348:156|397:130|397:130|488:192|480:288|480:288|408:216|456:104|456:104|521:106|608:32,1,629.9999833107
231,281,213915,6,0,P|280:253|299:121,1,179.999995231629
155,145,214065,2,0,P|191:111|323:189,1,179.999995231629
449,295,214217,2,0,P|321:143|233:135,1,224.999994039536
64,356,214369,2,0,B|204:364|204:364|100:328|100:328|176:312|176:312|144:300|144:300|216:248,1,449.999988079071
215,248,214521,6,0,P|47:156|235:204,1,539.999985694885
84,24,215127,6,0,P|158:16|260:68,1,179.999995231629
256,320,215278,2,0,P|296:292|312:128,1,224.999994039536
464,176,215430,2,0,B|456:284|508:332|508:332|416:316|368:208,1,299.999992052714
160,196,215581,2,0,B|72:168|20:52|20:52|136:92|140:148|140:148|340:140,1,449.999988079071
304,236,215733,2,0,B|380:224|424:140|424:140|432:240|432:240|428:136|428:136|496:232|592:284,1,539.999985694885
432,320,216339,6,0,L|428:112,1,179.999995231629
304,136,216490,2,0,P|380:68|424:152,1,224.999994039536
252,120,216642,2,0,P|316:192|248:144,1,299.999992052714
500,176,216793,2,0,B|504:100|380:8|380:8|472:184|428:280,1,449.999988079071
156,304,216945,2,0,P|96:160|188:308,1,539.999985694885
320,48,217551,6,0,P|-4:196|336:60,1,1259.9999666214
12,132,217703,2,0,P|388:320|44:84,1,1124.99997019768
412,264,217854,2,0,P|112:36|328:396,1,899.999976158143
360,88,218006,2,0,P|401:288|116:397,1,449.999988079071
288,288,218157,6,0,P|136:140|308:244,1,539.999985694885
144,72,218763,6,0,B|316:100|316:100|508:92,1,359.999990463257
501,92,218914,2,0,P|312:296|264:224,1,449.999988079071
287,271,219066,2,0,P|232:76|219:295,1,599.999984105428
202,293,219217,2,0,P|130:161|160:320,1,449.999988079071
34,124,219369,2,0,B|190:156|286:272|286:272|346:188|334:16,1,539.999985694885
396,212,219975,6,0,P|448:268|396:200,1,359.999990463257
402,178,220126,2,0,P|508:128|400:192,1,449.999988079071
400,208,220278,2,0,P|208:172|396:216,1,599.999984105428
402,178,220429,2,0,P|256:144|400:200,1,449.999988079071
140,200,220581,6,0,P|-28:108|160:156,1,539.999985694885
312,44,221187,6,0,P|264:112|328:192,1,179.999995231629
256,320,221338,2,0,P|160:276|264:224,1,224.999994039536
464,176,221490,2,0,P|468:304|368:208,1,299.999992052714
112,160,221641,2,0,P|36:96|172:140,1,449.999988079071
308,164,221793,2,0,B|312:216|236:280|236:280|400:244|476:135|476:135|416:140|308:148,1,539.999985694885
124,60,222400,6,0,P|452:128|120:64,1,1259.9999666214
68,235,222550,2,0,P|84:120|319:398,1,899.999976158143
417,73,222702,2,0,P|256:6|157:378,1,674.999982118607
444,288,222853,2,0,P|374:375|168:38,1,599.999984105428
248,296,223006,6,0,P|188:152|280:300,1,539.999985694885
