osu file format v14

[General]
AudioFilename: audio.mp3
AudioLeadIn: 0
PreviewTime: 42462
Countdown: 0
SampleSet: None
StackLeniency: 0.5
Mode: 1
LetterboxInBreaks: 0
WidescreenStoryboard: 1

[Editor]
DistanceSpacing: 0.7
BeatDivisor: 4
GridSize: 4
TimelineZoom: 2.5

[Metadata]
Title:Lost (ft. Emilie Brandt)
TitleUnicode:Lost (ft. Emilie Brandt)
Artist:Illenium
ArtistUnicode:Illenium
Creator:elena2705
Version:oni
Source:
Tags:Awake Future Bass Pop Dance Electronic FruityEnLoops
BeatmapID:1589896
BeatmapSetID:674107

[Difficulty]
HPDrainRate:5
CircleSize:4
OverallDifficulty:7
ApproachRate:6
SliderMultiplier:1.3
SliderTickRate:1

[Events]
//Background and Video events
0,0,"BG.jpg",0,0
//Break Periods
//Storyboard Layer 0 (Background)
//Storyboard Layer 1 (Fail)
//Storyboard Layer 2 (Pass)
//Storyboard Layer 3 (Foreground)
//Storyboard Sound Samples

[TimingPoints]
18,444.444444444444,4,2,1,50,1,0
42684,-100,4,2,2,50,0,0
56462,-100,4,2,3,50,0,0
56906,-100,4,2,1,50,0,0
57795,-100,4,2,4,80,0,1
60462,-100,4,2,1,60,0,1
61351,-100,4,2,4,80,0,1
64017,-100,4,2,1,60,0,0
64906,-100,4,2,4,80,0,1
67573,-100,4,2,1,60,0,1
68462,-100,4,2,4,80,0,1
70017,-100,4,2,4,80,0,1
71129,-100,4,2,1,60,0,0
71573,-100,4,2,3,60,0,0
72017,-100,4,2,4,80,0,1
74684,-100,4,2,1,60,0,1
75351,-100,4,2,3,60,0,1
75573,-100,4,2,4,80,0,1
78240,-100,4,2,1,60,0,0
79129,-100,4,2,4,80,0,1
81795,-100,4,2,1,60,0,1
82017,-100,4,2,4,60,0,1
82240,-100,4,2,1,60,0,1
82684,-100,4,2,4,80,0,1
84462,-100,4,2,4,50,0,1
84906,-100,4,2,1,30,0,1
85351,-100,4,2,1,20,0,0
88017,-100,4,2,1,5,0,0

[Colours]
Combo1 : 223,223,0
Combo2 : 12,43,190
Combo3 : 21,124,200
Combo4 : 248,98,71

[HitObjects]
256,192,14240,5,4,0:0:0:0:
256,192,14684,1,0,0:0:0:0:
256,192,14906,1,0,0:0:0:0:
256,192,15129,1,8,0:0:0:0:
256,192,15462,1,2,0:0:0:0:
256,192,15795,1,2,0:0:0:0:
256,192,16017,5,0,0:0:0:0:
256,192,16351,1,0,0:0:0:0:
256,192,16684,1,0,0:0:0:0:
256,192,16906,1,8,0:0:0:0:
256,192,17351,1,0,0:0:0:0:
256,192,17573,1,0,0:0:0:0:
256,192,17795,5,0,0:0:0:0:
256,192,18240,1,2,0:0:0:0:
256,192,18462,1,0,0:0:0:0:
256,192,18684,1,8,0:0:0:0:
256,192,19129,1,0,0:0:0:0:
256,192,19351,1,0,0:0:0:0:
256,192,19573,5,0,0:0:0:0:
256,192,19906,1,0,0:0:0:0:
256,192,20240,1,0,0:0:0:0:
256,192,20462,1,8,0:0:0:0:
256,192,20906,1,0,0:0:0:0:
256,192,21129,1,0,0:0:0:0:
256,192,21351,5,0,0:0:0:0:
256,192,21795,1,0,0:0:0:0:
256,192,22017,1,0,0:0:0:0:
256,192,22240,1,8,0:0:0:0:
256,192,22462,1,0,0:0:0:0:
256,192,22684,1,0,0:0:0:0:
256,192,22906,1,0,0:0:0:0:
256,192,23129,5,0,0:0:0:0:
256,192,23573,1,0,0:0:0:0:
256,192,23795,1,0,0:0:0:0:
256,192,24017,1,8,0:0:0:0:
256,192,24240,1,0,0:0:0:0:
256,192,24462,1,0,0:0:0:0:
256,192,24684,1,0,0:0:0:0:
256,192,24906,5,0,0:0:0:0:
256,192,25351,1,2,0:0:0:0:
256,192,25573,1,0,0:0:0:0:
256,192,25795,1,8,0:0:0:0:
256,192,26462,1,0,0:0:0:0:
256,192,26684,5,0,0:0:0:0:
256,192,27129,1,2,0:0:0:0:
256,192,27573,1,0,0:0:0:0:
256,192,28017,1,2,0:0:0:0:
256,192,28462,5,4,0:0:0:0:
256,192,28906,1,2,0:0:0:0:
256,192,29129,1,0,0:0:0:0:
256,192,29351,1,0,0:0:0:0:
256,192,29795,1,2,0:0:0:0:
256,192,30017,1,2,0:0:0:0:
256,192,30240,5,0,0:0:0:0:
256,192,30684,1,2,0:0:0:0:
256,192,30906,1,0,0:0:0:0:
256,192,31129,1,2,0:0:0:0:
256,192,31351,1,2,0:0:0:0:
256,192,31573,1,0,0:0:0:0:
256,192,31795,1,0,0:0:0:0:
256,192,32017,5,0,0:0:0:0:
256,192,32462,1,2,0:0:0:0:
256,192,32684,1,0,0:0:0:0:
256,192,32906,1,2,0:0:0:0:
256,192,33351,1,2,0:0:0:0:
256,192,33573,1,2,0:0:0:0:
256,192,33795,5,0,0:0:0:0:
256,192,34240,1,2,0:0:0:0:
256,192,34462,1,0,0:0:0:0:
256,192,34684,1,2,0:0:0:0:
256,192,34906,1,2,0:0:0:0:
256,192,35129,1,2,0:0:0:0:
256,192,35351,1,2,0:0:0:0:
256,192,35573,5,0,0:0:0:0:
256,192,36017,1,2,0:0:0:0:
256,192,36240,1,0,0:0:0:0:
256,192,36462,1,2,0:0:0:0:
256,192,36906,1,2,0:0:0:0:
256,192,37129,1,0,0:0:0:0:
256,192,37351,5,0,0:0:0:0:
256,192,37795,1,2,0:0:0:0:
256,192,38017,1,0,0:0:0:0:
256,192,38240,1,2,0:0:0:0:
256,192,38462,1,2,0:0:0:0:
256,192,38684,1,2,0:0:0:0:
256,192,38906,1,2,0:0:0:0:
256,192,39129,5,0,0:0:0:0:
256,192,39573,1,0,0:0:0:0:
256,192,39795,1,0,0:0:0:0:
256,192,40017,1,2,0:0:0:0:
256,192,40240,1,2,0:0:0:0:
256,192,40462,1,0,0:0:0:0:
256,192,40684,1,0,0:0:0:0:
256,192,40906,2,0,P|338:191|240:346,1,390
256,192,42462,1,0,0:0:0:0:
256,192,42684,5,4,0:0:0:0:
256,192,43129,1,8,0:0:0:0:
256,192,43351,1,0,0:0:0:0:
256,192,43573,1,8,0:0:0:0:
256,192,44017,1,8,0:0:0:0:
256,192,44240,1,0,0:0:0:0:
256,192,44351,1,0,0:0:0:0:
256,192,44462,5,0,0:0:0:0:
256,192,44906,1,0,0:0:0:0:
256,192,45129,1,2,0:0:0:0:
256,192,45351,1,8,0:0:0:0:
256,192,45573,1,0,0:0:0:0:
256,192,45795,1,8,0:0:0:0:
256,192,46017,1,0,0:0:0:0:
256,192,46240,6,0,L|520:191,1,260
256,192,47351,1,0,0:0:0:0:
256,192,47573,1,8,0:0:0:0:
256,192,47795,1,0,0:0:0:0:
256,192,47906,1,0,0:0:0:0:
256,192,48017,5,0,0:0:0:0:
256,192,48240,1,0,0:0:0:0:
256,192,48462,1,8,0:0:0:0:
256,192,48684,1,0,0:0:0:0:
256,192,48906,1,8,0:0:0:0:
256,192,49129,1,0,0:0:0:0:
256,192,49240,1,0,0:0:0:0:
256,192,49351,1,0,0:0:0:0:
256,192,49573,1,0,0:0:0:0:
256,192,49795,5,12,0:0:0:0:
256,192,50017,1,8,0:0:0:0:
256,192,50240,1,8,0:0:0:0:
256,192,50462,1,8,0:0:0:0:
256,192,50684,1,8,0:0:0:0:
256,192,50906,1,8,0:0:0:0:
256,192,51129,1,8,0:0:0:0:
256,192,51351,1,8,0:0:0:0:
256,192,51573,5,8,0:0:0:0:
256,192,51795,1,0,0:0:0:0:
256,192,52017,1,8,0:0:0:0:
256,192,52240,1,0,0:0:0:0:
256,192,52462,1,8,0:0:0:0:
256,192,52684,1,0,0:0:0:0:
256,192,52906,1,8,0:0:0:0:
256,192,53129,1,0,0:0:0:0:
253,146,53351,6,12,P|336:170|168:223,1,520
256,192,56462,1,6,0:0:0:0:
256,192,56906,5,4,0:0:0:0:
256,192,57240,1,0,0:0:0:0:
256,192,57351,1,0,0:0:0:0:
256,192,57573,1,0,0:0:0:0:
256,192,57795,1,12,0:0:0:0:
256,192,58129,1,2,0:0:0:0:
256,192,58462,1,2,0:0:0:0:
256,192,58684,5,4,0:0:0:0:
256,192,59017,1,0,0:0:0:0:
256,192,59351,1,0,0:0:0:0:
256,192,59573,1,12,0:0:0:0:
256,192,59906,1,2,0:0:0:0:
256,192,60240,1,2,0:0:0:0:
256,192,60462,5,0,0:0:0:0:
256,192,60684,1,2,0:0:0:0:
256,192,60795,1,2,0:0:0:0:
256,192,60906,1,2,0:0:0:0:
256,192,61129,1,0,0:0:0:0:
256,192,61351,1,12,0:0:0:0:
256,192,61684,1,2,0:0:0:0:
256,192,62017,1,2,0:0:0:0:
256,192,62240,5,4,0:0:0:0:
256,192,62573,1,0,0:0:0:0:
256,192,62906,1,0,0:0:0:0:
256,192,63129,1,12,0:0:0:0:
256,192,63462,1,2,0:0:0:0:
256,192,63795,1,2,0:0:0:0:
256,192,64017,5,4,0:0:0:0:
256,192,64240,1,0,0:0:0:0:
256,192,64351,1,0,0:0:0:0:
256,192,64462,1,0,0:0:0:0:
256,192,64684,1,0,0:0:0:0:
256,192,64906,1,12,0:0:0:0:
256,192,65240,1,2,0:0:0:0:
256,192,65573,1,0,0:0:0:0:
256,192,65795,5,4,0:0:0:0:
256,192,66129,1,0,0:0:0:0:
256,192,66462,1,2,0:0:0:0:
256,192,66684,1,12,0:0:0:0:
256,192,67017,1,2,0:0:0:0:
256,192,67351,1,0,0:0:0:0:
256,192,67573,5,4,0:0:0:0:
256,192,67795,1,4,0:0:0:0:
256,192,67906,1,4,0:0:0:0:
256,192,68017,1,4,0:0:0:0:
256,192,68240,1,0,0:0:0:0:
256,192,68462,1,12,0:0:0:0:
256,192,68795,1,2,0:0:0:0:
256,192,69129,1,0,0:0:0:0:
256,192,69351,5,4,0:0:0:0:
256,192,69684,1,0,0:0:0:0:
256,192,70017,1,2,0:0:0:0:
256,192,70129,1,2,0:0:0:0:
256,192,70240,1,12,0:0:0:0:
256,192,70573,1,0,0:0:0:0:
256,192,70684,1,0,0:0:0:0:
256,192,70906,1,0,0:0:0:0:
256,192,71351,5,0,0:0:0:0:
256,192,71462,1,0,0:0:0:0:
256,192,71573,1,0,0:0:0:0:
256,192,71795,1,4,0:0:0:0:
256,192,72017,1,12,0:0:0:0:
256,192,72351,1,2,0:0:0:0:
256,192,72684,1,2,0:0:0:0:
256,192,72906,5,4,0:0:0:0:
256,192,73240,1,0,0:0:0:0:
256,192,73573,1,0,0:0:0:0:
256,192,73795,1,12,0:0:0:0:
256,192,74129,1,2,0:0:0:0:
256,192,74462,1,2,0:0:0:0:
256,192,74684,5,4,0:0:0:0:
256,192,74906,1,2,0:0:0:0:
256,192,75017,1,2,0:0:0:0:
256,192,75129,1,2,0:0:0:0:
256,192,75351,1,0,0:0:0:0:
256,192,75573,1,12,0:0:0:0:
256,192,75906,1,2,0:0:0:0:
256,192,76240,1,2,0:0:0:0:
256,192,76462,5,4,0:0:0:0:
256,192,76795,1,0,0:0:0:0:
256,192,77129,1,0,0:0:0:0:
256,192,77351,1,12,0:0:0:0:
256,192,77684,1,2,0:0:0:0:
256,192,78017,1,2,0:0:0:0:
256,192,78240,5,0,0:0:0:0:
256,192,78462,1,0,0:0:0:0:
256,192,78573,1,0,0:0:0:0:
256,192,78684,1,0,0:0:0:0:
256,192,78906,1,0,0:0:0:0:
256,192,79129,1,12,0:0:0:0:
256,192,79462,1,2,0:0:0:0:
256,192,79795,1,0,0:0:0:0:
256,192,80017,5,4,0:0:0:0:
256,192,80351,1,0,0:0:0:0:
256,192,80684,1,2,0:0:0:0:
256,192,80906,1,12,0:0:0:0:
256,192,81240,1,2,0:0:0:0:
256,192,81573,1,0,0:0:0:0:
256,192,81795,5,4,0:0:0:0:
256,192,82017,1,4,0:0:0:0:
256,192,82129,1,4,0:0:0:0:
256,192,82240,1,4,0:0:0:0:
256,192,82462,1,0,0:0:0:0:
256,192,82684,1,12,0:0:0:0:
256,192,83017,1,2,0:0:0:0:
256,192,83351,1,0,0:0:0:0:
256,192,83573,5,4,0:0:0:0:
256,192,83906,1,0,0:0:0:0:
256,192,84240,1,2,0:0:0:0:
256,192,84351,1,2,0:0:0:0:
256,192,84462,1,12,0:0:0:0:
256,192,84684,1,2,0:0:0:0:
256,192,84906,1,2,0:0:0:0:
256,192,85129,1,0,0:0:0:0:
256,192,85351,12,0,88017,0:0:0:0:
