osu file format v14

[General]
AudioFilename: audio.mp3
AudioLeadIn: 0
PreviewTime: 95443
Countdown: 0
SampleSet: Soft
StackLeniency: 0.7
Mode: 0
LetterboxInBreaks: 0
EpilepsyWarning: 1
WidescreenStoryboard: 1

[Editor]
DistanceSpacing: 1.7
BeatDivisor: 4
GridSize: 32
TimelineZoom: 1

[Metadata]
Title:Fractures (ft. Nevve)
TitleUnicode:Fractures (ft. Nevve)
Artist:Illenium
ArtistUnicode:Illenium
Creator:zhu
Version:Starset's Shattered Pieces
Source:
Tags:log off now peter starset hb24 cut version Dance & EDM
BeatmapID:1575364
BeatmapSetID:747671

[Difficulty]
HPDrainRate:6
CircleSize:4.2
OverallDifficulty:7.5
ApproachRate:9
SliderMultiplier:1.8
SliderTickRate:1

[Events]
//Background and Video events
0,0,"BG.jpg",0,0
//Break Periods
//Storyboard Layer 0 (Background)
//Storyboard Layer 1 (Fail)
//Storyboard Layer 2 (Pass)
//Storyboard Layer 3 (Foreground)
//Storyboard Sound Samples

[TimingPoints]
943,375,4,2,1,60,1,0
12568,-117.647058823529,4,2,1,60,0,0
24193,-181.818181818182,4,2,1,60,0,0
24943,-166.666666666667,4,2,2,40,0,0
36943,-117.647058823529,4,2,1,60,0,0
48193,-181.818181818181,4,2,1,60,0,0
48943,-181.818181818181,4,2,1,30,0,0
49693,-166.666666666667,4,2,3,30,0,0
50724,-166.666666666667,4,2,3,5,0,0
50818,-166.666666666667,4,2,3,30,0,0
51099,-166.666666666667,4,2,3,5,0,0
51193,-166.666666666667,4,2,3,30,0,0
53349,-166.666666666667,4,2,3,5,0,0
53443,-166.666666666667,4,2,3,30,0,0
54099,-166.666666666667,4,2,3,5,0,0
54193,-166.666666666667,4,2,3,30,0,0
54849,-166.666666666667,4,2,3,5,0,0
54943,-166.666666666667,4,2,3,30,0,0
56724,-166.666666666667,4,2,3,5,0,0
56818,-166.666666666667,4,2,3,30,0,0
57099,-166.666666666667,4,2,3,5,0,0
57193,-166.666666666667,4,2,3,30,0,0
59443,-142.857142857143,4,2,3,30,0,0
59724,-166.666666666667,4,2,3,5,0,0
59818,-125,4,2,3,35,0,0
60099,-166.666666666667,4,2,3,5,0,0
60193,-111.111111111111,4,2,3,40,0,0
60474,-166.666666666667,4,2,3,5,0,0
60568,-99.9999999999999,4,2,3,30,0,0
60849,-166.666666666667,4,2,3,5,0,0
60943,-166.666666666667,4,2,3,40,0,0
66193,-133.333333333333,4,2,3,40,0,0
66474,-166.666666666667,4,2,3,5,0,0
66568,-105.263157894737,4,2,3,40,0,0
66849,-166.666666666667,4,2,3,5,0,0
66943,-166.666666666667,4,2,3,40,0,0
72943,-117.647058823529,4,2,1,35,0,0
77630,-117.647058823529,4,2,1,20,0,0
77818,-117.647058823529,4,2,1,30,0,0
78568,-117.647058823529,4,2,1,20,0,0
78756,-117.647058823529,4,2,1,30,0,0
80818,-117.647058823529,4,2,1,20,0,0
81006,-117.647058823529,4,2,1,30,0,0
84568,-117.647058823529,4,2,1,20,0,0
84756,-117.647058823529,4,2,1,30,0,0
84943,-117.647058823529,4,2,1,40,0,0
96943,-100,4,2,1,70,0,1
120193,-200,4,2,1,60,0,0
120943,-200,4,2,0,20,0,0

[Colours]
Combo1 : 235,67,125
Combo2 : 210,40,40
SliderBorder : 255,255,255
SliderTrackOverride : 0,0,0

[HitObjects]
288,240,12568,5,0,0:0:0:0:
154,169,12755,1,0,0:0:0:0:
315,77,12943,6,0,P|324:118|327:161,1,76.5000014591217,2|0,0:0|0:0,0:0:0:0:
398,306,13318,2,0,P|401:267|409:230,1,76.5000014591217,2|0,0:0|0:0,0:0:0:0:
447,128,13693,1,8,0:0:0:0:
288,240,13880,2,0,L|191:228,1,76.5000014591217
86,262,14255,1,8,0:0:0:0:
139,163,14443,5,0,0:0:0:0:
82,25,14630,1,2,0:0:0:0:
240,58,14818,2,0,P|288:68|376:72,1,114.750002188683,2|0,0:0|0:0,0:0:0:0:
402,70,15193,1,8,0:0:0:0:
490,171,15380,1,0,0:0:0:0:
356,210,15568,1,0,0:0:0:0:
484,82,15755,1,2,0:0:0:0:
503,268,15943,6,0,P|460:260|427:248,1,76.5000014591217,2|0,0:0|0:0,0:0:0:0:
282,229,16318,2,0,P|318:216|355:209,1,76.5000014591217,2|0,0:0|0:0,0:0:0:0:
200,357,16693,2,0,L|179:203,1,153.000002918243,8|0,0:0|0:0,0:0:0:0:
164,98,17255,1,8,0:0:0:0:
261,156,17443,5,0,0:0:0:0:
93,235,17630,1,2,0:0:0:0:
275,149,17818,2,0,P|336:162|389:190,1,114.750002188683,2|0,0:0|0:0,0:0:0:0:
418,219,18193,2,0,L|502:212,1,76.5000014591217,8|0,0:0|0:0,0:0:0:0:
389,309,18568,1,0,0:0:0:0:
438,133,18755,1,2,0:0:0:0:
383,322,18943,6,0,L|306:328,1,76.5000014591217,2|0,0:0|0:0,0:0:0:0:
158,154,19318,2,0,P|180:185|193:220,1,76.5000014591217,2|0,0:0|0:0,0:0:0:0:
176,332,19693,1,8,0:0:0:0:
0,288,19880,2,0,P|34:271|72:264,1,76.5000014591217
176,332,20255,1,8,0:0:0:0:
282,273,20443,5,0,0:0:0:0:
158,154,20630,1,2,0:0:0:0:
298,82,20818,2,0,L|443:93,1,114.750002188683,2|0,0:0|0:0,0:0:0:0:
462,94,21193,2,0,B|471:135|471:135|462:183,1,76.5000014591217,8|0,0:0|0:0,0:0:0:0:
434,264,21568,1,0,0:0:0:0:
338,174,21755,1,2,0:0:0:0:
398,342,21943,6,0,P|351:342|312:353,1,76.5000014591217,2|0,0:0|0:0,0:0:0:0:
169,263,22318,2,0,P|206:270|244:270,1,76.5000014591217,2|0,0:0|0:0,0:0:0:0:
86,132,22693,2,0,L|73:291,1,153.000002918243,8|0,0:0|0:0,0:0:0:0:
65,379,23255,1,8,0:0:0:0:
169,263,23443,1,0,0:0:0:0:
0,202,23630,1,2,0:0:0:0:
162,339,23818,2,0,L|170:239,1,76.5000014591217,2|0,0:0|0:0,0:0:0:0:
180,97,24193,6,0,B|155:34|155:34|230:46|230:46|288:33,1,198.000006042481,8|2,0:0|0:0,0:0:0:0:
438,107,25318,6,0,P|429:139|433:233,1,107.999996704102,2|8,0:0|0:0,0:0:0:0:
453,295,25880,2,0,L|335:279,1,107.999996704102,0|2,0:0|0:0,0:0:0:0:
277,333,26443,1,0,0:0:0:0:
209,279,26630,2,0,L|155:286,1,53.9999983520508,2|2,0:0|0:0,0:0:0:0:
29,167,27193,1,8,0:0:0:0:
212,140,27568,2,0,P|219:168|220:201,1,53.9999983520508,0|2,0:0|0:0,0:0:0:0:
209,279,27943,5,2,0:0:0:0:
390,197,28318,2,0,B|431:184|431:184|498:202,1,107.999996704102,2|8,0:0|0:0,0:0:0:0:
409,303,28880,2,0,L|386:179,1,107.999996704102,0|2,0:0|0:0,0:0:0:0:
372,111,29443,1,0,0:0:0:0:
294,147,29630,2,0,L|229:135,1,53.9999983520508,2|2,0:0|0:0,0:0:0:0:
89,220,30193,1,8,0:0:0:0:
316,344,30755,1,2,0:0:0:0:
316,344,30943,6,0,L|293:220,2,107.999996704102,2|2|8,0:0|0:0|0:0,0:0:0:0:
467,134,32255,2,0,P|423:122|396:123,1,53.9999983520508,2|0,0:0|0:0,0:0:0:0:
334,152,32630,2,0,P|290:164|263:163,1,53.9999983520508,2|2,0:0|0:0,0:0:0:0:
112,127,33193,2,0,L|131:233,1,107.999996704102,8|0,0:0|0:0,0:0:0:0:
148,317,33755,1,2,0:0:0:0:
223,274,33943,6,0,L|289:279,1,53.9999983520508,2|0,0:0|0:0,0:0:0:0:
347,328,34318,2,0,L|400:323,1,53.9999983520508,2|0,0:0|0:0,0:0:0:0:
468,270,34693,2,0,B|445:227|445:227|458:158|458:158|440:116,1,161.999995056153,8|2,0:0|0:0,0:0:0:0:
399,42,35443,1,0,0:0:0:0:
335,100,35630,2,0,L|272:91,1,53.9999983520508,2|2,0:0|0:0,0:0:0:0:
120,155,36193,1,8,0:0:0:0:
326,273,36568,5,0,0:0:0:0:
211,372,36755,1,0,0:0:0:0:
340,262,36943,6,0,P|388:271|425:286,1,76.5000014591217,2|0,0:0|0:0,0:0:0:0:
512,120,37318,2,0,P|475:132|438:138,1,76.5000014591217,2|0,0:0|0:0,0:0:0:0:
335,115,37693,1,8,0:0:0:0:
206,197,37880,2,0,L|191:110,1,76.5000014591217,0|0,0:0|0:0,0:0:0:0:
176,21,38255,1,8,0:0:0:0:
92,127,38443,5,0,0:0:0:0:
293,184,38630,1,2,0:0:0:0:
122,312,38818,2,0,P|178:299|257:293,1,114.750002188683,2|0,0:0|0:0,0:0:0:0:
278,318,39193,2,0,P|335:328|375:325,1,76.5000014591217,8|0,0:0|0:0,0:0:0:0:
457,305,39568,1,0,0:0:0:0:
293,184,39755,1,2,0:0:0:0:
483,111,39943,6,0,L|493:28,1,76.5000014591217,2|0,0:0|0:0,0:0:0:0:
391,238,40318,2,0,L|381:162,1,76.5000014591217,2|0,0:0|0:0,0:0:0:0:
249,77,40693,2,0,B|210:70|210:70|135:90|135:90|67:77,1,153.000002918243,8|0,0:0|0:0,0:0:0:0:
0,48,41255,1,8,0:0:0:0:
91,187,41443,5,0,0:0:0:0:
123,6,41630,1,2,0:0:0:0:
2,170,41818,2,0,L|16:294,1,114.750002188683,2|0,0:0|0:0,0:0:0:0:
25,332,42193,2,0,L|119:342,1,76.5000014591217,8|0,0:0|0:0,0:0:0:0:
219,320,42568,1,0,0:0:0:0:
91,187,42755,1,2,0:0:0:0:
283,214,42943,6,0,L|359:205,1,76.5000014591217,2|0,0:0|0:0,0:0:0:0:
480,84,43318,2,0,L|403:75,1,76.5000014591217,2|0,0:0|0:0,0:0:0:0:
298,60,43693,1,8,0:0:0:0:
283,214,43880,1,0,0:0:0:0:
164,111,44068,1,0,0:0:0:0:
283,214,44255,6,0,P|280:254|269:299,1,76.5000014591217,8|0,0:0|0:0,0:0:0:0:
202,360,44630,1,2,0:0:0:0:
38,220,44818,2,0,P|99:209|180:206,1,114.750002188683,2|0,0:0|0:0,0:0:0:0:
201,205,45193,2,0,P|209:167|211:129,1,76.5000014591217,8|0,0:0|0:0,0:0:0:0:
195,32,45568,1,0,0:0:0:0:
329,141,45755,1,2,0:0:0:0:
483,35,45943,6,0,L|406:45,1,76.5000014591217,2|0,0:0|0:0,0:0:0:0:
365,222,46318,2,0,L|440:212,1,76.5000014591217,2|0,0:0|0:0,0:0:0:0:
211,129,46693,2,0,B|169:140|169:140|137:127|137:127|94:129|49:175,1,153.000002918243,8|0,0:0|0:0,0:0:0:0:
11,242,47255,1,8,0:0:0:0:
154,230,47443,5,0,0:0:0:0:
0,111,47630,1,2,0:0:0:0:
103,293,47818,2,0,L|237:270,1,114.750002188683,2|0,0:0|0:0,0:0:0:0:
264,262,48193,6,0,P|310:191|355:267,1,198.000006042481,8|2,0:0|0:0,0:0:0:0:
95,357,49693,6,0,L|81:297,1,53.9999983520508,2|2,0:0|0:0,0:0:0:0:
147,246,50068,2,0,L|161:186,1,53.9999983520508,2|0,0:0|0:0,0:0:0:0:
180,109,50443,2,0,P|231:96|282:96,1,80.9999975280763,2|0,0:0|0:0,0:0:0:0:
298,112,50818,2,0,P|349:125|400:125,1,80.9999975280763,2|0,0:0|0:0,0:0:0:0:
420,123,51193,1,2,0:0:0:0:
504,273,51568,1,2,0:0:0:0:
347,346,51943,6,0,L|326:222,1,107.999996704102,2|0,0:0|0:0,0:0:0:0:
182,148,52693,2,0,B|116:191|110:109|46:147|12:158|11:213,1,188.999994232178,2|0,0:0|0:0,0:0:0:0:
82,218,53443,2,0,B|149:247|206:216|206:216|167:257|174:284,1,188.999994232178,2|0,0:0|0:0,0:0:0:0:
245,289,54193,2,0,P|274:260|342:345,1,188.999994232178,2|0,0:0|0:0,0:0:0:0:
417,359,54943,2,0,P|424:297|372:207,1,161.999995056153,2|0,0:0|0:0,0:0:0:0:
304,132,55693,6,0,P|340:125|363:115,1,53.9999983520508,2|2,0:0|0:0,0:0:0:0:
427,70,56068,2,0,P|463:77|486:87,1,53.9999983520508,2|0,0:0|0:0,0:0:0:0:
345,28,56443,2,0,P|289:27|246:43,1,80.9999975280763,2|0,0:0|0:0,0:0:0:0:
235,65,56818,2,0,P|179:66|136:50,1,80.9999975280763,2|0,0:0|0:0,0:0:0:0:
116,39,57193,1,2,0:0:0:0:
0,167,57568,1,2,0:0:0:0:
152,248,57943,6,0,L|275:234,1,107.999996704102,2|0,0:0|0:0,0:0:0:0:
422,206,58693,2,0,B|407:249|434:320|434:320|406:313|381:316,1,161.999995056153
280,326,59443,6,0,P|263:286|259:235,1,94.499997116089,2|0,0:0|0:0,0:0:0:0:
298,166,59818,6,0,P|329:113|321:53,1,108,2|0,0:0|0:0,0:0:0:0:
350,64,60193,6,0,P|349:129|313:184,1,121.499996292114,2|0,0:0|0:0,0:0:0:0:
215,162,60568,6,0,B|180:156|180:156|117:176|117:176|79:171,1,135,2|0,0:0|0:0,0:0:0:0:
0,153,60943,6,0,L|15:322,1,161.999995056153,2|2,0:0|0:0,0:0:0:0:
103,371,61693,2,0,P|137:341|264:348,1,161.999995056153,2|2,0:0|0:0,0:0:0:0:
334,382,62443,2,0,B|371:307|301:292|350:213,1,161.999995056153,2|2,0:0|0:0,0:0:0:0:
402,146,63193,2,0,L|226:126,1,161.999995056153,2|0,0:0|0:0,0:0:0:0:
155,115,63943,5,0,0:0:0:0:
71,266,64318,2,0,L|128:259,1,53.9999983520508,2|2,0:0|0:0,0:0:0:0:
203,295,64693,2,0,L|310:308,2,107.999996704102,2|2|2,0:0|0:0|0:0,0:0:0:0:
380,39,66193,6,0,P|400:85|404:147,1,101.250003862381,2|0,0:0|0:0,0:0:0:0:
339,185,66568,6,0,P|315:239|310:313,1,128.249996575356,2|0,0:0|0:0,0:0:0:0:
237,346,66943,6,0,P|208:299|91:303,1,161.999995056153,2|2,0:0|0:0,0:0:0:0:
24,351,67693,2,0,B|28:309|11:285|11:285|21:256|21:256|3:216|13:180,1,161.999995056153,2|0,0:0|0:0,0:0:0:0:
50,97,68443,2,0,P|95:78|210:62,1,161.999995056153,2|2,0:0|0:0,0:0:0:0:
297,113,69193,2,0,P|321:177|412:170,1,161.999995056153,2|0,0:0|0:0,0:0:0:0:
460,105,69943,5,0,0:0:0:0:
502,272,70318,2,0,P|463:265|442:266,1,53.9999983520508,2|2,0:0|0:0,0:0:0:0:
370,301,70693,2,0,P|340:322|264:317,2,107.999996704102,2|2|2,0:0|0:0|0:0,0:0:0:0:
256,192,71630,12,8,72943,0:0:0:0:
147,222,73130,6,0,L|141:307,1,76.5000014591217
13,251,73505,2,0,L|7:174,1,76.5000014591217,8|0,0:0|0:0,0:0:0:0:
0,77,73880,1,0,0:0:0:0:
147,222,74068,2,0,P|187:220|229:211,1,76.5000014591217,8|0,0:0|0:0,0:0:0:0:
315,165,74443,5,0,0:0:0:0:
414,235,74630,1,0,0:0:0:0:
331,72,74818,1,8,0:0:0:0:
324,254,75005,2,0,L|335:337,1,76.5000014591217,8|0,0:0|0:0,0:0:0:0:
405,375,75380,1,0,0:0:0:0:
247,319,75568,1,8,0:0:0:0:
422,242,75755,1,2,0:0:0:0:
422,242,75849,1,0,0:0:0:0:
422,242,75943,6,0,B|464:231|464:231|514:243,1,76.5000014591217,8|0,0:0|0:0,0:0:0:0:
405,375,76318,1,0,0:0:0:0:
365,179,76505,2,0,L|375:103,1,76.5000014591217,8|0,0:0|0:0,0:0:0:0:
344,14,76880,1,0,0:0:0:0:
225,125,77068,2,0,L|235:201,1,76.5000014591217,8|0,0:0|0:0,0:0:0:0:
201,288,77443,5,0,0:0:0:0:
66,216,77630,1,8,0:0:0:0:
84,342,77818,1,8,0:0:0:0:
157,209,78005,1,8,0:0:0:0:
40,144,78193,2,0,P|52:191|71:223,1,76.5000014591217
201,288,78568,1,8,0:0:0:0:
154,131,78755,1,8,0:0:0:0:
292,250,78943,6,0,B|324:236|324:236|372:248,1,76.5000014591217,8|0,0:0|0:0,0:0:0:0:
462,273,79318,1,0,0:0:0:0:
356,158,79505,2,0,B|315:147|315:147|283:161,1,76.5000014591217,8|0,0:0|0:0,0:0:0:0:
206,207,79880,1,0,0:0:0:0:
82,107,80068,2,0,L|88:27,1,76.5000014591217,8|0,0:0|0:0,0:0:0:0:
192,112,80443,5,0,0:0:0:0:
133,250,80630,1,0,0:0:0:0:
283,161,80818,1,8,0:0:0:0:
138,326,81005,2,0,L|132:246,1,76.5000014591217,8|2,0:0|0:0,0:0:0:0:
245,368,81380,1,0,0:0:0:0:
330,261,81568,1,8,0:0:0:0:
444,345,81755,1,2,0:0:0:0:
444,345,81849,1,0,0:0:0:0:
444,345,81943,6,0,P|455:301|458:261,1,76.5000014591217,8|0,0:0|0:0,0:0:0:0:
460,177,82318,1,0,0:0:0:0:
330,261,82505,2,0,P|319:217|316:177,1,76.5000014591217,8|0,0:0|0:0,0:0:0:0:
322,91,82880,1,0,0:0:0:0:
168,158,83068,1,8,0:0:0:0:
179,48,83255,1,0,0:0:0:0:
219,239,83443,6,0,L|128:248,1,76.5000014591217
59,87,83818,1,8,0:0:0:0:
235,111,84005,1,8,0:0:0:0:
59,254,84193,2,0,B|38:225|38:225|28:181,1,76.5000014591217,2|0,0:0|0:0,0:0:0:0:
287,292,84568,2,0,B|277:331|277:331|256:360,1,76.5000014591217,8|8,0:0|0:0,0:0:0:0:
154,90,84943,6,0,P|195:42|294:57,1,153.000002918243,8|8,0:0|0:0,0:0:0:0:
357,121,85505,1,0,0:0:0:0:
287,292,85693,2,0,L|278:217,1,76.5000014591217,8|0,0:0|0:0,0:0:0:0:
461,232,86068,2,0,L|470:307,1,76.5000014591217,8|0,0:0|0:0,0:0:0:0:
209,246,86443,6,0,P|244:224|307:216,1,76.5000014591217,8|0,0:0|0:0,0:0:0:0:
168,352,86818,1,8,0:0:0:0:
59,200,87005,1,8,0:0:0:0:
0,320,87193,2,0,L|85:335,1,76.5000014591217,8|0,0:0|0:0,0:0:0:0:
209,246,87568,1,8,0:0:0:0:
101,129,87755,1,0,0:0:0:0:
101,129,87849,1,0,0:0:0:0:
101,129,87943,6,0,B|89:98|89:98|105:36,1,76.5000014591217,8|0,0:0|0:0,0:0:0:0:
210,6,88318,1,8,0:0:0:0:
299,175,88505,1,8,0:0:0:0:
172,104,88693,1,8,0:0:0:0:
312,31,88880,1,0,0:0:0:0:
374,208,89068,2,0,L|360:283,1,76.5000014591217,8|0,0:0|0:0,0:0:0:0:
244,383,89443,5,8,0:0:0:0:
194,260,89630,1,0,0:0:0:0:
88,374,89818,1,8,0:0:0:0:
261,305,90005,1,8,0:0:0:0:
94,185,90193,2,0,P|78:231|73:283,1,76.5000014591217,8|0,0:0|0:0,0:0:0:0:
221,138,90568,1,8,0:0:0:0:
124,60,90755,1,8,0:0:0:0:
312,29,90943,6,0,B|354:40|354:40|421:26|421:26|461:33,1,153.000002918243,8|8,0:0|0:0,0:0:0:0:
480,197,91505,1,8,0:0:0:0:
427,101,91693,2,0,L|512:116,1,76.5000014591217,8|0,0:0|0:0,0:0:0:0:
379,236,92068,2,0,L|303:222,1,76.5000014591217,8|0,0:0|0:0,0:0:0:0:
144,280,92443,5,8,0:0:0:0:
190,179,92630,1,0,0:0:0:0:
232,334,92818,1,8,0:0:0:0:
67,234,93005,1,8,0:0:0:0:
196,104,93193,2,0,B|202:139|202:139|186:189,1,76.5000014591217,8|0,0:0|0:0,0:0:0:0:
35,115,93568,2,0,B|29:80|29:80|42:41,1,76.5000014591217,8|0,0:0|0:0,0:0:0:0:
67,234,93943,5,8,0:0:0:0:
117,80,94130,1,8,0:0:0:0:
200,311,94318,1,8,0:0:0:0:
0,191,94505,1,8,0:0:0:0:
285,99,94693,1,8,0:0:0:0:
162,227,94880,1,8,0:0:0:0:
198,15,95068,1,8,0:0:0:0:
368,170,95255,1,8,0:0:0:0:
76,232,96943,6,0,P|116:167|230:167,1,180,2|0,0:0|0:0,0:0:0:0:
285,223,97505,1,2,0:0:0:0:
479,138,97693,2,0,L|340:119,1,135,8|0,0:0|0:0,0:0:0:0:
269,104,98068,2,0,B|257:62|257:62|273:3,1,90,2|0,0:0|0:0,0:0:0:0:
285,223,98443,6,0,B|297:267|297:267|285:309,1,90
191,269,98818,1,2,0:0:0:0:
344,156,99005,2,0,P|390:161|445:189,1,90,0|8,0:0|0:0,0:0:0:0:
145,129,99380,2,0,P|192:87|283:60,1,135
335,60,99755,1,2,0:0:0:0:
191,269,99943,6,0,B|140:283|105:248|105:248|42:248|19:293,1,180,2|0,0:0|0:0,0:0:0:0:
161,200,100505,1,2,0:0:0:0:
334,358,100693,2,0,B|353:291|353:291|317:203,1,135,8|0,0:0|0:0,0:0:0:0:
301,159,101068,2,0,L|310:62,1,90,2|0,0:0|0:0,0:0:0:0:
161,200,101443,5,0,0:0:0:0:
98,108,101630,1,0,0:0:0:0:
27,279,101818,2,0,P|62:317|95:338,1,90,2|0,0:0|0:0,0:0:0:0:
165,49,102193,2,0,P|127:73|97:107,1,90,8|0,0:0|0:0,0:0:0:0:
63,193,102568,1,0,0:0:0:0:
8,25,102755,1,2,0:0:0:0:
250,105,102943,6,0,B|297:118|297:118|370:70|370:70|318:49,1,180,2|0,0:0|0:0,0:0:0:0:
242,16,103505,1,2,0:0:0:0:
253,197,103693,2,0,B|312:213|312:213|381:172,1,135,8|0,0:0|0:0,0:0:0:0:
433,125,104068,2,0,P|477:155|504:201,1,90,2|0,0:0|0:0,0:0:0:0:
273,383,104443,6,0,L|263:286,1,90
253,197,104818,1,2,0:0:0:0:
106,258,105005,2,0,B|65:270|65:270|18:260,1,90,0|8,0:0|0:0,0:0:0:0:
266,62,105380,2,0,L|252:196,1,135
245,272,105755,1,2,0:0:0:0:
361,128,105943,6,0,P|430:98|479:106,1,90,2|0,0:0|0:0,0:0:0:0:
355,242,106318,1,0,0:0:0:0:
266,62,106505,1,2,0:0:0:0:
481,195,106693,2,0,P|477:254|447:332,1,135,8|0,0:0|0:0,0:0:0:0:
401,383,107068,1,2,0:0:0:0:
255,220,107255,1,0,0:0:0:0:
198,330,107443,5,0,0:0:0:0:
355,242,107630,1,0,0:0:0:0:
154,188,107818,2,0,L|53:203,1,90,2|0,0:0|0:0,0:0:0:0:
266,62,108193,2,0,B|292:112|292:112|279:176|279:176|310:162|345:166,1,180,8|0,0:0|0:0,0:0:0:0:
437,196,108755,1,2,0:0:0:0:
286,333,108943,6,0,P|247:271|295:164,1,180,2|0,0:0|0:0,0:0:0:0:
372,102,109505,1,2,0:0:0:0:
492,316,109693,2,0,B|443:332|443:332|357:314,1,135,8|0,0:0|0:0,0:0:0:0:
286,333,110068,2,0,P|237:346|178:350,1,90,2|0,0:0|0:0,0:0:0:0:
59,217,110443,6,0,P|103:222|147:234,1,90
14,307,110818,1,2,0:0:0:0:
96,124,111005,2,0,L|196:108,1,90,0|8,0:0|0:0,0:0:0:0:
403,61,111380,2,0,L|243:35,1,135
193,27,111755,1,2,0:0:0:0:
398,230,111943,6,0,B|416:184|416:184|389:97|389:97|404:57,1,180,2|0,0:0|0:0,0:0:0:0:
313,174,112505,1,2,0:0:0:0:
499,136,112693,2,0,B|515:186|515:186|480:275,1,135,8|0,0:0|0:0,0:0:0:0:
453,332,113068,2,0,L|361:319,1,90,2|0,0:0|0:0,0:0:0:0:
223,161,113443,6,0,L|312:173,1,90
172,299,113818,1,2,0:0:0:0:
105,174,114005,1,0,0:0:0:0:
1,327,114193,2,0,B|41:339|41:339|95:325,1,90,8|0,0:0|0:0,0:0:0:0:
170,217,114568,1,0,0:0:0:0:
30,130,114755,1,2,0:0:0:0:
246,259,114943,6,0,P|298:182|246:105,1,180,2|0,0:0|0:0,0:0:0:0:
169,87,115505,1,2,0:0:0:0:
371,188,115693,2,0,B|434:216|434:216|503:182,1,135,8|0,0:0|0:0,0:0:0:0:
511,112,116068,2,0,P|504:63|490:21,1,90,2|0,0:0|0:0,0:0:0:0:
371,188,116443,6,0,P|357:230|351:275,1,90
361,370,116818,1,2,0:0:0:0:
153,257,117005,2,0,L|259:241,1,90,0|8,0:0|0:0,0:0:0:0:
33,350,117380,2,0,P|6:279|7:186,1,135
16,145,117755,1,2,0:0:0:0:
229,31,117943,6,0,L|212:141,1,90,2|0,0:0|0:0,0:0:0:0:
330,227,118318,1,0,0:0:0:0:
385,120,118505,1,2,0:0:0:0:
512,259,118693,2,0,B|473:273|473:273|425:258,1,90,8|0,0:0|0:0,0:0:0:0:
330,227,119068,1,2,0:0:0:0:
472,146,119255,1,0,0:0:0:0:
304,94,119443,5,0,0:0:0:0:
426,258,119630,1,0,0:0:0:0:
393,30,119818,2,0,L|383:132,1,90,2|0,0:0|0:0,0:0:0:0:
221,300,120193,6,0,P|189:236|228:130,1,180,8|0,0:0|0:0,0:0:0:0:
